#TITLE:Mechanted;
#SUBTITLE:;
#ARTIST:rareguy;
#TITLETRANSLIT:;
#SUBTITLETRANSLIT:;
#ARTISTTRANSLIT:;
#GENRE:XROSS;
#CREDIT:MUINELIM;
#BANNER:Mechanted.png;
#BACKGROUND:Mechanted-bg.png;
#LYRICSPATH:;
#CDTITLE:;
#MUSIC:Mechanted.ogg;
#OFFSET:0;
#SAMPLESTART:28.605000;
#SAMPLELENGTH:11;
#SELECTABLE:YES;
#DISPLAYBPM:172;
#BPMS:0=172,305=86;
#STOPS:179=0.087,179.75=0.087,182.5=0.087,183.25=0.087,186=0.087,186.75=0.087,193.5=0.087,194.25=0.087,197=0.087,197.75=0.087,200.5=0.087,201.25=0.087,208=0.087,208.75=0.087,211.5=0.087,212.25=0.087,215=0.087,215.75=0.087,222.5=0.087,223.25=0.087,226=0.087,226.75=0.087
;
#BGCHANGES:;
#KEYSOUNDS:;
#ATTACKS:;

//---------------dance-single - ----------------
#NOTES:
     dance-single:
     :
     Hard:
     15:
     0.670691,0.900881,0.875454,0.308984,0.313275,547,445,102,36,0,0,0.670691,0.900881,0.875454,0.308984,0.313275,547,445,102,36,0,0:
0000
0000
0000
0000
,
0000
0000
0000
0000
,
0000
0000
0000
0000
,
0000
0000
0000
0000
,
0000
0000
2000
0000
,
0000
3000
0020
0000
,
0000
0030
0002
0000
,
0000
0003
0200
0300
,
2000
3000
1002
1000
,
1000
1003
1020
1000
,
1000
1030
1200
1300
,
1001
1010
1200
1300
,
1002
0000
1003
0000
1010
0000
1000
0100
,
0010
0000
0000
0010
0000
0000
0010
0000
0011
0000
0000
0000
0001
0000
0100
0000
,
0010
0000
0000
0010
0000
0000
0010
0000
1010
0000
0000
0000
1000
0000
0010
0000
,
0100
0000
0000
0100
0000
0000
0100
0000
0101
0000
0000
0000
0001
0000
0010
0000
,
0100
0000
0000
0100
0000
0000
0100
0000
1100
0000
0000
0000
0011
0000
0000
0000
,
0101
0100
1010
0010
0000
0000
1001
0000
,
0011
1000
1100
0001
0100
0010
1000
0010
,
0100
0001
0100
0010
2000
0000
0000
0000
,
0000
0000
3000
0000
1001
0000
0001
0011
,
0000
0000
1100
0000
0000
0000
0011
0000
0010
0000
0001
0000
0100
0000
0000
1000
,
0000
0000
0100
0000
0001
0000
0010
0000
0110
0000
0000
0000
0100
0000
1000
0010
,
0100
0000
0001
0100
0010
0000
1000
0010
,
0100
0001
1000
0010
1001
0000
1000
1100
,
0000
0000
0011
0000
0000
0000
1100
0000
0100
0000
1000
0000
0010
0000
0000
0001
,
0000
0010
1000
0100
0120
0000
0031
0000
,
0210
0000
0000
0000
1300
0000
0000
0000
1000
0000
0010
0000
0100
0001
0010
0000
,
0001
0100
0110
0000
1001
0000
1000
1010
,
0000
0000
0011
0000
0000
0000
0101
0000
0100
0000
0001
0000
0010
0000
0000
1000
,
0000
0000
0010
0000
0001
0000
0100
0000
0110
0000
0000
0000
0010
0000
0100
0001
,
0010
0000
0001
0100
0010
0000
0100
0001
,
0010
0100
1000
0010
1001
0000
0001
0101
,
0000
0000
1100
0000
0000
0000
1010
0000
0010
0000
1000
0000
0100
0000
0000
0001
,
0000
0100
1000
0010
0210
0000
0301
0000
,
0120
0000
0000
0000
1030
0000
0000
0000
1000
0000
0000
0100
0000
0000
0001
0000
,
0000
0010
0000
0000
1000
0000
0100
0000
0120
0000
0000
0000
0000
0000
0000
0000
,
1000
0030
0200
0000
,
0001
0300
2000
0000
,
0010
0000
3000
0001
0000
0001
0000
0001
,
0011
0000
0100
0000
0000
0010
0000
0100
0020
0000
0000
0000
0001
0000
0000
0000
,
1000
0031
0200
1000
,
0001
0000
1300
0000
0001
0010
0100
1000
,
0100
0000
0010
0000
0001
0000
0100
0000
0010
0100
0020
0000
1000
0000
0000
0000
,
0030
0000
1001
0000
1001
0000
0000
0000
0110
0000
0000
0000
0011
0000
0000
0011
,
0000
0000
0011
0000
0200
0000
0000
0000
0300
0000
1010
0000
0000
1010
0000
0000
,
1010
0000
0200
0000
0000
0000
0300
0000
0011
0000
0000
0011
0000
0000
0011
0000
,
0200
0300
0110
0000
1010
0101
0001
0010
,
0100
0000
1001
0000
0000
0000
1100
0000
0000
1100
0000
0000
1100
0000
0020
0000
,
0000
0000
0030
0000
0101
0000
0000
0101
0000
0000
0101
0000
0020
0000
0000
0000
,
0030
0000
1100
0000
0000
1100
0000
0000
1100
0000
0020
0000
0030
0000
0110
0000
,
0000
0011
1100
1000
0010
0100
1001
0000
,
0011
0000
0000
1010
0000
0000
1100
0000
0002
0000
0000
0000
0003
0000
0101
0000
,
0000
1100
0000
0000
1010
0000
0002
0000
0000
0000
0003
0000
0011
0000
0000
1010
,
0000
1100
0002
0003
0011
0000
0101
1010
,
0010
0000
1000
0000
0001
0000
1001
0000
0000
0000
1100
0000
0000
0101
0000
0000
,
0011
0000
2000
0000
0000
0000
3000
0000
1010
0000
0000
0011
0000
0000
0101
0000
,
1000
0000
1010
0000
0000
0011
0000
0000
0001
0000
0101
0000
0000
1100
0000
0000
,
1000
0000
0010
1000
0010
1000
0010
0100
0010
0100
0001
0100
0001
0100
0001
0010
,
0001
0010
0100
0000
1000
0000
0010
0000
0001
0000
0010
0000
0100
0000
0010
0000
,
1000
0000
0100
0010
0001
0000
0100
0000
1000
0000
0100
0000
0001
0000
0010
0000
,
0100
0000
1000
0010
0100
0000
1000
0000
0100
0000
0001
0000
0010
0000
0100
0000
,
1000
0000
0010
0100
0001
0000
1000
0000
0100
0000
0010
0000
0001
0000
0100
0000
,
0010
0000
1000
0010
0100
0000
0010
1000
0100
0000
0001
0000
0100
0000
0010
0000
,
0001
0000
0010
0001
0100
0000
0010
0100
0001
0000
0010
0000
1000
0000
0010
0000
,
0100
0000
1000
0010
0100
0000
0001
0100
0010
0000
1000
0010
0100
0001
2000
0000
,
0000
0000
3001
0000
0010
0000
0100
0000
1000
0000
0010
0000
0100
0000
0001
1000
,
0100
0010
0002
0000
0003
0000
0101
0000
0000
1100
0000
0000
1010
0000
0010
0000
,
0100
0020
0000
1030
0100
0001
0010
1001
,
0000
0000
1000
0000
0010
1000
0100
0000
0001
0000
0100
0000
0010
0001
0100
0000
,
1000
0000
0100
0000
0010
0100
0010
0100
0001
1000
0001
1000
0010
0100
0001
1000
,
0010
0100
0001
0000
0010
0000
0100
0000
1000
0010
0100
0000
0001
0010
0100
0000
,
1000
0010
0100
0000
0001
0000
0011
0000
0000
1010
0000
0000
1100
0000
0100
0000
,
0010
0000
0001
0100
0010
0000
0001
0000
0010
0000
1000
0010
0100
0000
1000
0000
,
0100
0000
0001
0010
0100
0000
1000
0100
0010
0000
0001
0100
0010
1000
0100
0010
,
0001
0100
0010
0000
0000
0000
0000
0000
0000
0000
0000
0000
0000
0000
0000
0000
,
0000
0000
1000
0002
2000
0000
0000
0000
0000
0000
0000
0000
0000
0000
0000
0000
,
0000
0000
0000
3003
;

//---------------dance-double - ----------------
#NOTES:
     dance-double:
     :
     Hard:
     15:
     0.646168,0.867515,0.772459,0.317567,0.278944,527,437,90,37,0,0,0.646168,0.867515,0.772459,0.317567,0.278944,527,437,90,37,0,0:
// measure 0
00000000
00000000
00000000
00000000
,  // measure 1
00000000
00000000
00000000
00000000
,  // measure 2
00000000
00000000
00000000
00000000
,  // measure 3
00000000
00000000
00000000
00000000
,  // measure 4
00000000
00000000
02000000
00000000
,  // measure 5
00000000
03000000
00020000
00000000
,  // measure 6
00000000
00030000
00002000
00000000
,  // measure 7
00000000
00003000
00000020
00000030
,  // measure 8
00000002
00000003
00000201
00000001
,  // measure 9
00000001
00000301
00020010
00000010
,  // measure 10
00000010
00030010
00102000
00103000
,  // measure 11
01010000
10100000
02001000
03001000
,  // measure 12
00020100
00000000
00030100
00000000
00000110
00000000
00000001
00000100
,  // measure 13
00001000
00000000
00000000
00010000
00000000
00000000
00001000
00000000
01000000
00000000
00000000
00000000
10000000
00000000
01000000
00000000
,  // measure 14
00010000
00000000
00000000
00001000
00000000
00000000
00010000
00000000
00000010
00000000
00000000
00000000
00000001
00000000
00000010
00000000
,  // measure 15
00001000
00000000
00000000
00010000
00000000
00000000
00001000
00000000
00100000
00000000
00000000
00000000
10000000
00000000
01000000
00000000
,  // measure 16
00010000
00000000
00000000
00001000
00000000
00000000
00010000
00000000
00011000
00000000
00000000
00000000
01001000
00000000
00000000
00000000
,  // measure 17
00010100
00000100
00010000
00000010
00000000
00000000
00010010
00000000
,  // measure 18
00101000
00100000
00001000
01000000
00100000
00010000
00001000
00000100
,  // measure 19
00000010
00000100
00001000
00010000
00022000
00000000
00000000
00000000
,  // measure 20
00000000
00000000
00033000
00000000
00011000
00000000
00010000
00110000
,  // measure 21
00000000
00000000
10100000
00000000
00000000
00000000
11000000
00000000
01000000
00000000
00010000
00000000
00001000
00000000
00000000
00010000
,  // measure 22
00000000
00000000
00001000
00000000
00000100
00000000
00000001
00000000
00000011
00000000
00000000
00000000
00000010
00000000
00000100
00000010
,  // measure 23
00000100
00000000
00001000
00000001
00001000
00000000
00000001
00000100
,  // measure 24
00001000
00010000
00100000
00010000
00011000
00000000
00001000
00001100
,  // measure 25
00000000
00000000
00000101
00000000
00000000
00000000
00000011
00000000
00000010
00000000
00001000
00000000
00010000
00000000
00000000
00001000
,  // measure 26
00000000
00010000
00100000
10000000
12000000
00000000
03100000
00000000
,  // measure 27
02010000
00000000
00000000
00000000
03100000
00000000
00000000
00000000
00100000
00000000
10000000
00000000
01000000
00100000
01000000
00000000
,  // measure 28
00010000
00001000
00011000
00000000
00001100
00000000
00000001
00000011
,  // measure 29
00000000
00000000
00001010
00000000
00000000
00000000
00011000
00000000
00010000
00000000
00100000
00000000
10000000
00000000
00000000
01000000
,  // measure 30
00000000
00000000
00010000
00000000
00001000
00000000
00100000
00000000
01100000
00000000
00000000
00000000
10000000
00000000
00010000
10000000
,  // measure 31
00010000
00000000
10000000
00100000
00010000
00000000
00001000
00010000
,  // measure 32
00001000
00000100
00001000
00010000
01010000
00000000
10000000
10100000
,  // measure 33
00000000
00000000
00110000
00000000
00000000
00000000
00011000
00000000
00001000
00000000
00000100
00000000
00000001
00000000
00000000
00000010
,  // measure 34
00000000
00001000
00010000
00000100
00000120
00000000
00000031
00000000
,  // measure 35
00000120
00000000
00000000
00000000
00001030
00000000
00000000
00000000
00001000
00000000
00000000
00000100
00000000
00000000
00010000
00000000
,  // measure 36
00000000
01000000
00000000
00000000
10000000
00000000
00100000
00000000
02100000
00000000
00000000
00000000
00000000
00000000
00000000
00000000
,  // measure 37
00001000
03000000
00000200
00000000
,  // measure 38
00010000
00000300
00200000
00000000
,  // measure 39
00001000
00000000
00300000
00000010
00000000
00000010
00000000
00000010
,  // measure 40
00000110
00000000
00000001
00000000
00000000
00000100
00000000
00001000
00020000
00000000
00000000
00000000
00000100
00000000
00000000
00000000
,  // measure 41
00000010
00030100
00002000
01000000
,  // measure 42
00100000
00000000
01003000
00000000
00001000
00010000
00100000
10000000
,  // measure 43
01000000
00000000
00010000
00000000
00001000
00000000
00000010
00000000
00000001
00000100
00000001
00000000
00002000
00000000
00000000
00000000
,  // measure 44
00003000
00000000
00000100
00000000
00010100
00000000
00000000
00000000
00011000
00000000
00000000
00000000
01001000
00000000
00000000
01001000
,  // measure 45
00000000
00000000
01001000
00000000
00002000
00000000
00000000
00000000
00003000
00000000
00010100
00000000
00000000
00010100
00000000
00000000
,  // measure 46
00010100
00000000
00020000
00000000
00000000
00000000
00030000
00000000
01001000
00000000
00000000
01001000
00000000
00000000
01001000
00000000
,  // measure 47
00002000
00000000
00103000
00000000
00100000
01100000
10000000
00100000
,  // measure 48
00010000
00000000
00011000
00000000
00000000
00000000
00010010
00000000
00000000
00010010
00000000
00000000
00010010
00000000
00020000
00000000
,  // measure 49
00000000
00000000
00030000
00000000
00101000
00000000
00000000
00101000
00000000
00000000
00101000
00000000
00002000
00000000
00000000
00000000
,  // measure 50
00003000
00000000
00010010
00000000
00000000
00010010
00000000
00000000
00010010
00000000
00020000
00000000
00000000
00000000
00030100
00000000
,  // measure 51
00000000
00000100
00000110
00000001
00000100
00001000
00011000
00000000
,  // measure 52
00110000
00000000
00000000
10100000
00000000
00000000
11000000
00000000
00020000
00000000
00000000
00000000
00030000
00000000
00001100
00000000
,  // measure 53
00000000
00000101
00000000
00000000
00000011
00000000
00002000
00000000
00000000
00000000
00003000
00000000
00110000
00000000
00000000
10100000
,  // measure 54
00000000
11000000
00020000
00030000
00010100
00000000
00001000
01001000
,  // measure 55
00010000
00000000
00001000
00000000
00000100
00000000
00000101
00000000
00000000
00000000
00001010
00000000
00000000
00011000
00000000
00000000
,  // measure 56
00110000
00000000
20000000
00000000
00000000
00000000
30000000
00000000
01010000
00000000
00000000
00011000
00000000
00000000
00001100
00000000
,  // measure 57
00000001
00000000
00000101
00000000
00000000
00001000
00000000
00000000
00010000
00000000
11000000
00000000
00000000
00010000
00000000
00000000
,  // measure 58
00001000
00000000
00010000
00000100
00010000
00000100
00001000
00000000
00000100
00000000
00000010
00000001
00000010
00000001
00000100
00000000
,  // measure 59
00001000
00010000
00100000
10000000
01000000
00100000
00010000
01000000
,  // measure 60
00001000
00010000
00100000
00001000
00000010
00010000
00001000
00000100
,  // measure 61
00010000
01000000
00001000
00010000
00000100
00000010
00000001
00000100
,  // measure 62
00001000
00010000
00100000
10000000
01000000
00010000
00001000
00000010
,  // measure 63
00000001
00000000
00001000
00000100
00001000
00000000
00000100
00001000
00000010
00000000
00010000
00000000
00001000
00000000
00100000
00000000
,  // measure 64
00010000
00000000
01000000
00010000
01000000
00000000
00100000
01000000
00010000
00000000
00100000
00000000
01000000
00000000
10000000
00000000
,  // measure 65
00100000
00000000
00010000
00001000
00010000
00000000
00001000
00010000
00001000
00000000
00010000
00001000
00000100
00000010
00000200
00000000
,  // measure 66
00000000
00000000
00000301
00000000
00000010
00000000
00001000
00000000
00010000
00000000
01000000
00000000
10000000
00000000
00100000
01000000
,  // measure 67
00100000
00010000
00002000
00000000
00003000
00000000
01001000
00000000
00000000
00011000
00000000
00000000
00010100
00000000
00000100
00000000
,  // measure 68
00000010
00000002
00000000
00001003
00000010
00010000
00001000
00011000
,  // measure 69
00000000
00000000
00010000
00000000
00100000
01000000
00100000
00000000
00010000
00000000
00001000
00000000
00000100
00000010
00000100
00000000
,  // measure 70
00000001
00000000
00000010
00000000
00000100
00001000
00000100
00001000
00000100
00010000
00000100
00010000
00001000
00010000
00001000
00010000
,  // measure 71
00001000
00000000
00010000
00000000
01000000
00000000
10000000
00000000
00100000
00010000
00001000
00000000
00100000
00010000
01000000
00000000
,  // measure 72
00100000
00010000
00001000
00000000
00010000
00000000
00010100
00000000
00000000
00011000
00000000
00000000
01001000
00000000
00001000
00000000
,  // measure 73
00010000
00000000
00001000
00000100
00000010
00000000
00000100
00000000
00000001
00000000
00000010
00001000
00010000
00000000
01000000
00000000
,  // measure 74
10000000
00000000
00100000
01000000
00100000
00000000
00010000
00001000
00010000
00000000
00000100
00000010
00000100
00000010
00000001
00001000
,  // measure 75
00000100
00000010
00000001
00000000
00000000
00000000
00000000
00000000
00000000
00000000
00000000
00000000
00000000
00000000
00000000
00000000
,  // measure 76
00000000
00000000
00000100
00002000
00020000
00000000
00000000
00000000
00000000
00000000
00000000
00000000
00000000
00000000
00000000
00000000
,  // measure 77
00000000
00000000
00000000
00033000
;

//---------------dance-single - ----------------
#NOTES:
     dance-single:
     :
     Beginner:
     3:
     0.160622,0.257916,0.180240,0.008583,0,131,110,21,1,0,0,0.160622,0.257916,0.180240,0.008583,0,131,110,21,1,0,0:
0000
0000
0000
0000
,
0000
0000
0000
0000
,
0000
0000
0000
0000
,
0000
0000
0000
0000
,
0000
0000
1000
0000
,
0000
0000
0100
0000
,
0000
0000
0010
0000
,
0000
0000
0001
0000
,
0000
0000
1000
0000
,
0000
0000
0100
0000
,
0000
0000
0010
0000
,
0000
0000
0001
0000
,
0000
0000
0100
0000
,
0000
0000
0010
0000
,
0000
0000
1000
0000
,
0000
0000
0001
0000
,
0000
0000
0100
0000
,
0100
0000
0010
0000
,
0010
0000
1000
0000
,
0001
0000
0200
0000
,
0000
0300
0100
0000
,
0001
0000
0100
0000
,
0100
0000
0010
0000
,
1000
0000
0010
0000
,
0010
0000
1000
0000
,
0001
0000
1000
0000
,
1000
0000
0100
0000
,
0010
0000
0001
0000
,
0000
0000
0001
0000
,
0010
0000
0001
0000
,
0001
0000
1000
0000
,
0100
0000
1000
0000
,
1000
0000
0010
0000
,
0100
0000
0010
0000
,
0010
0000
1000
0000
,
0001
0000
0100
0100
,
0100
0000
1001
0000
,
0000
0000
0100
0000
,
0000
0000
1001
0000
,
0000
0000
0010
0000
,
0000
0000
1001
0000
,
0100
0000
1001
0000
,
0010
0000
0100
0000
,
0010
0000
0100
0100
,
0100
0000
1001
0000
,
0000
1001
0000
0000
,
0000
1001
0000
0000
0000
0000
0000
0000
,
1001
0000
0000
0000
,
0000
0110
0000
0000
0000
0000
0000
0110
,
0000
0000
0000
0110
,
0000
0000
0000
0000
0000
0110
0000
0000
,
0000
0000
0000
1001
,
0000
0000
0110
0000
,
0000
0000
0000
1001
0000
0000
0000
0000
,
0000
0110
0000
0000
,
0000
0000
0000
0110
0000
0000
0000
0000
,
0000
1001
0000
0000
0000
0000
0000
0000
,
0000
0110
0000
0000
0000
1001
0000
0000
,
0000
1000
0000
1000
0000
1000
0000
0000
,
0000
0001
0000
0000
0000
0100
0000
0000
,
0000
0001
0000
0000
0000
0000
0000
0000
,
0000
1000
0000
0000
0000
0010
0000
0000
,
0000
1000
0000
0000
0000
0000
0000
0000
,
0000
0001
0000
0000
0000
0010
0000
0000
,
0000
0001
0000
0000
0000
0000
0000
0000
,
0000
1000
0000
0000
0000
0100
0000
0000
,
0000
1000
0000
0000
0000
0000
0000
0000
,
0000
0001
0000
0000
0000
0010
0000
0000
,
0000
0100
0000
0000
0000
0000
0000
0000
,
0000
1000
0000
0000
0000
0100
0000
0000
,
0000
0010
0000
0000
0000
0000
0000
0000
,
0000
0001
0000
0000
0000
0100
0000
0000
,
0000
0010
0000
0000
0000
1000
0000
0000
,
0000
0010
0000
0000
0000
0100
0000
0000
,
0000
0001
0000
0000
0000
1000
0000
0000
,
0000
1001
0000
0000
0000
0000
0000
0000
;

//---------------dance-single - ----------------
#NOTES:
     dance-single:
     :
     Easy:
     7:
     0.275878,0.400391,0.137326,0.163075,0.047206,225,209,16,19,0,0,0.275878,0.400391,0.137326,0.163075,0.047206,225,209,16,19,0,0:
0000
0000
0000
0000
,
0000
0000
0000
0000
,
0000
0000
0000
0000
,
0000
0000
0000
0000
,
0000
0000
1000
0000
,
0000
0000
0010
0000
,
0000
0000
0001
0000
,
0000
0000
0100
0000
,
1000
0000
0001
0000
,
0000
0000
0010
0000
,
0000
0000
1000
0000
,
0100
0001
1000
0000
,
0010
0000
0200
0000
,
0301
0000
0200
0000
,
1300
0000
0200
0000
,
0301
0000
0200
0000
,
1300
0000
0100
0100
,
0110
0110
0000
0001
,
1001
1001
0100
0010
,
1000
0001
0200
0000
,
0000
0300
1001
0000
,
1000
0100
1000
0100
,
0010
0001
0010
0000
,
0001
0100
0010
0000
,
0100
0001
1001
0000
,
0001
0010
0001
0010
,
0100
1000
0200
0300
,
0020
0030
0001
1000
,
0001
0100
0110
0000
,
0010
1000
0010
1000
,
0001
0100
0001
0000
,
1000
0001
0010
0000
,
0001
0100
0110
0000
,
0100
0001
0100
0001
,
1000
0010
2000
3000
,
0002
0003
0010
0100
,
0010
0110
2000
0000
,
3000
0000
0200
0000
,
0300
0000
0002
0000
,
0003
0000
0020
0000
,
0030
0000
1000
1000
,
0100
0100
0010
0010
,
0001
0001
1000
0100
,
0010
0001
0200
0000
,
0000
0000
0000
0000
0300
0000
0000
0000
0110
0000
0000
0000
0010
0000
0000
0010
,
0000
0000
0010
0000
0000
0000
0000
0000
0000
0000
0100
0000
0000
0100
0000
0000
,
0100
0000
0000
0000
0000
0000
0000
0000
0010
0000
0000
0010
0000
0000
0010
0000
,
0000
0000
0000
1000
0000
0001
0000
1000
,
0000
0000
1001
0000
0000
0000
0001
0000
0000
0001
0000
0000
0001
0000
0000
0000
,
0000
0000
0000
0000
1000
0000
0000
1000
0000
0000
1000
0000
0000
0000
0000
0000
,
0000
0000
0001
0000
0000
0001
0000
0000
0001
0000
0000
0000
0000
0000
0000
0000
,
0100
0010
0100
0110
,
0010
0000
0000
1000
0000
0000
0010
0000
0000
0000
0000
0000
0000
0000
0100
0000
,
0000
0001
0000
0000
0100
0000
0000
0000
0000
0000
0000
0000
0010
0000
0000
1000
,
0000
0010
0000
0000
0000
0100
0000
0001
,
0000
0000
1000
0000
0000
0000
1001
0000
0000
0000
0001
0000
0000
0010
0000
0000
,
0001
0000
0000
0000
0000
0000
0000
0000
1000
0000
0000
0100
0000
0000
1000
0000
,
0000
0020
0000
0000
0000
0000
0000
0000
,
0000
0200
0000
0000
0000
0000
0000
0330
,
0000
0010
0000
1000
0000
0100
0000
1000
,
0000
0010
0000
1000
0000
0100
0000
0100
,
0000
0010
0000
0001
0000
0100
0000
0001
,
0000
0010
0000
0001
0000
0100
0000
0100
,
0000
1000
0000
0010
0000
0001
0000
0000
,
0000
1000
0000
0100
0000
0001
0000
0000
,
0000
0001
0000
0010
0000
1000
0000
0000
,
0000
0001
0000
0100
0000
1000
0000
0000
,
0000
1001
0000
0010
0000
0100
0000
0010
,
0000
2000
0000
0000
0000
0000
0000
3001
,
0000
0001
0000
0100
0000
0010
0000
1000
,
0000
0100
0000
0010
0000
0001
0000
0100
,
0000
0100
0000
1000
0000
0001
0000
0100
,
0000
0100
0000
1000
0000
0001
0000
0010
,
0000
0010
0000
1000
0000
0001
0000
0010
,
0000
0010
0000
1000
0000
0001
0000
1000
,
0000
1001
0000
0000
0000
0000
0000
0000
,
0000
0220
0000
0000
,
0000
0000
0000
0330
;

//---------------dance-double - ----------------
#NOTES:
     dance-double:
     :
     Easy:
     7:
     0.274652,0.400391,0.137326,0.163075,0.047206,224,208,16,19,0,0,0.274652,0.400391,0.137326,0.163075,0.047206,224,208,16,19,0,0:
// measure 0
00000000
00000000
00000000
00000000
,  // measure 1
00000000
00000000
00000000
00000000
,  // measure 2
00000000
00000000
00000000
00000000
,  // measure 3
00000000
00000000
00000000
00000000
,  // measure 4
00000000
00000000
01000000
00000000
,  // measure 5
00000000
00000000
00010000
00000000
,  // measure 6
00000000
00000000
00001000
00000000
,  // measure 7
00000000
00000000
00000010
00000000
,  // measure 8
00000001
00000000
00000100
00000000
,  // measure 9
00000000
00000000
00001000
00000000
,  // measure 10
00000000
00000000
00100000
00000000
,  // measure 11
10000000
01000000
00010000
00000000
,  // measure 12
00001000
00000000
00020000
00000000
,  // measure 13
00030010
00000000
00020000
00000000
,  // measure 14
00130000
00000000
00020000
00000000
,  // measure 15
00030010
00000000
00020000
00000000
,  // measure 16
00031000
00000000
00001000
00001000
,  // measure 17
01001000
01001000
00000000
00010000
,  // measure 18
00010100
00010100
00000100
00000010
,  // measure 19
00000001
00000100
00002000
00000000
,  // measure 20
00000000
00003000
00011000
00000000
,  // measure 21
00100000
00010000
00100000
00010000
,  // measure 22
01000000
10000000
01000000
00000000
,  // measure 23
00010000
00100000
01000000
00000000
,  // measure 24
00010000
00001000
00011000
00000000
,  // measure 25
00000100
00001000
00000100
00001000
,  // measure 26
00000010
00000001
00000020
00000030
,  // measure 27
00000200
00000300
00001000
00010000
,  // measure 28
00001000
00000000
00011000
00000000
,  // measure 29
01000000
00010000
01000000
00010000
,  // measure 30
00100000
10000000
00100000
00000000
,  // measure 31
00010000
01000000
00100000
00000000
,  // measure 32
00010000
00001000
00011000
00000000
,  // measure 33
00000010
00001000
00000010
00001000
,  // measure 34
00000100
00000001
00000200
00000300
,  // measure 35
00000020
00000030
00001000
00010000
,  // measure 36
00001000
00011000
00200000
00000000
,  // measure 37
00300000
00000000
00020000
00000000
,  // measure 38
00030000
00000000
00002000
00000000
,  // measure 39
00003000
00000000
00000200
00000000
,  // measure 40
00000300
00000000
00000001
00000001
,  // measure 41
00000010
00000010
00001000
00001000
,  // measure 42
00010000
00010000
01000000
10000000
,  // measure 43
00100000
00010000
00002000
00000000
,  // measure 44
00000000
00000000
00000000
00000000
00003000
00000000
00000000
00000000
00011000
00000000
00000000
00000000
01000000
00000000
00000000
01000000
,  // measure 45
00000000
00000000
01000000
00000000
00000000
00000000
00000000
00000000
00000000
00000000
01000000
00000000
00000000
01000000
00000000
00000000
,  // measure 46
01000000
00000000
00000000
00000000
00000000
00000000
00000000
00000000
01000000
00000000
00000000
01000000
00000000
00000000
01000000
00000000
,  // measure 47
00000000
00000000
00000000
00001000
00000000
00010000
00000000
00001000
,  // measure 48
00000000
00000000
00011000
00000000
00000000
00000000
00000010
00000000
00000000
00000010
00000000
00000000
00000010
00000000
00000000
00000000
,  // measure 49
00000000
00000000
00000000
00000000
00000010
00000000
00000000
00000010
00000000
00000000
00000010
00000000
00000000
00000000
00000000
00000000
,  // measure 50
00000000
00000000
00000010
00000000
00000000
00000010
00000000
00000000
00000010
00000000
00000000
00000000
00000000
00000000
00000000
00000000
,  // measure 51
00010000
00001000
00010000
00011000
,  // measure 52
00001000
00000000
00000000
01000000
00000000
00000000
00001000
00000000
00000000
00000000
00000000
00000000
00000000
00000000
00010000
00000000
,  // measure 53
00000000
00000010
00000000
00000000
00010000
00000000
00000000
00000000
00000000
00000000
00000000
00000000
00001000
00000000
00000000
01000000
,  // measure 54
00000000
00001000
00000000
00000000
00000000
00010000
00000000
00001000
,  // measure 55
00000000
00000000
00010000
00000000
00000000
00000000
00011000
00000000
00000000
00000000
00001000
00000000
00000000
00100000
00000000
00000000
,  // measure 56
00001000
00000000
00000000
00000000
00000000
00000000
00000000
00000000
00010000
00000000
00000000
00000100
00000000
00000000
00010000
00000000
,  // measure 57
00000000
00002000
00000000
00000000
00000000
00000000
00000000
00000000
,  // measure 58
00000000
00020000
00000000
00000000
00000000
00000000
00000000
00033000
,  // measure 59
00000000
00001000
00000000
00010000
00000000
00100000
00000000
10000000
,  // measure 60
00000000
01000000
00000000
00100000
00000000
00010000
00000000
01000000
,  // measure 61
00000000
00001000
00000000
00010000
00000000
00000010
00000000
00001000
,  // measure 62
00000000
00000100
00000000
00000010
00000000
00000001
00000000
00000100
,  // measure 63
00000000
00001000
00000000
00010000
00000000
01000000
00000000
00000000
,  // measure 64
00000000
00010000
00000000
00001000
00000000
00000100
00000000
00000000
,  // measure 65
00000000
00001000
00000000
00010000
00000000
00100000
00000000
00000000
,  // measure 66
00000000
00010000
00000000
00001000
00000000
00000010
00000000
00000000
,  // measure 67
00000000
00000110
00000000
00000001
00000000
00000100
00000000
00001000
,  // measure 68
00000000
00020000
00000000
00000000
00000000
00000000
00000000
00031000
,  // measure 69
00000000
00001000
00000000
00100000
00000000
00010000
00000000
01000000
,  // measure 70
00000000
00100000
00000000
10000000
00000000
01000000
00000000
00010000
,  // measure 71
00000000
00010000
00000000
00001000
00000000
00010000
00000000
00001000
,  // measure 72
00000000
00001000
00000000
00000100
00000000
00000001
00000000
00000100
,  // measure 73
00000000
00000100
00000000
00000001
00000000
00000010
00000000
00000001
,  // measure 74
00000000
00000001
00000000
00000010
00000000
00001000
00000000
00010000
,  // measure 75
00000000
00011000
00000000
00000000
00000000
00000000
00000000
00000000
,  // measure 76
00000000
00022000
00000000
00000000
,  // measure 77
00000000
00000000
00000000
00033000
;

//---------------dance-single - ----------------
#NOTES:
     dance-single:
     :
     Medium:
     11:
     0.430370,0.567221,0.231738,0.291818,0.081537,351,324,27,34,0,0,0.430370,0.567221,0.231738,0.291818,0.081537,351,324,27,34,0,0:
0000
0000
0000
0000
,
0000
0000
0000
0000
,
0000
0000
0000
0000
,
0000
0000
0000
0000
,
0000
0000
2000
0000
,
0000
0000
3200
0000
,
0000
0000
0320
0000
,
0000
0000
0032
0000
,
2003
0000
3002
0000
,
0000
0000
0023
0000
,
0000
0000
0230
0000
,
2300
3002
2003
0000
,
3020
0000
0130
0001
,
0011
0000
0010
1000
,
1100
0000
0100
1000
,
1010
0000
0010
0001
,
0101
0000
1000
0001
,
1001
1001
0010
0100
,
0110
0000
0110
0000
0010
1000
0010
1000
,
0001
0100
0001
0100
0020
0000
0000
0000
,
0000
0000
0030
0000
1001
0000
1000
0100
,
0000
0001
0000
0010
0100
0000
0010
0000
,
1000
0000
0001
0000
1001
0000
1000
0010
,
1000
0000
0001
0100
0001
0000
1000
0000
,
0010
0100
0010
0000
1001
0000
0001
0010
,
0000
1000
0000
0100
0010
0000
1000
0000
,
0001
1001
0020
1030
,
0200
0000
0301
0000
0010
0100
0010
0100
,
0001
1000
0001
0000
0110
0000
0010
1000
,
0000
0100
0000
0001
1000
0000
0010
0000
,
0001
0000
0100
0000
0110
0000
0010
0100
,
0001
0000
0100
0010
1000
0000
0100
0000
,
1000
0001
1000
0000
0110
0000
0100
0001
,
0000
0010
0000
1000
0001
0000
0100
0000
,
1000
0001
0020
0031
,
0200
0000
0000
0000
1300
0000
0000
0000
1000
0000
0000
0010
0000
0000
0100
0000
,
0000
0001
0000
0000
1000
0000
0001
0000
0200
0000
0000
0000
0000
0000
0000
0000
,
0010
0300
0002
0000
,
1000
0003
0020
0000
,
0100
0000
0030
0001
0000
0001
0000
0001
,
1000
0000
0001
0000
0000
0100
0000
0000
0110
0000
0000
0000
1000
0000
0000
0000
,
1000
1000
0110
0001
,
0001
0000
0001
0000
0010
0001
0010
0001
,
1000
0100
1000
0100
0020
0000
0000
0000
,
0000
0000
0000
0000
0030
0000
0000
0000
1001
0000
0000
0000
0001
0000
0000
0100
,
0000
0000
0001
0000
0020
0000
0030
0000
0000
0000
1000
0000
0000
0010
0000
0000
,
1000
0000
0200
0000
0300
0000
0000
0000
0001
0000
0000
0100
0000
0000
0001
0000
,
0020
0030
0100
0000
0010
0100
0010
0001
,
1000
0000
1001
0000
0000
0000
1000
0000
0000
0100
0000
0000
1000
0000
0020
0000
,
0030
0000
0000
0000
0001
0000
0000
0010
0000
0000
0001
0000
0200
0000
0300
0000
,
0000
0000
1000
0000
0000
0100
0000
0000
1000
0000
0020
0000
0030
0000
0100
0000
,
0000
0010
0100
0010
1000
0001
1001
0000
,
1000
0000
0000
0010
0000
0000
0001
0000
0200
0000
0300
0000
0000
0000
0001
0000
,
0000
0010
0000
0000
1000
0000
0200
0000
0300
0000
0000
0000
1000
0000
0000
0010
,
0000
0001
0200
0300
1000
0000
0001
0010
,
0100
0000
1000
0000
0001
0000
1001
0000
0000
0000
1000
0000
0000
0100
0000
0000
,
0001
0000
0020
0000
0030
0000
0000
0000
0001
0000
0000
0100
0000
0000
1000
0000
,
0010
0000
0100
0000
0000
0001
0000
0000
0100
0000
0010
0000
0000
1000
0000
0000
,
0010
0100
0001
1000
0010
0100
0001
1000
,
0010
0100
0000
0001
0000
0010
0100
0010
,
0000
0100
0000
1000
0000
0010
0100
0010
,
0000
0100
0001
0010
0000
0010
0001
0100
,
0000
0100
0010
1000
0000
1000
0010
0100
,
0000
0100
0001
1000
0001
0010
0000
0100
,
0000
1000
0010
0100
0000
0001
0000
1000
,
0000
0100
0010
0001
0010
0100
0000
1000
,
0000
0010
0100
0001
0000
1000
0000
0010
,
0000
0000
0110
0000
0000
0000
1000
0000
0000
0001
0000
0000
0100
0000
0100
0000
,
0000
0020
0000
1000
0000
0001
0000
1030
,
0000
0000
1000
0000
0000
0100
0000
0000
0010
0000
0000
0000
0010
0000
0001
0000
,
0100
0001
0000
0010
0100
1000
0001
0010
,
0100
1000
0000
0010
0110
0000
0101
0000
,
1100
0000
1000
0000
0001
0000
1000
0000
0000
0100
0000
0000
0010
0000
0000
0000
,
0001
0010
0100
1000
0001
0010
0100
1000
,
0000
0010
0100
0001
1000
0100
0001
0100
,
1000
1001
0000
0000
0000
0000
0000
0000
,
0000
0010
0220
0000
0000
0000
0000
0000
,
0000
0000
0000
0330
;

//---------------dance-double - ----------------
#NOTES:
     dance-double:
     :
     Medium:
     11:
     0.425466,0.600587,0.223155,0.317567,0.081537,347,321,26,37,0,0,0.425466,0.600587,0.223155,0.317567,0.081537,347,321,26,37,0,0:
// measure 0
00000000
00000000
00000000
00000000
,  // measure 1
00000000
00000000
00000000
00000000
,  // measure 2
00000000
00000000
00000000
00000000
,  // measure 3
00000000
00000000
00000000
00000000
,  // measure 4
00000000
00000000
02000000
00000000
,  // measure 5
00000000
00000000
03020000
00000000
,  // measure 6
00000000
00000000
00032000
00000000
,  // measure 7
00000000
00000000
00003020
00000000
,  // measure 8
00000032
00000000
00000203
00000000
,  // measure 9
00000000
00000000
00002300
00000000
,  // measure 10
00000000
00000000
00023000
00000000
,  // measure 11
00230000
20300000
32000000
00000000
,  // measure 12
03020000
00000000
00031000
00010000
,  // measure 13
00010010
00000000
00010000
00001000
,  // measure 14
00101000
00000000
00001000
00010000
,  // measure 15
00010100
00000000
00010000
00001000
,  // measure 16
01001000
00000000
00001000
00010000
,  // measure 17
00011000
00011000
00010000
00001000
,  // measure 18
00011000
00000000
00011000
00000000
00001000
00100000
00010000
01000000
,  // measure 19
00001000
00010000
00000100
00001000
00000020
00000000
00000000
00000000
,  // measure 20
00000000
00000000
00000030
00000000
00001001
00000000
00000001
00000100
,  // measure 21
00000000
00001000
00000000
00010000
00001000
00000000
00000100
00000000
,  // measure 22
00000001
00000000
00000010
00000000
00000110
00000000
00000100
00001000
,  // measure 23
00000100
00000000
00010000
00001000
00010000
00000000
01000000
00000000
,  // measure 24
10000000
00100000
01000000
00000000
10010000
00000000
10000000
01000000
,  // measure 25
00000000
00010000
00000000
00001000
00010000
00000000
01000000
00000000
,  // measure 26
10000000
00100000
02000000
03001000
,  // measure 27
00020000
00000000
00030100
00000000
00000100
00001000
00000100
00001000
,  // measure 28
00000100
00000010
00000001
00000000
00000110
00000000
00000010
00001000
,  // measure 29
00000000
00010000
00000000
00100000
10000000
00000000
01000000
00000000
,  // measure 30
00100000
00000000
00010000
00000000
10010000
00000000
10000000
00100000
,  // measure 31
10000000
00000000
00010000
01000000
00010000
00000000
00100000
00000000
,  // measure 32
01000000
10000000
00010000
00000000
01100000
00000000
00100000
00001000
,  // measure 33
00000000
00010000
00000000
00001000
00000010
00000000
00000001
00000000
,  // measure 34
00001000
00000010
00020000
00031000
,  // measure 35
00200000
00000000
00000000
00000000
01300000
00000000
00000000
00000000
10000000
00000000
00000000
00100000
00000000
00000000
00010000
00000000
,  // measure 36
00000000
00001000
00000000
00000000
00010000
00000000
00000100
00000000
00002000
00000000
00000000
00000000
00000000
00000000
00000000
00000000
,  // measure 37
00000001
00003000
00000200
00000000
,  // measure 38
00010000
00000300
00002000
00000000
,  // measure 39
00000010
00000000
00003000
00000001
00000000
00000001
00000000
00000001
,  // measure 40
00000100
00000000
00001000
00000000
00000000
00010000
00000000
00000000
00011000
00000000
00000000
00000000
01000000
00000000
00000000
00000000
,  // measure 41
01000000
01000000
00011000
00000010
,  // measure 42
00000010
00000000
00000010
00000000
00010000
00001000
00100000
00010000
,  // measure 43
01000000
00001000
00010000
00000100
00000020
00000000
00000000
00000000
,  // measure 44
00000000
00000000
00000000
00000000
00000030
00000000
00000000
00000000
00001001
00000000
00000000
00000000
00000001
00000000
00000000
00000001
,  // measure 45
00000000
00000000
00000001
00000000
00000200
00000000
00000300
00000000
00000000
00000000
00000100
00000000
00000000
00000100
00000000
00000000
,  // measure 46
00000100
00000000
00002000
00000000
00003000
00000000
00000000
00000000
00001000
00000000
00000000
00001000
00000000
00000000
00001000
00000000
,  // measure 47
00020000
00030000
00100000
00000000
10000000
01000000
00100000
00010000
,  // measure 48
00000000
00000000
10010000
00000000
00000000
00000000
10000000
00000000
00000000
10000000
00000000
00000000
10000000
00000000
02000000
00000000
,  // measure 49
03000000
00000000
00000000
00000000
01000000
00000000
00000000
01000000
00000000
00000000
01000000
00000000
00020000
00000000
00030000
00000000
,  // measure 50
00000000
00000000
00010000
00000000
00000000
00010000
00000000
00000000
00010000
00000000
00002000
00000000
00003000
00000000
00000100
00000000
,  // measure 51
00000000
00000001
00000100
00000010
00001000
00000000
00001001
00000000
,  // measure 52
00000001
00000000
00000000
00000100
00000000
00000000
00001000
00000000
00020000
00000000
00030000
00000000
00000000
00000000
00001000
00000000
,  // measure 53
00000000
00010000
00000000
00000000
00100000
00000000
20000000
00000000
30000000
00000000
00000000
00000000
01000000
00000000
00000000
00010000
,  // measure 54
00000000
00001000
00000200
00000300
00000001
00000000
00000010
00000100
,  // measure 55
00010000
00000000
00001000
00000000
00000000
00000000
00011000
00000000
00000000
00000000
00010000
00000000
00000000
01000000
00000000
00000000
,  // measure 56
10000000
00000000
00200000
00000000
00300000
00000000
00000000
00000000
00010000
00000000
00000000
00001000
00000000
00000000
00000100
00000000
,  // measure 57
00000001
00000000
00000010
00000000
00000000
00000010
00000000
00000000
00001000
00000000
00010000
00000000
00000000
00010000
00000000
00000000
,  // measure 58
01000000
10000000
01000000
10000000
00100000
01000000
00100000
01000000
,  // measure 59
00100000
00010000
00000000
00001000
00000000
00000010
00000001
00000010
,  // measure 60
00000000
00001000
00000000
00010000
00000000
00100000
10000000
00100000
,  // measure 61
00000000
00010000
00001000
00010000
00000000
00000100
00001000
00000100
,  // measure 62
00000000
00000010
00000001
00000010
00000000
00000001
00000100
00000001
,  // measure 63
00000000
00001000
00000010
00010000
00001000
00100000
00000000
01000000
,  // measure 64
00000000
10000000
00100000
00010000
00000000
00001000
00000000
00010000
,  // measure 65
00000000
00000100
00001000
00000100
00000010
00000001
00000000
00001000
,  // measure 66
00000000
00000010
00010000
00001000
00000000
00100000
00000000
01000000
,  // measure 67
00000000
00000000
11000000
00000000
00000000
00000000
00100000
00000000
00000000
00010000
00000000
00000000
00001000
00000000
00001000
00000000
,  // measure 68
00000000
00200000
00000000
02300000
00000000
03020000
00000000
00030200
,  // measure 69
00000000
00000000
00000310
00000000
00000000
00000001
00000000
00000000
00000100
00000000
00000000
00000000
00000100
00000000
00000010
00000000
,  // measure 70
00010000
00001000
00000000
00010000
00001000
00010000
00100000
01000000
,  // measure 71
00100000
10000000
00000000
01000000
01010000
00000000
00011000
00000000
,  // measure 72
00001100
00000000
00000100
00000000
00000001
00000000
00000010
00000000
00000000
00000100
00000000
00000000
00001000
00000000
00000000
00000000
,  // measure 73
00000001
00000100
00000010
00010000
00001000
00100000
00010000
01000000
,  // measure 74
00100000
10000000
00010000
01000000
00001000
00010000
00000100
00001000
,  // measure 75
00000001
00001001
00000000
00000000
00000000
00000000
00000000
00000000
,  // measure 76
00000000
00022000
00000000
00000000
,  // measure 77
00000000
00000000
00000000
00033000
;
