#VERSION:0.83;
#TITLE:Mayday;
#SUBTITLE:;
#ARTIST:Dreamcatcher;
#TITLETRANSLIT:;
#SUBTITLETRANSLIT:;
#ARTISTTRANSLIT:;
#GENRE:K-POP;
#ORIGIN:;
#CREDIT:MUINELIM;
#BANNER:Mayday.png;
#BACKGROUND:Mayday-bg.png;
#PREVIEWVID:;
#JACKET:Mayday-jacket.png;
#CDIMAGE:;
#DISCIMAGE:;
#LYRICSPATH:;
#CDTITLE:;
#MUSIC:Mayday.ogg;
#OFFSET:0.000000;
#SAMPLESTART:54.483002;
#SAMPLELENGTH:10.959999;
#SELECTABLE:YES;
#DISPLAYBPM:87.000000:174.000000;
#BPMS:0.000=174.000,
225.000=87.000,
263.000=174.000;
#STOPS:225.000=2.069,
280.000=0.345;
#DELAYS:;
#WARPS:;
#TIMESIGNATURES:0.000=4=4;
#TICKCOUNTS:0.000=4;
#COMBOS:0.000=1;
#SPEEDS:0.000=1.000=0.000=0;
#SCROLLS:0.000=1.000;
#FAKES:;
#LABELS:0.000=Song Start;
#BGCHANGES:0.000=Mayday.mp4=1.000=0=0=1=Centered====,
99999=-nosongbg-=1.000=0=0=0 // don't automatically add -songbackground-
;
#KEYSOUNDS:;
#ATTACKS:
;

//---------------dance-single - ----------------
#NOTEDATA:;
#CHARTNAME:;
#STEPSTYPE:dance-single;
#DESCRIPTION:;
#CHARTSTYLE:;
#DIFFICULTY:Beginner;
#METER:3;
#RADARVALUES:0.112368,0.247891,0.047671,0.023836,0.000000,99.000000,93.000000,6.000000,3.000000,0.000000,0.000000,0.000000,0.000000,0.000000,0.112368,0.247891,0.047671,0.023836,0.000000,99.000000,93.000000,6.000000,3.000000,0.000000,0.000000,0.000000,0.000000,0.000000;
#CREDIT:MILEN;
#DISPLAYBPM:174.000000;
#NOTES:
0000
0000
0000
0000
,
0000
0000
0000
0000
,
0000
0000
0000
0000
,
0000
0000
0000
0000
,
0000
0000
0000
0000
,
0000
0000
0000
0000
,
0000
0000
0000
0000
,
0000
0000
0000
0000
,
0000
1000
0000
0000
,
0000
0001
0000
0000
,
0000
1000
0000
0000
,
0000
0001
0000
0000
,
0000
0100
0000
0000
,
0000
0010
0000
0000
,
0000
0100
0000
0000
,
0000
0010
0000
0000
,
0000
1000
0000
0000
,
0000
1000
0000
0000
,
0000
0100
0000
0000
,
0000
0100
0000
0000
,
0000
0010
0000
0000
,
0000
0010
0000
0000
,
0000
0001
0000
0000
,
0000
0001
0000
0000
,
0000
1000
0000
0000
,
0000
1000
0000
0000
,
0000
0010
0000
0000
,
0000
0010
0000
0000
,
0000
0100
0000
0000
,
0000
0100
0000
0000
,
0000
0001
0000
0000
,
0000
0001
0000
0000
,
0000
1000
0000
1000
,
0000
1000
0000
1000
,
0000
1000
0000
0000
,
0000
0000
0000
0000
,
0000
0001
0000
0001
,
0000
0001
0000
0001
,
0000
0001
0000
0000
,
0000
0000
0000
0000
,
0000
1001
0000
0000
,
0000
1000
0000
0000
,
0000
0010
0000
0000
,
0000
0100
0000
0000
,
0000
0001
0000
0000
,
0000
0010
0000
0000
,
0000
0100
0000
0000
,
0000
1000
0000
0000
,
0000
1001
0000
0000
,
0000
0001
0000
0000
,
0000
0100
0000
0000
,
0000
0010
0000
0000
,
0000
1000
0000
0000
,
0000
0001
0000
0000
,
0000
1000
0000
0000
,
0000
0001
0000
1000
,
0000
0001
1001
0000
,
1000
0000
0001
0000
,
1000
0000
0010
0010
,
0010
0000
0100
0100
,
0100
0000
0220
0000
,
0330
0000
0000
0000
,
0000
0000
0001
0000
,
1000
0000
0000
0000
,
0001
0000
0100
0000
,
1000
0000
0010
0010
,
0000
0110
0000
0000
,
0000
0100
0000
0000
,
0000
0110
0000
0000
,
0000
0010
0000
0100
,
0100
0000
0001
0000
,
1000
0000
0001
0000
,
1000
0000
0001
0000
,
1000
0000
0001
0000
,
0010
0000
0100
0000
,
1000
0000
0001
0000
,
0010
0000
0100
0000
,
1000
1000
1000
2000
,
3000
0000
0000
0000
;

//---------------dance-single - ----------------
#NOTEDATA:;
#CHARTNAME:;
#STEPSTYPE:dance-single;
#DESCRIPTION:;
#CHARTSTYLE:;
#DIFFICULTY:Easy;
#METER:7;
#RADARVALUES:0.262192,0.401531,0.190685,0.111233,0.000000,231.000000,207.000000,24.000000,14.000000,0.000000,0.000000,0.000000,0.000000,0.000000,0.262192,0.401531,0.190685,0.111233,0.000000,231.000000,207.000000,24.000000,14.000000,0.000000,0.000000,0.000000,0.000000,0.000000;
#CREDIT:MILEN;
#DISPLAYBPM:174.000000;
#NOTES:
0000
0000
0000
0000
,
0000
0000
0000
0000
,
0000
0000
0000
0000
,
0000
0000
0000
0000
,
0000
0000
0000
0000
,
0000
0000
0000
0000
,
0000
0000
0000
0000
,
0000
0000
0000
0000
,
0000
1000
0000
0001
,
0000
1000
0000
0001
,
0000
0100
0000
0010
,
0000
0100
0000
0010
,
0000
1000
0000
0001
,
0000
0100
0000
0010
,
0000
1000
0000
0001
,
0000
0100
0010
0100
,
0100
0001
0000
1000
,
0000
0001
0010
0001
,
0000
1000
0000
0001
,
0000
1000
0100
1000
,
0000
0001
0000
1000
,
0000
0010
0100
0010
,
0000
0100
0010
0100
,
0000
0010
0100
0001
,
1000
0010
0100
0001
,
0000
0100
0000
0010
,
0000
0100
0010
1000
,
0000
0010
0000
0100
,
0000
0001
1000
0100
,
0000
1000
0001
0010
,
0000
1000
0001
0100
,
0001
1000
0010
1000
,
0001
1001
0000
0110
,
0000
1001
0000
0110
,
0000
0010
1000
0010
,
0100
0001
0100
0010
,
0000
1010
0000
0101
,
0000
0011
0000
1100
,
0000
1000
0002
0003
,
1000
0002
0003
1001
,
0000
1000
0010
0100
,
0001
1000
0010
0100
,
0001
1000
1000
1000
,
0000
0001
0000
1000
,
0100
0010
0001
0010
,
0100
1100
0000
0001
,
0010
0100
1000
0100
,
0010
0011
0000
0200
,
0300
0001
0100
0010
,
1000
0001
0100
0010
,
1000
0001
0001
0001
,
1000
1000
0100
0010
,
0001
0101
0000
1010
,
0000
1100
0000
0011
,
0000
0001
0100
1000
,
0100
0001
0010
1000
,
0010
0001
2000
3000
,
0020
0030
0200
0300
,
0002
0003
2000
3000
,
0020
0030
0002
0003
,
0200
0300
2000
0000
,
3000
0000
0002
0000
,
0003
0000
0000
0000
1000
0000
0010
0010
,
0010
0000
0000
0000
,
0011
0000
1100
0000
,
0110
0000
0000
0000
0000
1000
0002
0000
,
0003
0100
0001
0100
,
0001
1000
0010
1000
,
0010
0100
0001
1000
,
0010
0100
0001
1000
,
1001
0010
0010
1000
,
1000
0100
0100
0001
,
0001
0010
1000
0100
,
0001
0010
0100
0010
,
0110
1000
0100
0010
,
0110
0001
0100
0010
,
0110
1000
1001
0001
,
0110
0000
0010
0000
0100
0010
0100
0000
;

//---------------dance-double - ----------------
#NOTEDATA:;
#CHARTNAME:;
#STEPSTYPE:dance-double;
#DESCRIPTION:;
#CHARTSTYLE:;
#DIFFICULTY:Easy;
#METER:7;
#RADARVALUES:0.251977,0.370644,0.135069,0.119178,0.000000,222.000000,205.000000,17.000000,15.000000,0.000000,0.000000,0.000000,0.000000,0.000000,0.251977,0.370644,0.135069,0.119178,0.000000,222.000000,205.000000,17.000000,15.000000,0.000000,0.000000,0.000000,0.000000,0.000000;
#CREDIT:MILEN;
#DISPLAYBPM:174.000000;
#NOTES:
00000000
00000000
00000000
00000000
,
00000000
00000000
00000000
00000000
,
00000000
00000000
00000000
00000000
,
00000000
00000000
00000000
00000000
,
00000000
00000000
00000000
00000000
,
00000000
00000000
00000000
00000000
,
00000000
00000000
00000000
00000000
,
00000000
00000000
00000000
00000000
,
00000000
00001000
00000000
01000000
,
00000000
00001000
00000000
01000000
,
00000000
00001000
00000000
00010000
,
00000000
00001000
00000000
00010000
,
00000000
00000100
00000000
00010000
,
00000000
00000100
00000000
00010000
,
00000000
00001000
00000000
00010000
,
00000000
00001000
00010000
00001000
,
00001000
00100000
00000000
00010000
,
00000000
01000000
00001000
00010000
,
00000000
00000100
00000000
00001000
,
00000000
00000010
00010000
00001000
,
00000000
01000000
00000000
00010000
,
00000000
00100000
00001000
00010000
,
00000000
00001000
00100000
00010000
,
00000000
00100000
00001000
00010000
,
00000100
00001000
00000001
00000100
,
00000000
00001000
00000000
00010000
,
00000000
00100000
10000000
00010000
,
00000000
01000000
00000000
00001000
,
00000000
00010000
00001000
00000100
,
00000000
00001000
00010000
00100000
,
00000000
00010000
00001000
00000010
,
00001000
00010000
00100000
00010000
,
00001000
00011000
00000000
01000000
,
00000000
00011000
00000000
00000100
,
00000000
00001000
00000100
00000010
,
00000001
00001000
00000100
00000010
,
00000000
00001001
00000000
00000100
,
00000000
00001001
00000000
00000010
,
00000000
00010000
00002000
00003000
,
00010000
00002000
00003000
00011000
,
00000000
00010000
00001000
01000000
,
00001000
00010000
00001000
01000000
,
00001000
00010000
00010000
00010000
,
00000000
00011000
00000000
00001000
,
00000100
00000001
00000010
00001000
,
00010000
00001000
00000000
00010000
,
01000000
10000000
00100000
00010000
,
00001000
00010000
00000000
00022000
,
00033000
00001000
00010000
00000100
,
00010000
00001000
00010000
00000100
,
00010000
00001000
00001000
00001000
,
00100000
00100000
01000000
10000000
,
00100000
01100000
00000000
00010000
,
00000000
01100000
00000000
10000000
,
00000000
01000000
00010000
00001000
,
00000010
00001000
00000010
00000001
,
00000100
00001000
00020000
00030000
,
00000200
00000300
00002000
00003000
,
00000020
00000030
00020000
00030000
,
00002000
00003000
00200000
00300000
,
00020000
00030000
02000000
00000000
,
03000000
00000000
00002000
00000000
,
00003000
00000000
00010000
00000100
,
00001000
00000000
00000000
00000000
,
00001010
00000000
00010010
00000000
,
00101000
00000000
00000000
00000000
00000000
00010000
02000000
00000000
,
03000000
00010000
00100000
00010000
,
00100000
00001000
00010000
00001000
,
00010000
00000010
00001000
00000010
,
00001000
00000100
00010000
00001000
,
00011000
00100000
00010000
01000000
,
00001000
00010000
00000100
00001000
,
00000010
00010000
00001000
00000100
,
00001000
00010000
01000000
00010000
,
00011000
00001000
00000100
00000001
,
00001001
00000001
00000010
00001000
,
00011000
00010000
01000000
10000000
,
10010000
00100000
01000000
00100000
;

//---------------dance-single - ----------------
#NOTEDATA:;
#CHARTNAME:;
#STEPSTYPE:dance-single;
#DESCRIPTION:;
#CHARTSTYLE:;
#DIFFICULTY:Hard;
#METER:13;
#RADARVALUES:0.524384,0.712685,0.444932,0.230411,0.111233,462.000000,406.000000,56.000000,29.000000,0.000000,0.000000,0.000000,0.000000,0.000000,0.524384,0.712685,0.444932,0.230411,0.111233,462.000000,406.000000,56.000000,29.000000,0.000000,0.000000,0.000000,0.000000,0.000000;
#CREDIT:MILEN;
#DISPLAYBPM:87.000000:174.000000;
#NOTES:
0000
0000
0000
0000
,
0000
0000
0000
0000
,
0000
0000
0000
0000
,
0000
0000
0000
0000
,
0000
0000
0000
0000
,
0000
0000
0000
0000
,
0000
0000
0000
0000
,
0000
0000
0000
0000
,
0000
0000
1000
0000
0001
0000
0100
0001
,
0010
0000
0001
0000
1000
0000
0010
1000
,
0100
0000
1000
0000
0001
0000
0010
0001
,
0100
0000
0001
0000
1000
0000
0100
1000
,
0010
1000
1001
0000
0001
0000
0010
0100
,
1000
0000
0001
0000
1000
0000
0100
0010
,
0001
0000
1000
0000
0001
0000
0100
0010
,
1000
0000
0000
0000
0010
0000
0110
0000
0000
0101
0000
0000
1001
0000
1000
0010
,
1000
0001
0100
0000
0001
0000
0100
0000
,
0001
0100
0001
0100
,
0002
1003
1000
0010
,
1000
0010
1000
0010
,
2000
3001
0001
0010
,
0100
0000
1000
0010
0100
0000
0001
0100
,
0010
0000
1000
0001
0100
0000
0001
1000
,
0010
0200
0000
0310
0100
0002
0000
1003
,
1010
0101
0001
0010
,
1000
0010
0001
0010
,
0100
0010
0100
0000
0001
0000
0100
0000
,
1000
0100
0001
0100
,
0010
0100
0010
0000
0001
0000
1000
0000
,
0100
0010
0100
1000
0001
0010
0000
1010
,
0000
0101
0000
0100
1000
0010
0100
0001
,
0010
0100
1100
0000
1010
0000
0101
0000
,
0011
2001
3010
1002
,
0013
2001
3100
1002
,
0103
0000
0110
0000
0010
2000
0000
3100
,
0010
0002
0000
0013
0100
0110
0000
0010
,
0100
1000
0020
0000
0130
0002
0000
0013
,
0200
0000
1300
0002
0000
0103
0100
0000
,
0110
0000
0010
1000
0001
0200
0000
0000
,
0310
1000
0001
0100
0010
0000
1010
0101
,
0000
0000
0001
0010
0100
1000
0010
0001
,
0010
1000
0100
0010
0001
0100
1000
0100
,
0001
0010
0100
0001
0100
1000
0100
0010
,
0001
0100
0000
0100
0100
0010
1000
0010
,
0100
0001
1001
0000
1000
0010
0100
0001
,
1000
0100
0010
0000
0110
0000
0001
0100
,
0010
1000
1001
0000
0001
0010
0100
1000
,
0010
0100
0000
0000
0110
0000
0010
0010
,
0000
1000
1000
0100
0001
0100
1000
0010
,
0100
0001
0010
1000
0010
0001
0100
0010
,
1000
0100
0010
0001
0000
0101
0000
1100
,
0000
2020
3030
0000
0110
0000
1001
0000
,
0110
0000
0000
0000
0010
1000
0010
0000
0100
0000
0001
0000
0010
0000
0100
0000
,
1000
0000
0000
0000
0010
0100
0010
0000
0100
0000
0001
0000
1000
0000
0100
0000
,
0010
0000
0000
0000
0001
0100
0001
0000
1000
0000
0010
0000
0100
0000
0001
0000
,
0010
0000
0100
0000
1000
0000
1010
0000
0000
0011
0000
0000
1001
0000
1000
0010
,
1000
0000
0000
0000
0110
0000
0100
0001
0020
0000
0000
0000
0031
0000
0100
0000
,
1000
0000
0000
0000
1010
0000
0000
0000
0010
0000
0000
0100
0000
0000
0001
0000
,
2000
0000
0000
0000
0010
0000
0000
0000
3100
0000
0010
0001
0000
0100
0000
0100
,
0000
1000
0000
0002
0000
0000
0000
0000
0013
0000
0100
1000
0000
0010
0000
0000
,
0011
1100
2002
0000
,
3003
0000
0220
0000
,
0330
0000
0000
0000
0000
0000
0010
0000
1000
0000
0000
0001
0000
0001
0000
0000
,
0220
0000
0330
0000
,
1010
0000
0101
0000
,
0011
0000
0000
0000
0100
1000
0010
0100
0000
0100
0001
0000
1000
0000
1000
0000
,
0100
0020
0000
0031
0101
0000
1000
0000
,
0100
0000
0001
0000
0010
0000
0100
0010
,
0001
1000
0010
0010
0100
0100
0001
0001
,
1000
0000
1000
0000
0000
0000
0010
0100
0020
0000
0000
0000
0130
0000
0100
0000
,
0110
0000
1001
0001
0100
1000
0100
0001
,
0010
1000
0010
0001
0100
1000
0001
0010
,
0110
0100
0001
0011
0010
0100
1100
1000
,
0001
0000
0101
0000
0000
1010
0000
0000
1001
0000
0000
0000
0010
0100
0010
0100
,
0010
1000
0100
0001
0100
1000
0010
0100
,
0001
1000
0001
0000
0010
0000
1000
0000
0010
0000
0001
0000
0100
0000
0010
0000
,
1000
0100
0001
1000
0010
0001
0100
0010
,
1000
0000
1100
0000
0000
1010
0000
0000
0011
0000
0001
0100
0020
0000
0000
0000
,
0030
0000
0000
0000
;

//---------------dance-double - ----------------
#NOTEDATA:;
#CHARTNAME:;
#STEPSTYPE:dance-double;
#DESCRIPTION:;
#CHARTSTYLE:;
#DIFFICULTY:Hard;
#METER:13;
#RADARVALUES:0.511899,0.650713,0.421096,0.246302,0.095343,451.000000,398.000000,53.000000,31.000000,0.000000,0.000000,0.000000,0.000000,0.000000,0.511899,0.650713,0.421096,0.246302,0.095343,451.000000,398.000000,53.000000,31.000000,0.000000,0.000000,0.000000,0.000000,0.000000;
#CREDIT:MILEN;
#DISPLAYBPM:87.000000:174.000000;
#NOTES:
00000000
00000000
00000000
00000000
,
00000000
00000000
00000000
00000000
,
00000000
00000000
00000000
00000000
,
00000000
00000000
00000000
00000000
,
00000000
00000000
00000000
00000000
,
00000000
00000000
00000000
00000000
,
00000000
00000000
00000000
00000000
,
00000000
00000000
00000000
00000000
,
00000000
00000000
00001000
00000000
00010000
00000000
00000100
00001000
,
00000010
00000000
00010000
00000000
00001000
00000000
00100000
00010000
,
01000000
00000000
00001000
00000000
00010000
00000000
00000010
00001000
,
00000100
00000000
00010000
00000000
00001000
00000000
00100000
00010000
,
01000000
00010000
10000000
00000000
01000000
00000000
00100000
00010000
,
01000000
00000000
00001000
00000000
00010000
00000000
00000100
00001000
,
00000010
00000000
00000100
00000000
00000001
00000000
00001000
00000100
,
00000010
00000000
00000000
00000000
00000001
00000000
00000101
00000000
00000000
00001010
00000000
00000000
00001100
00000000
00000100
00010000
,
00002000
01003000
01000000
00010000
,
01000000
10000000
01000000
00001000
,
00020000
00030100
00000100
00001000
,
00000100
00000001
00000100
00010000
,
00002000
00103000
00100000
01000000
,
10000000
00000000
00100000
00010000
00001000
00000000
00010000
00001000
,
00000010
00000000
00001000
00000010
00000001
00000000
00000100
00001000
,
00010000
02000000
00000000
03010000
00001000
00000200
00000000
00001300
,
00011000
00010000
01000000
10000000
,
00100000
00010000
00001000
00000100
,
00000002
00001003
00001000
00000010
,
00010000
00001000
01000000
00010000
,
00200000
01300000
01000000
10000000
,
00100000
00010000
00001000
00000010
00000001
00000100
00000000
00001010
,
00000000
00000101
00000000
00000100
00001000
00010000
00100000
10000000
,
01000000
00100000
00110000
00000000
01001000
00000000
00010100
00000000
,
00001010
00000210
00000301
00000210
,
00001300
00021000
01030000
00012000
,
00003100
00000000
00011000
00000000
00010000
02000000
00000000
13000000
,
00100000
00020000
00000000
00031000
00000100
00000001
00000000
00000010
,
00000001
00000100
00001000
00000000
00001000
00010000
00000000
00010000
,
00100000
00000000
00100000
20000000
00000000
01000000
31000000
00000000
,
01100000
00000000
00100000
01000000
00010000
00002000
00000000
00000000
,
00013000
00001000
00000010
00000100
00000010
00000000
00001001
00001001
,
00000000
00000000
00000001
00000100
00000010
00001000
00000100
00010000
,
00001000
00010000
00000100
00001000
00000010
00000100
00000001
00001000
,
00000100
00000010
00001000
00010000
01000000
00100000
00010000
01000000
,
00100000
20000000
00000000
30100000
00100000
01000000
00010000
00100000
,
01000000
10000000
10100000
00000000
00100000
00010000
00001000
00010000
,
00100000
10000000
01000000
00000000
01100000
00000000
00100000
01000000
,
10000000
00010000
01010000
00000000
01000000
00001000
00010000
00001000
,
01000000
01000000
00000000
00000000
01100000
00000000
10000000
00020000
,
00000000
01030000
01000000
00001000
00010000
00000100
00010000
00001000
,
00100000
00001000
00010000
00000010
00010000
00001000
01000000
00001000
,
00010000
00000100
00000010
00000001
00000000
00000101
00000000
00001100
,
00000000
00022000
00033000
00000000
00010010
00000000
00011000
00000000
,
01001000
00000000
00001000
00010000
00100000
01000000
00001000
00010000
,
00100000
00100000
00010000
00001000
00000100
00000010
00010000
00001000
,
00000100
00000100
00001000
00010000
01000000
10000000
00100000
00010000
,
00001000
00000000
00000100
00000000
00000001
00000000
00000011
00000000
00000000
00000110
00000000
00000000
00001100
00000000
00001000
00000100
,
00010000
00000000
00000000
00000000
00011000
00000000
00001000
00010000
00200000
00000000
00000000
00000000
10300000
00000000
01000000
00000000
,
00100000
00000000
00000000
00000000
00110000
00000000
00000000
00000000
00010000
00000000
00000000
01000000
00000000
00000000
00001000
00000000
,
00020000
00000000
00000000
00000000
00000100
00000000
00000000
00000000
00031000
00000000
00001000
00100000
00000000
01000000
00000000
00010000
,
00000000
00001000
00000000
00000020
00000000
00000000
00000000
00000000
00000031
00000000
00000100
00000010
00000000
00010000
00000000
00000000
,
00010100
01001000
00020200
00000000
,
00030300
00000000
02002000
00000000
,
03003000
00000000
00000000
00000000
00000000
00000000
01000000
00000000
00001000
00000000
00000000
00010000
00000000
00000100
00000000
00000000
,
00000220
00000000
00000330
00000000
,
00001001
00000000
00001100
00000000
,
00110000
00000000
00000000
00000000
10000000
01000000
00100000
00010000
00000000
00010000
01000000
00000000
00001000
00000000
00010000
00000000
,
00000100
00002000
00000000
00003001
00000101
00000000
00000100
00000000
,
00001000
00000000
00010000
00000000
00100000
00000000
10000000
01000000
,
00100000
00010000
01010000
00000000
01000000
01001000
00000000
00011000
,
00000000
00000000
00010100
00000000
00000000
00000000
00000100
00000010
00000200
00000000
00000000
00000000
00001300
00000000
00000001
00000000
,
00001001
00000000
00000001
00000100
00001000
00010000
00000100
00010000
,
00001000
01000000
00001000
00010000
00100000
10000000
01000000
00100000
,
00001000
00001000
00010000
00000100
00000100
00000010
00000001
00000001
,
00000100
00000000
00000110
00000000
00000000
00010010
00000000
00000000
00011000
00000000
00000000
00000000
00001000
00100000
00001000
00100000
,
00001000
01000000
00100000
00010000
00100000
10000000
01000000
00100000
,
00010000
00100000
00001000
00010000
00000100
00001000
00000100
00000010
,
00001000
00000010
00000001
00000100
00001000
00010000
00100000
10000000
,
01000000
00000000
01100000
00000000
00000000
00110000
00000000
00000000
00101000
00000000
00001000
00010000
00000020
00000000
00000000
00000000
,
00000030
00000000
00000000
00000000
;

//---------------dance-single - ----------------
#NOTEDATA:;
#CHARTNAME:;
#STEPSTYPE:dance-single;
#DESCRIPTION:;
#CHARTSTYLE:;
#DIFFICULTY:Medium;
#METER:10;
#RADARVALUES:0.399531,0.464795,0.317808,0.198630,0.015890,352.000000,312.000000,40.000000,25.000000,0.000000,0.000000,0.000000,0.000000,0.000000,0.399531,0.464795,0.317808,0.198630,0.015890,352.000000,312.000000,40.000000,25.000000,0.000000,0.000000,0.000000,0.000000,0.000000;
#CREDIT:MILEN;
#DISPLAYBPM:87.000000:174.000000;
#NOTES:
0000
0000
0000
0000
,
0000
0000
0000
0000
,
0000
0000
0000
0000
,
0000
0000
0000
0000
,
0000
0000
0000
0000
,
0000
0000
0000
0000
,
0000
0000
0000
0000
,
0000
0000
0000
0000
,
0000
1000
0010
1000
,
0010
0100
0001
0100
,
0001
0010
0100
0010
,
0100
0000
1000
0000
0001
0000
1000
0001
,
1000
0001
0010
0001
,
0010
0100
1000
0100
,
1000
0010
0100
0010
,
0100
0000
0001
0000
1000
0000
0001
1000
,
0001
1001
0010
1000
,
0100
0010
0001
0100
,
0020
0130
0100
0001
,
0010
0100
1000
0010
,
0200
0310
0010
1000
,
0001
0000
0100
0010
0100
0000
0010
1000
,
0010
0000
0100
0001
0100
0000
0001
0000
,
0010
0001
0000
0100
0010
0100
0000
0010
,
2000
3001
1000
0010
,
0100
0001
0000
0010
0000
0001
0000
0100
,
0010
1000
0100
1000
,
0010
0100
0000
0100
0010
0000
1000
0001
,
1000
0001
0100
0000
0001
0000
1000
0000
,
0001
0100
0001
0100
0001
0100
0000
0010
,
0000
1000
0000
0001
0100
0000
0010
0000
,
0110
2000
3100
0002
,
0013
0110
0000
1100
,
0000
0011
0000
0101
,
0000
0000
1010
0000
1000
0010
0000
0100
,
0001
1000
0000
0010
0000
0110
0000
0000
,
0100
0001
0010
0000
0000
0110
0000
0000
,
1100
0000
0000
1010
0000
0000
0202
0000
,
0303
0000
0001
0010
0001
0010
0000
0000
,
0100
1000
0100
1000
0000
0000
0010
0020
,
0000
0000
0130
0000
0001
0000
0010
0100
,
0000
0010
0100
0000
1000
0000
0010
0100
,
0000
0102
0000
0000
1003
0010
0000
0100
,
0001
0010
0000
0100
1000
0000
0010
0100
,
0001
0200
0000
0000
0310
1000
0000
1100
,
0000
0022
0000
0000
0033
0000
0001
1000
,
0100
1000
0001
0000
0010
0001
0000
0101
,
0000
1010
0000
0000
1001
0000
1000
0020
,
0000
0000
0130
0000
0001
0000
0010
0001
,
0000
0200
0000
0000
0310
0000
1000
0002
,
0000
0000
0013
0100
0000
1000
0000
1010
,
0000
0101
0000
0000
0011
0000
1100
0000
,
1001
0000
0001
0100
0010
0000
1000
0000
,
0001
0000
1000
0010
0100
0000
0001
0000
,
1000
0000
0010
0100
0000
0001
0000
1000
,
0000
0100
0000
0010
0010
0000
0001
0000
,
1000
0000
1001
0010
0200
0000
1300
0100
,
0010
0000
0011
0000
1100
0000
1000
0010
,
0200
0000
0000
0000
0301
0010
0100
0010
,
0001
0100
1000
0000
0001
0010
1000
0100
,
0020
0230
2300
0000
,
0000
0000
0002
0000
,
0000
0000
3003
0000
0000
0000
0001
0000
0100
0000
0000
1000
0000
0100
0000
0000
,
0220
0000
0000
0330
,
1010
0000
0011
0000
,
1100
0000
0000
0000
0001
0100
0001
0100
0000
0000
0010
0000
0020
0000
0000
0000
,
0030
1001
1000
0100
,
0001
0100
1000
0100
,
0001
0000
0100
1000
0010
0000
0100
0001
,
0010
0000
0100
1000
0001
0000
0010
0001
,
1000
1010
0010
0011
,
0001
0101
0100
1100
,
1000
0010
0000
0100
0001
0010
0000
0100
,
1000
0001
0100
0000
0010
0100
0001
1000
,
0100
0000
0110
0000
0001
1000
0010
0000
,
0100
0000
0110
0000
1000
0001
0100
0000
,
0010
0100
0000
0101
0000
0011
0000
1010
,
0000
1000
0100
0010
0001
0100
0020
0000
,
0030
0000
0000
0000
;

//---------------dance-double - ----------------
#NOTEDATA:;
#CHARTNAME:;
#STEPSTYPE:dance-double;
#DESCRIPTION:;
#CHARTSTYLE:;
#DIFFICULTY:Medium;
#METER:10;
#RADARVALUES:0.388180,0.464795,0.262192,0.182740,0.015890,342.000000,309.000000,33.000000,23.000000,0.000000,0.000000,0.000000,0.000000,0.000000,0.388180,0.464795,0.262192,0.182740,0.015890,342.000000,309.000000,33.000000,23.000000,0.000000,0.000000,0.000000,0.000000,0.000000;
#CREDIT:MILEN;
#DISPLAYBPM:87.000000:174.000000;
#NOTES:
// measure 0
00000000
00000000
00000000
00000000
,  // measure 1
00000000
00000000
00000000
00000000
,  // measure 2
00000000
00000000
00000000
00000000
,  // measure 3
00000000
00000000
00000000
00000000
,  // measure 4
00000000
00000000
00000000
00000000
,  // measure 5
00000000
00000000
00000000
00000000
,  // measure 6
00000000
00000000
00000000
00000000
,  // measure 7
00000000
00000000
00000000
00000000
,  // measure 8
00000000
00001000
00010000
01000000
,  // measure 9
10000000
01000000
10000000
00100000
,  // measure 10
00010000
00001000
00000100
00000001
,  // measure 11
00000100
00000001
00000010
00001000
,  // measure 12
00011000
00010000
00001000
00000010
,  // measure 13
00000001
00000010
00000001
00000100
,  // measure 14
00001000
00010000
00100000
10000000
,  // measure 15
00100000
10000000
01000000
00010000
,  // measure 16
00001000
00011000
00100000
00010000
,  // measure 17
01000000
00001000
00010000
00000100
,  // measure 18
00001000
00000010
00010000
00001000
,  // measure 19
00000100
00010000
01000000
00001000
,  // measure 20
00010000
00100000
00001000
00000010
,  // measure 21
00010000
00000000
00001000
00100000
00001000
00000000
00010000
00000100
,  // measure 22
00010000
00000000
00001000
00010000
00001000
00000000
00010000
00000000
,  // measure 23
00000100
00001000
00000000
00000010
00010000
00001000
00000000
00100000
,  // measure 24
00020000
01030000
01000000
00010000
,  // measure 25
10000000
00100000
00000000
01000000
00000000
00010000
00000000
00100000
,  // measure 26
00001000
00010000
00000100
00001000
,  // measure 27
00000010
00000100
00000000
00000001
00000010
00000000
00000001
00000100
,  // measure 28
00000010
00001000
00000001
00000000
00000100
00000000
00001000
00000000
,  // measure 29
00010000
00001000
00010000
00001000
00010000
00001000
00000000
00100000
,  // measure 30
00000000
00010000
00000000
01000000
00100000
00000000
10000000
00000000
,  // measure 31
10010000
00020000
02030000
03002000
,  // measure 32
00013000
00010100
00000000
00101000
,  // measure 33
00000000
00010010
00000000
01001000
,  // measure 34
00000000
00000000
00011000
00000000
00010000
00000100
00000000
00001000
,  // measure 35
00000100
00000010
00000000
00000001
00000000
00000101
00000000
00000000
,  // measure 36
00000100
00000010
00001000
00000000
00000000
00001100
00000000
00000000
,  // measure 37
00010100
00000000
00000000
00011000
00000000
00000000
02002000
00000000
,  // measure 38
03003000
00000000
01000000
00010000
01000000
00010000
00000000
00000000
,  // measure 39
10000000
00100000
10000000
00100000
00000000
00000000
00010000
00002000
,  // measure 40
00000000
00103000
01000000
00010000
,  // measure 41
00001000
00000000
00000010
00000000
00000100
00000000
00001000
00000001
,  // measure 42
00000000
00000201
00000000
00000000
00000310
00001000
00000000
00000100
,  // measure 43
00010000
00001000
00000000
00100000
00010000
00000000
00100000
01000000
,  // measure 44
10000000
00200000
00000000
00000000
01300000
00010000
00000000
00100000
,  // measure 45
00000000
00202000
00000000
00000000
00303000
00000000
00001000
00010000
,  // measure 46
00001000
00010000
00000100
00000000
00001000
00000010
00000000
00000100
,  // measure 47
00000000
00000101
00000000
00000000
00001001
00000000
00001000
00000020
,  // measure 48
00000000
00010030
00001000
00100000
,  // measure 49
00010000
00000000
01000000
00000000
00100000
00000000
10000000
00020000
,  // measure 50
00000000
00000000
01030000
00001000
00000000
00010000
00000000
00000100
,  // measure 51
00000000
00001100
00000000
00000000
00001010
00000000
00000100
00000000
,  // measure 52
00000101
00000000
00000001
00000010
00000100
00000000
00010000
00000000
,  // measure 53
00001000
00000000
00100000
01000000
10000000
00000000
00100000
00000000
,  // measure 54
00010000
00000000
00001000
00010000
00000000
00000100
00000000
00001000
,  // measure 55
00000000
00000001
00000000
00000100
00000010
00000000
00010000
00000000
,  // measure 56
00001000
00000000
00011000
00010000
02000000
00000000
13000000
00100000
,  // measure 57
00010000
00000000
00011000
00000000
00001010
00000000
00000010
00000100
,  // measure 58
00000020
00000000
00000000
00000000
00000031
00000100
00001000
00010000
,  // measure 59
00001000
00010000
00100000
00000000
10000000
01000000
10000000
01000000
,  // measure 60
00020000
00032000
00003020
00000000
,  // measure 61
00000000
00000000
00000200
00000000
,  // measure 62
00000000
00000000
00000330
00000000
00000000
00000000
00000001
00000000
00000100
00000000
00000000
00001000
00000000
00001000
00000000
00000000
,  // measure 63
00022000
00000000
00000000
00033000
,  // measure 64
00101000
00000000
00010010
00000000
,  // measure 65
01001000
00000000
00000000
00000000
00001000
00010000
00000100
00010000
00000000
00000000
00000010
00000000
00000020
00000000
00000000
00000000
,  // measure 66
00000030
00001001
00000001
00000100
,  // measure 67
00001000
00010000
00100000
10000000
,  // measure 68
01000000
00000000
00100000
01000000
00100000
00000000
00001000
00010000
,  // measure 69
00001000
00000000
00010000
00001000
00010000
00000000
00000100
00000010
,  // measure 70
00000100
00001001
00001000
00000100
,  // measure 71
00010000
01000000
00100000
00010000
,  // measure 72
10000000
00100000
00000000
00010000
00100000
01000000
00000000
00100000
,  // measure 73
00010000
00001000
00000010
00000000
00000100
00000010
00000001
00001000
,  // measure 74
00000100
00000000
00010100
00000000
00010000
00001000
01000000
00000000
,  // measure 75
00010000
00000000
00110000
00000000
00100000
01000000
10000000
00000000
,  // measure 76
00100000
00010000
00000000
00011000
00000000
00001000
00000000
00001010
,  // measure 77
00000000
00000001
00000010
00000100
00001000
00000100
00020000
00000000
,  // measure 78
00030000
00000000
00000000
00000000
;
