#TITLE:Maslo;
#SUBTITLE:;
#ARTIST:Vospi;
#TITLETRANSLIT:;
#SUBTITLETRANSLIT:;
#ARTISTTRANSLIT:;
#GENRE:VARIETY;
#CREDIT:MUINELIM;
#BANNER:Maslo.png;
#BACKGROUND:Maslo-bg.png;
#LYRICSPATH:;
#CDTITLE:;
#MUSIC:Maslo.ogg;
#OFFSET:-1.841000;
#SAMPLESTART:75.634003;
#SAMPLELENGTH:15.000000;
#SELECTABLE:YES;
#BPMS:0.000000=130.000000
;
#STOPS:
;
#BGCHANGES:;
#KEYSOUNDS:;
#ATTACKS:;

//---------------dance-single - ----------------
#NOTES:
     dance-single:
     :
     Beginner:
     2:
     0.096066,0.132508,0.028019,0.000000,0.000000,72.000000,69.000000,3.000000,0.000000,0.000000,0.000000,0.096066,0.132508,0.028019,0.000000,0.000000,72.000000,69.000000,3.000000,0.000000,0.000000,0.000000:
0000
0000
0000
0000
,
0000
0000
0000
0000
,
0000
0000
0000
0000
,
0000
0000
0000
0000
,
0001
0000
0000
0000
,
1000
0000
0000
0000
,
0001
0000
0000
0000
,
1001
0000
0000
0000
,
0100
0000
0000
0000
,
0010
0000
0000
0000
,
0100
0000
0000
0000
,
0010
0000
0000
0000
,
0100
0000
0000
0000
,
0010
0000
0000
0000
,
0110
0000
0000
0000
,
1000
0000
0001
0000
,
1000
1000
0000
0000
,
0100
0100
0000
0000
,
1000
0000
0001
0000
,
1000
0000
1000
0000
,
0001
0001
0000
0000
,
0010
0010
0000
0000
,
0001
0000
1000
0000
,
0001
0000
0001
0000
,
0001
0000
0000
0000
,
0000
0000
0000
0000
,
0100
0000
0000
0000
,
0000
0000
0000
0000
,
1000
0000
0000
0000
,
0000
0000
0000
0000
,
0010
0000
0000
0000
,
0000
0000
0000
0000
,
0001
0000
1000
0000
,
0100
0000
0000
0000
,
1000
0000
0001
0000
,
0010
0000
0000
0000
,
0001
0000
1000
0000
,
0010
0000
0000
0000
,
1000
0000
0001
0000
,
0100
0000
0000
0000
,
0010
0000
0100
0000
,
0010
0000
1000
0000
,
0001
0000
0100
0000
,
0010
0000
0100
0000
,
0001
0000
1000
0000
,
0010
0000
0100
0000
,
0010
0000
0010
0000
,
0010
0000
0000
0000
,
1000
0000
0000
0000
,
0100
0000
0000
0000
,
0001
0000
0000
0000
,
0010
0000
0000
0000
,
1000
0000
0000
0000
,
0100
0000
0000
0000
,
0001
0000
0000
0000
,
0010
0000
0000
0000
,
0000
0000
0000
1001
;

//---------------dance-single - ----------------
#NOTES:
     dance-single:
     :
     Easy:
     4:
     0.169450,0.238514,0.140097,0.028019,0.000000,127.000000,112.000000,15.000000,3.000000,0.000000,0.000000,0.169450,0.238514,0.140097,0.028019,0.000000,127.000000,112.000000,15.000000,3.000000,0.000000,0.000000:
0000
0000
0000
0000
,
0000
0000
0000
0000
,
0000
0000
0000
0000
,
0000
0000
0000
0000
,
1000
1000
0000
0000
,
0001
0001
0000
0000
,
1000
0001
1000
0000
,
1001
0000
0000
0000
,
0001
0000
0100
0000
,
0010
0000
1000
0000
,
0001
0000
0100
0000
,
0010
0000
1000
0000
,
0001
0000
0010
0000
,
0100
0000
1000
0000
,
0110
0000
0000
0000
,
0001
1000
0001
1000
,
0001
0100
0000
0000
,
1000
0010
0000
0000
,
0001
0000
1000
0000
,
1001
0000
1001
0000
,
0001
0010
0000
0000
,
1000
0100
0000
0000
,
0001
0000
1000
0000
,
1001
0000
1001
0000
,
0010
0000
0100
0000
,
0020
0000
0030
0000
,
1000
0000
0001
0000
,
2000
0000
3000
0000
,
0010
0000
0100
0000
,
0001
0000
1000
0000
,
0010
0000
0100
0000
,
0020
0000
0030
0000
,
1000
0100
1000
0000
,
0001
0000
1000
0000
,
0001
0010
0001
0000
,
1000
0000
0001
0000
,
1000
0000
0010
0000
,
0001
0000
0100
0000
,
1000
0000
0001
0000
,
1001
0000
1001
0000
,
1000
0100
1000
0000
,
0001
0100
0001
0000
,
1000
0010
1000
0000
,
0001
0010
0001
0000
,
1000
0001
0100
0000
,
0001
1000
0010
0000
,
1000
0001
1000
0001
,
0100
0010
0100
0000
,
0110
0000
0001
0000
,
0100
0000
0000
0000
,
0110
0000
1000
0000
,
0100
0000
0000
0000
,
0110
0000
0001
0000
,
0010
0000
0000
0000
,
0110
0000
1000
0000
,
0010
0000
0000
0000
,
1001
0000
0110
0110
;

//---------------dance-double - ----------------
#NOTES:
     dance-double:
     :
     Easy:
     4:
     0.165447,0.238514,0.140097,0.037359,0.000000,124.000000,109.000000,15.000000,4.000000,0.000000,0.000000,0.165447,0.238514,0.140097,0.037359,0.000000,124.000000,109.000000,15.000000,4.000000,0.000000,0.000000:
00000000
00000000
00000000
00000000
,
00000000
00000000
00000000
00000000
,
00000000
00000000
00000000
00000000
,
00000000
00000000
00000000
00000000
,
00001000
00001000
00000000
00000000
,
00010000
00010000
00000000
00000000
,
00001000
00010000
00001000
00000000
,
00011000
00000000
00000000
00000000
,
01000000
00000000
00001000
00000000
,
00010000
00000000
00000010
00000000
,
00001000
00000000
00000100
00000000
,
00010000
00000000
00001000
00000000
,
00100000
00000000
00010000
00000000
,
01000000
00000000
00001000
00000000
,
00011000
00000000
00000000
00000000
,
00010000
00001000
00010000
00001000
,
01000000
01000000
00000000
00000000
,
00000100
00000100
00000000
00000000
,
00010000
00000000
00001000
00000000
,
00011000
00000000
00011000
00000000
,
00000010
00000010
00000000
00000000
,
00100000
00100000
00000000
00000000
,
00001000
00000000
00010000
00000000
,
00011000
00000000
00011000
00000000
,
00001000
00000000
01000000
00000000
,
00002000
00000000
00003000
00000000
,
00010000
00000000
00000010
00000000
,
00020000
00000000
00030000
00000000
,
00001000
00000000
00100000
00000000
,
00001000
00000000
00010000
00000000
,
00000100
00000000
00010000
00000000
,
00022000
00000000
00033000
00000000
,
00001000
00000000
00010000
00000000
,
01000000
00000000
00010000
00000000
,
00001000
00000000
00000100
00000000
,
00001000
00000000
00010000
00000000
,
00100000
00000000
00010000
00000000
,
00001000
00000000
00000010
00000000
,
00001000
00000000
00010000
00000000
,
00011000
00000000
00011000
00000000
,
00100000
00010000
00100000
00000000
,
00001000
01000000
00001000
00000000
,
00010000
00000010
00010000
00000000
,
00000100
00001000
00000100
00000000
,
00010000
00001000
01000000
00000000
,
00001000
00010000
00000010
00000000
,
00010000
00001000
00010000
00001000
,
00100000
01000000
00100000
00000000
,
01100000
00000000
10000000
00000000
,
01000000
00000000
00000000
00000000
,
00011000
00000000
00010000
00000000
,
00000010
00000000
00000000
00000000
,
00000110
00000000
00001000
00000000
,
00000100
00000000
00000000
00000000
,
00011000
00000000
00001000
00000000
,
01000000
00000000
00000000
00000000
,
10010000
00000000
00000000
00001001
;

//---------------dance-single - ----------------
#NOTES:
     dance-single:
     :
     Medium:
     7:
     0.300207,0.397524,0.158776,0.242834,0.000000,225.000000,208.000000,17.000000,26.000000,0.000000,0.000000,0.300207,0.397524,0.158776,0.242834,0.000000,225.000000,208.000000,17.000000,26.000000,0.000000,0.000000:
0000
0000
0000
0000
,
0000
0000
0000
0000
,
0000
0000
0000
0000
,
0000
0000
0000
0000
,
0001
1000
0100
0000
,
1000
0001
0010
0000
,
0001
1000
0010
0100
,
0220
0000
0330
0000
0010
0000
0100
0010
,
0100
0001
0010
0100
,
0000
1000
0010
0100
,
0000
0001
0010
0100
,
0000
1000
0010
0100
,
0110
0010
1000
0100
,
0000
0010
0001
0100
,
0220
0000
0000
0330
,
0010
1000
0010
0000
0100
0001
0100
0000
,
0002
1003
0100
1000
,
0002
1003
0100
1000
,
0002
0000
0023
0000
,
1030
0100
0010
0110
,
2000
3001
0100
0001
,
2000
3001
0100
0001
,
2000
0000
3020
0000
,
0031
0100
0010
0110
,
1000
0100
1000
0100
,
2000
0000
0000
3000
,
0100
1000
0100
0000
0010
0001
0010
0000
,
0100
0010
0100
1001
,
0001
0100
0001
0100
,
0002
0003
0020
0030
,
0001
0010
0100
1000
,
0010
0100
0010
0110
,
1000
0100
0001
0100
,
1000
0010
0001
0010
,
1000
0100
0010
0001
,
0100
0010
0100
1001
,
0002
0000
0023
0000
,
2030
0000
3200
0000
,
0301
1000
0001
1000
,
1010
0101
0011
1100
,
1000
0010
1000
0000
0100
1000
0100
0000
,
2000
0000
3001
0000
0010
0001
0100
0000
,
0001
0010
0001
0000
0100
0001
0100
0000
,
0002
0000
1003
0000
0010
1000
0100
0000
,
1000
0001
0010
0000
0001
1000
0100
0000
,
2000
0000
3001
0000
0010
0100
0010
0000
,
1000
0100
0010
0000
0001
0010
0100
0000
,
2200
0000
0300
3001
,
0001
0000
0100
0000
0001
0000
0100
1000
,
0100
0001
0100
0001
,
0010
0001
0100
0000
0010
1000
0100
0000
,
0001
0100
1000
0000
0001
0000
1001
0000
,
1000
0000
0100
0000
1000
0000
0100
0001
,
0100
1000
0100
1000
,
0010
1000
0100
0000
0001
0100
1000
0010
,
0000
0100
0000
0010
0000
0000
0000
0000
,
2002
0000
0000
3003
0000
0110
0110
0000
;

//---------------dance-double - ----------------
#NOTES:
     dance-double:
     :
     Medium:
     7:
     0.306878,0.397524,0.205475,0.168116,0.000000,230.000000,208.000000,22.000000,18.000000,0.000000,0.000000,0.306878,0.397524,0.205475,0.168116,0.000000,230.000000,208.000000,22.000000,18.000000,0.000000,0.000000:
00000000
00000000
00000000
00000000
,
00000000
00000000
00000000
00000000
,
00000000
00000000
00000000
00000000
,
00000000
00000000
00000000
00000000
,
00010000
00001000
01000000
00000000
,
00001000
00010000
00000010
00000000
,
00010000
00001000
00010000
00001000
,
00022000
00000000
00033000
00000000
00011000
00000000
00010000
00001000
,
00010000
01000000
10000000
00100000
,
00000000
00010000
00001000
00000100
,
00000000
00000001
00000010
00001000
,
00000000
00010000
00001000
00010000
,
00011000
00000010
00000001
00000100
,
00000000
00001000
00010000
01000000
,
02200000
00000000
00000000
03300000
,
00100000
00010000
00100000
00000000
01000000
10000000
01000000
00000000
,
10000000
10100000
00100000
00010000
,
00001000
00011000
00010000
00001000
,
00000200
00000000
00000302
00000000
,
00001003
00000001
00001000
00000110
,
00000001
00000011
00000010
00001000
,
00010000
00011000
00001000
00010000
,
02000000
00000000
23000000
00000000
,
30010000
10000000
00010000
01100000
,
10000000
01000000
00100000
00010000
,
00200000
00000000
00000000
00300000
,
00001000
00010000
00001000
00000000
00010000
00001000
00010000
00000000
,
00000100
00001000
00000100
00000110
,
00000001
00000010
00000100
00001000
,
00000200
00000300
00020000
00030000
,
00001000
00100000
01000000
10000000
,
00100000
01000000
00010000
10010000
,
10000000
01000000
00010000
00001000
,
00010000
00100000
00010000
00001000
,
00000100
00001000
00010000
00001000
,
00000010
00000001
00000100
00000110
,
00000002
00000000
00000023
00000000
,
00002030
00000000
00023000
00000000
,
01030000
10000000
01000000
00100000
,
00110000
01001000
00010010
00001100
,
00000100
00000010
00000001
00000000
00001000
00000100
00000010
00000000
,
00000001
00000000
00000101
00000000
00000100
00001000
00010000
00000000
,
00001000
00100000
00010000
00000000
01000000
00010000
00100000
00000000
,
01000000
00000000
11000000
00000000
10000000
00100000
01000000
00000000
,
10000000
01000000
00010000
00000000
00100000
01000000
00010000
00000000
,
00001000
00000000
00011000
00000000
00010000
00000100
00000010
00000000
,
00000100
00001000
00000010
00000000
00000100
00000001
00000010
00000000
,
00000220
00000000
00000030
00001300
,
00000001
00000000
00000100
00000000
00001000
00000000
00010000
00001000
,
00010000
00001000
00010000
01000000
,
10000000
00100000
00010000
00000000
00100000
00010000
00001000
00000000
,
00010000
00100000
01000000
00000000
00100000
00000000
01100000
00000000
,
10000000
00000000
01000000
00000000
10000000
00000000
01000000
00010000
,
01000000
10000000
01000000
00010000
,
00001000
00010000
00001000
00000000
00010000
00000100
00001000
00000001
,
00000000
00000100
00000000
00000010
00000000
00000000
00000000
00000000
,
00020000
00000000
00000000
00000000
00000000
00001000
00031000
00000000
;

//---------------dance-single - ----------------
#NOTES:
     dance-single:
     :
     Hard:
     11:
     0.438969,0.556534,0.280193,0.298873,0.168116,329.000000,299.000000,30.000000,32.000000,0.000000,0.000000,0.438969,0.556534,0.280193,0.298873,0.168116,329.000000,299.000000,30.000000,32.000000,0.000000,0.000000:
0000
0000
0000
0000
,
0000
0000
0000
0000
,
0000
0000
0000
0000
,
0000
0000
0000
0000
,
2000
3100
0002
0013
,
2000
3010
0002
0103
,
2000
3001
0020
0130
,
2002
0000
0000
0000
0000
0000
0000
0000
0000
0000
0000
0000
3003
0000
0000
0000
0000
0000
0001
0000
0000
1000
0000
0000
0001
0000
0000
0000
0000
0000
0100
0000
0000
0000
0000
0000
0010
0000
0000
0000
0100
0000
0000
0000
0010
0000
0000
0000
,
0110
0000
1000
0010
0000
0001
0100
0000
,
0011
0000
0001
0100
0000
1000
0010
0000
,
1100
0000
0001
0010
0000
1000
0100
0000
,
1010
0000
1000
0100
0000
0001
0010
0000
,
0101
0000
1000
0001
0000
0010
0100
0000
,
0011
0000
0001
1000
0000
0100
0010
0000
,
2200
0000
0000
3300
,
1000
0010
0100
0001
1000
0010
0100
0001
,
0020
1000
0001
1030
,
0200
0001
1000
0301
,
0001
0010
0100
1000
0001
0100
0010
1000
0001
0010
0100
1000
,
1010
0011
0101
1100
,
0002
0010
0100
0013
,
2000
0100
0010
3100
,
0100
0010
0001
1000
0010
0100
0001
1000
0100
0010
0001
1000
,
1010
0101
0220
0330
,
1001
0000
1000
0020
0000
0032
0000
0203
,
0000
0010
1000
0301
,
0001
0010
0100
1000
0001
0100
0010
1000
,
0002
0000
0000
0000
0103
0000
0000
0000
0100
0010
0000
0100
0010
0000
1000
0000
,
0200
0000
0310
0002
0000
1003
0010
0100
,
0120
0000
0000
0001
0000
0000
1030
1000
,
0001
0010
0100
1000
0001
0100
0010
1000
,
0001
0000
0000
0000
0100
0000
0000
0000
0010
0000
0000
0000
0110
0000
0100
0001
,
0100
0000
0001
0010
0000
1000
0100
0010
,
0001
0000
0000
0000
0101
0000
0100
0000
0010
0000
0000
1000
0000
0000
0001
0000
,
0010
0100
1000
0001
0100
0010
1000
0001
,
0010
0000
0000
0000
1100
0000
0000
0000
1000
0000
0000
0010
0000
0000
0001
0000
,
0100
0000
1000
0010
0000
0001
0100
0010
,
1000
0000
0000
0000
0010
0000
0100
0001
0100
0000
0002
0000
0000
0000
0013
0000
,
0100
1000
0001
0100
0010
1000
0100
0010
,
0002
0203
2300
3020
,
0031
0100
0001
0010
0001
0100
1000
0100
,
0010
0000
0000
0000
1000
0100
0000
0100
0000
0000
1000
0000
1000
0000
0010
0000
,
0001
0010
0100
0010
1000
0100
0010
0001
,
0100
0000
0000
0000
0110
0000
0000
1010
0000
0000
1000
0001
0000
0001
0000
0000
,
0010
0001
0010
0100
1000
0010
0001
0010
,
0100
0000
0000
0000
0001
0010
0000
0010
0000
0000
0001
0000
0001
0000
0100
0000
,
1000
0000
0100
0010
0000
0100
0000
0001
0000
1000
0000
0000
0010
0000
0100
0000
,
0220
0000
0000
0330
,
0001
0000
0010
0000
1000
0000
0010
0001
,
0100
1000
0100
0001
,
0010
0100
1000
0001
0010
0100
1000
0001
,
0100
1010
0001
1100
,
1000
0000
0100
0000
0001
0000
0100
1000
,
0010
0001
0010
1000
,
0100
0010
0001
1000
0100
0010
0001
0100
,
0000
0011
0000
1010
0000
0000
0000
0000
,
0220
0000
0000
0330
0000
1001
1001
0000
;

//---------------dance-double - ----------------
#NOTES:
     dance-double:
     :
     Hard:
     11:
     0.413618,0.556534,0.112077,0.345572,0.121417,310.000000,298.000000,12.000000,37.000000,0.000000,0.000000,0.413618,0.556534,0.112077,0.345572,0.121417,310.000000,298.000000,12.000000,37.000000,0.000000,0.000000:
// measure 0
00000000
00000000
00000000
00000000
,  // measure 1
00000000
00000000
00000000
00000000
,  // measure 2
00000000
00000000
00000000
00000000
,  // measure 3
00000000
00000000
00000000
00000000
,  // measure 4
00001000
00010000
01000000
00000000
10000000
00000000
01000000
00000000
,  // measure 5
00010000
00001000
00000010
00000000
00000001
00000000
00000010
00000000
,  // measure 6
00001000
00010000
00100000
00000000
10000000
00000000
00100000
00000000
,  // measure 7
00020000
00000000
00000000
00000000
00000000
00000000
00031000
01000000
00001000
00000000
00010000
00000000
00000100
00000000
00001000
00000000
,  // measure 8
00001001
00000000
00000001
00000100
00001000
00000100
00000002
00000000
,  // measure 9
00000013
00000000
00000010
00001000
00010000
00001000
00000020
00000000
,  // measure 10
00001030
00000000
00001000
00010000
00100000
00010000
00002000
00000000
,  // measure 11
00013000
00000000
00010000
01000000
10000000
01000000
00020000
00000000
,  // measure 12
00031000
00000000
00001000
00000010
00000100
00000010
00002000
00000000
,  // measure 13
00013000
00000000
00010000
00001000
00000100
00000010
00002000
00000000
,  // measure 14
00000002
00000000
00000000
00003003
,  // measure 15
00000001
00000100
00001000
00010000
00100000
10000000
01000000
00100000
,  // measure 16
00010000
00000000
00000000
10000000
00010000
00000000
00000000
00000000
01000000
00000000
00000000
00000000
00001000
00000000
00000000
00000000
,  // measure 17
00010000
00000000
00000000
00001000
00010000
00000000
00000000
00000000
00000010
00000000
00000000
00000000
00001000
00000000
00000000
00000000
,  // measure 18
00000001
00000000
00000001
00000100
00000000
00000100
00001000
00000000
00001000
00010000
00000000
00000000
,  // measure 19
00010100
00011000
01001000
01100000
,  // measure 20
00100000
00000000
00000000
10000000
00100000
00000000
00000000
00000000
00010000
00000000
00000000
00000000
00001000
00000000
00000000
00000000
,  // measure 21
00000100
00000000
00000000
00000001
00000100
00000000
00000000
00000000
00001000
00000000
00000000
00000000
00010000
00000000
00000000
00000000
,  // measure 22
00100000
00000000
00100000
10000000
00000000
10000000
01000000
00000000
01000000
00100000
00000000
00000000
,  // measure 23
00101000
00011000
00020020
00030030
,  // measure 24
00011000
00000000
00001000
00200000
00000000
00320000
00000000
20030000
,  // measure 25
00000000
00000000
00000000
30000000
,  // measure 26
01000000
00100000
00010000
01000000
00100000
00010000
00001000
00000100
,  // measure 27
00000010
00000000
00000000
00000000
00000100
00000000
00000000
00000000
00000001
00000010
00000000
00000001
00000010
00000000
00000001
00000000
,  // measure 28
00000200
00000000
00000310
00002000
00000000
00003100
00010000
00002000
,  // measure 29
00000000
00000000
00000000
02003000
00000000
00000000
03100000
10000000
,  // measure 30
02000000
03200000
00302000
00023000
,  // measure 31
00030200
00000000
00000000
00000000
00000320
00000000
00000000
00000000
00000032
00000000
00000000
00000000
00001003
00000000
00001000
00000001
,  // measure 32
00001000
00000000
00000001
00000100
00000000
00000010
00001000
00000100
,  // measure 33
00010000
00000000
00000000
00000000
00001000
00000000
00010000
00000000
00100000
00000000
00000000
10000000
00000000
00000000
01000000
00000000
,  // measure 34
00100000
01000000
00010000
00001000
00000010
00000100
00000010
00000001
,  // measure 35
00000200
00002300
00023000
00230000
,  // measure 36
10300000
00000000
10000000
01000000
00000000
00100000
00010000
01000000
,  // measure 37
00002000
00000000
00000000
00000000
00000000
00000000
00013000
00001000
00010000
00000000
00000100
00000000
00000000
00000000
00001000
00000000
,  // measure 38
00000020
00020030
00032000
00203000
,  // measure 39
00310000
01000000
00010000
01000000
00000000
00001000
00010000
00000000
00000100
00001000
00000100
00001000
00000000
00000001
00000100
00000000
,  // measure 40
00000001
00000010
00000100
00001000
00000100
00010000
00001000
00010000
,  // measure 41
01000000
00000000
10000000
00100000
00010000
00000000
00100000
01000000
,  // measure 42
00100000
00010000
00001000
00010000
00000100
00001000
00000100
00000010
,  // measure 43
00000001
00000000
00000100
00000000
00001000
00010000
00011000
00000000
,  // measure 44
00100000
00010000
01000000
00100000
10000000
01000000
00010000
01000000
,  // measure 45
10000000
00100000
01000000
00010000
00100000
00001000
00010000
00000100
,  // measure 46
00001000
00000010
00000001
00000010
00001000
00000100
00000010
00000001
,  // measure 47
00002002
00000000
00000000
00003003
,  // measure 48
00001000
00000010
00010000
00001000
,  // measure 49
00100000
00010000
10000000
00100000
,  // measure 50
01000000
00001000
00010000
00000100
00001000
00000010
00010000
00001000
,  // measure 51
00000200
00000001
00000010
00001300
,  // measure 52
00001000
00010000
01000000
10000000
,  // measure 53
00100000
00010000
00001000
00000100
,  // measure 54
00000001
00000010
00000100
00001000
00000010
00000100
00001000
00010000
,  // measure 55
00000000
00100000
00000000
20000000
00000000
00000000
00000000
00000000
,  // measure 56
31000000
00010000
01000000
00010000
00000000
00000000
00001000
00000100
00001000
00000100
00000000
00000000
00000110
00000000
00000000
00000000
;
