#VERSION:0.83;
#TITLE:Love is a Danger Zone;
#SUBTITLE:;
#ARTIST:BanYa;
#TITLETRANSLIT:;
#SUBTITLETRANSLIT:;
#ARTISTTRANSLIT:;
#GENRE:VARIETY;
#ORIGIN:;
#CREDIT:MUINELIM;
#BANNER:Love is a Danger Zone.png;
#BACKGROUND:Love is a Danger Zone-bg.png;
#PREVIEWVID:;
#JACKET:Love is a Danger Zone-jacket.png;
#CDIMAGE:;
#DISCIMAGE:;
#LYRICSPATH:;
#CDTITLE:;
#MUSIC:Love is a Danger Zone.ogg;
#OFFSET:-0.027000;
#SAMPLESTART:13.728000;
#SAMPLELENGTH:17.959999;
#SELECTABLE:YES;
#BPMS:0.000=140.000;
#STOPS:;
#DELAYS:;
#WARPS:;
#TIMESIGNATURES:0.000=4=4;
#TICKCOUNTS:0.000=4;
#COMBOS:0.000=1;
#SPEEDS:0.000=1.000=0.000=0;
#SCROLLS:0.000=1.000;
#FAKES:;
#LABELS:0.000=Song Start;
#BGCHANGES:-10000.000=songbackground=1.000=0=0=1=====,
0.000=Love is a Danger Zone.avi=1.000=1=0=0=StretchNoLoop==CrossFade==,
99999=-nosongbg-=1.000=0=0=0 // don't automatically add -songbackground-
;
#KEYSOUNDS:;
#ATTACKS:
;

//---------------dance-single - ----------------
#NOTEDATA:;
#CHARTNAME:;
#STEPSTYPE:dance-single;
#DESCRIPTION:;
#CHARTSTYLE:;
#DIFFICULTY:Beginner;
#METER:3;
#RADARVALUES:0.144420,0.196861,0.009911,0.000000,0.000000,102.000000,101.000000,1.000000,0.000000,0.000000,0.000000,0.000000,0.000000,0.000000,0.144420,0.196861,0.009911,0.000000,0.000000,102.000000,101.000000,1.000000,0.000000,0.000000,0.000000,0.000000,0.000000,0.000000;
#CREDIT:MILEN;
#NOTES:
0000
0000
0000
0000
,
0000
0000
0000
0000
,
0000
0000
0000
0000
,
0000
0000
0000
0000
,
0000
0000
0000
0000
,
0000
0000
0000
0000
,
1000
0000
0100
0000
,
0010
0000
0001
0000
,
0100
0000
0000
0000
,
0010
0000
0000
0000
,
0100
0100
0000
0000
,
0001
0000
1000
0000
,
0010
0000
0000
0000
,
0100
0000
0000
0000
,
0010
0010
0000
0000
,
1000
0000
0001
0000
,
1000
0000
0100
0000
,
0010
0000
0001
0000
,
1000
0000
0100
0000
,
0010
0000
0001
0000
,
0001
0000
0100
0000
,
0010
0000
1000
0000
,
0001
0000
0100
0000
,
0010
0000
1000
0000
,
1000
0000
0100
0000
,
0001
0000
0100
0000
,
1000
0000
0100
0000
,
0001
0000
0100
0000
,
1000
0000
0010
0000
,
0001
0000
0100
0000
,
1000
0000
0010
0000
,
0001
0001
0001
0000
,
0100
0000
0000
0000
,
1000
0000
0000
0000
,
0001
0001
0000
0000
,
0100
0000
0010
0000
,
0010
0000
0100
0000
,
0001
0000
1000
0000
,
0010
0010
0000
0000
,
0100
0100
0100
0000
,
0001
0000
0010
0000
,
0001
0000
0010
0000
,
0001
0001
0000
0000
,
1000
0000
0001
0000
,
1000
0000
0010
0000
,
1000
0000
0010
0000
,
1000
1000
0000
0000
,
0001
0001
0001
0001
,
0001
0000
0010
0000
,
0100
0000
1000
0000
,
0001
0000
0010
0000
,
0100
0000
0100
0000
,
0100
0000
1000
0000
,
0010
0000
0001
0000
,
0100
0000
1000
0000
,
0010
0010
0010
0010
,
0000
0000
0000
1001
;

//---------------dance-single - ----------------
#NOTEDATA:;
#CHARTNAME:;
#STEPSTYPE:dance-single;
#DESCRIPTION:;
#CHARTSTYLE:;
#DIFFICULTY:Easy;
#METER:5;
#RADARVALUES:0.246364,0.281230,0.099112,0.000000,0.000000,174.000000,164.000000,10.000000,0.000000,0.000000,0.000000,0.000000,0.000000,0.000000,0.246364,0.281230,0.099112,0.000000,0.000000,174.000000,164.000000,10.000000,0.000000,0.000000,0.000000,0.000000,0.000000,0.000000;
#CREDIT:MILEN;
#NOTES:
0000
0000
0000
0000
,
0000
0000
0000
0000
,
0000
0000
0000
0000
,
0000
0000
0000
0000
,
0000
0000
0000
0000
,
0000
0000
0000
0000
,
1000
0000
0001
0000
,
0100
0000
0010
0000
,
1000
0001
1000
1000
,
0001
1000
0001
1000
,
0001
0001
0000
0000
,
0100
0010
0110
0000
,
0001
1000
0001
0001
,
1000
0001
1000
0001
,
1000
1000
0000
0000
,
0010
0100
0110
0000
,
0010
1000
0010
1000
,
0001
0100
0001
0100
,
0010
1000
0001
0100
,
0010
1000
0001
0100
,
0001
0010
0001
0010
,
0100
1000
0100
1000
,
0001
0010
0100
1000
,
0001
0010
0100
0110
,
1000
0010
1000
0010
,
0001
0100
0001
0100
,
1000
0010
0001
0100
,
1000
0010
0001
0100
,
1000
0001
1000
0001
,
0010
0100
0010
0100
,
1000
0001
0010
0100
,
0010
0010
0010
0010
,
0010
0000
0000
0000
,
0001
0000
0000
0000
,
0100
0100
0000
0000
,
1000
0001
1001
0000
,
0100
0000
0000
0000
,
1000
0000
0000
0000
,
0010
0010
0000
0000
,
0001
1000
1001
0000
,
0001
0000
1000
0000
,
0010
0100
0010
0100
,
0010
0010
0000
0000
,
1010
0000
0101
0000
,
0001
0000
1000
0000
,
0100
0010
0100
0010
,
0100
0100
0000
0000
,
1100
0100
0010
0001
,
0100
0010
1000
0010
,
0100
0001
0100
0010
,
1000
0010
0100
0001
,
0100
0100
0100
0100
,
0001
0010
1000
0100
,
0001
0010
1000
0100
,
0001
0100
1000
0010
,
0001
0100
1000
0010
,
0000
0110
0000
1001
;

//---------------dance-double - ----------------
#NOTEDATA:;
#CHARTNAME:;
#STEPSTYPE:dance-double;
#DESCRIPTION:;
#CHARTSTYLE:;
#DIFFICULTY:Easy;
#METER:7;
#RADARVALUES:0.246364,0.281230,0.089201,0.000000,0.000000,174.000000,165.000000,9.000000,0.000000,0.000000,0.000000,0.000000,0.000000,0.000000,0.246364,0.281230,0.089201,0.000000,0.000000,174.000000,165.000000,9.000000,0.000000,0.000000,0.000000,0.000000,0.000000,0.000000;
#CREDIT:MILEN;
#NOTES:
00000000
00000000
00000000
00000000
,
00000000
00000000
00000000
00000000
,
00000000
00000000
00000000
00000000
,
00000000
00000000
00000000
00000000
,
00000000
00000000
00000000
00000000
,
00000000
00000000
00000000
00000000
,
10000000
00000000
00010000
00000000
,
00001000
00000000
00000001
00000000
,
00000100
00000010
00000100
00000100
,
00000010
00000100
00000010
00000100
,
00000010
00000010
00000000
00000000
,
00010000
00001000
00011000
00000000
,
00100000
01000000
00100000
00100000
,
01000000
00100000
01000000
00100000
,
01000000
01000000
00000000
00000000
,
00001000
00010000
00011000
00000000
,
00100000
00010000
00100000
00010000
,
01000000
10000000
01000000
10000000
,
00100000
00010000
01000000
10000000
,
00100000
00010000
01000000
10000000
,
00100000
00001000
00010000
00000100
,
00000001
00000010
00001000
00010000
,
01000000
10000000
00010000
00001000
,
00000001
00000010
00000100
00000110
,
00000001
00000010
00000001
00000010
,
00001000
00000100
00001000
00000100
,
00000001
00000010
00001000
00000100
,
00000001
00000010
00001000
00000100
,
00000010
00001000
00010000
01000000
,
00100000
00010000
01000000
10000000
,
00100000
00010000
01000000
10000000
,
00100000
00100000
00100000
00100000
,
00100000
00000000
00000000
00000000
,
00001000
00000000
00000000
00000000
,
00000010
00000010
00000000
00000000
,
00000001
00001000
00001001
00000000
,
00000100
00000000
00000000
00000000
,
00010000
00000000
00000000
00000000
,
01000000
01000000
00000000
00000000
,
10000000
00010000
10010000
00000000
,
10000000
00000000
00100000
00000000
,
00010000
00001000
00010000
00001000
,
00010000
00010000
00000000
00000000
,
00010010
00000000
00101000
00000000
,
00001000
00000000
00000100
00000000
,
00000001
00000010
00000001
00000010
,
00000001
00000001
00000000
00000000
,
00001010
00001000
00010000
01000000
,
10000000
00100000
00010000
00100000
,
10000000
01000000
00010000
01000000
,
10000000
00100000
00010000
00001000
,
00000010
00000010
00000010
00000010
,
00000001
00000100
00001000
00000100
,
00000001
00000010
00001000
00010000
,
01000000
10000000
00100000
00010000
,
00001000
00000100
00000001
00001000
,
00000000
00010000
10000000
10010000
;

//---------------dance-single - ----------------
#NOTEDATA:;
#CHARTNAME:;
#STEPSTYPE:dance-single;
#DESCRIPTION:;
#CHARTSTYLE:;
#DIFFICULTY:Medium;
#METER:9;
#RADARVALUES:0.379457,0.420916,0.218046,0.000000,0.000000,268.000000,246.000000,22.000000,0.000000,0.000000,0.000000,0.000000,0.000000,0.000000,0.379457,0.420916,0.218046,0.000000,0.000000,268.000000,246.000000,22.000000,0.000000,0.000000,0.000000,0.000000,0.000000,0.000000;
#CREDIT:MILEN;
#NOTES:
0000
0000
0000
0000
,
0000
0000
0000
0000
,
0000
0000
0000
0000
,
0000
0000
0000
0000
,
0000
0000
0000
0000
,
0000
0000
0000
0000
,
1000
0010
0001
0100
,
1000
0001
1000
1001
,
0010
1000
0010
0000
0100
0001
0100
0000
,
0010
1000
0100
0010
,
0001
1000
0001
0000
0000
0000
0000
0000
,
1000
0100
0010
0001
1000
0000
0000
0000
,
0001
0100
0001
0000
1000
0010
1000
0000
,
0001
0100
0010
1000
,
0100
0010
0100
0000
0000
0000
0000
0000
,
1000
0010
0100
0001
1000
0000
0000
0000
,
0001
0010
0001
0000
0010
1000
0010
0000
,
0001
0010
1000
0010
,
0001
0100
0001
0000
0100
1000
0100
0000
,
0001
0100
1000
0100
,
0001
0010
0100
0000
0010
0100
1000
0000
,
0010
0100
0001
1000
,
0100
0010
0001
0000
1000
0100
0010
0000
,
0110
0000
1001
0000
0010
0100
0010
0000
,
1000
0100
0001
0000
0100
0000
1000
0000
,
0010
0001
0010
0000
1000
0000
0100
0000
,
0001
0100
1000
0000
0010
0000
0001
0000
,
0010
1000
0010
0000
0001
0000
0010
0000
,
1000
0001
0100
0000
1000
0000
0100
0000
,
0001
0010
0001
0000
0100
0000
1000
0000
,
0100
0001
0100
0000
1000
0000
0100
0000
,
0001
0010
0100
0000
0010
0100
1000
0000
,
0010
0000
0100
0001
0000
0100
0010
0000
,
1010
0100
0101
0010
,
1010
0000
0100
0000
0000
0001
0000
1000
,
0001
0010
0100
1000
0001
0000
0110
0000
,
1000
0000
0010
0001
0000
0100
0000
1000
,
0001
1000
1010
0101
,
0010
0100
0010
0000
0000
1000
0000
0001
,
1000
0100
0010
0001
1000
0100
0010
0000
,
0001
0101
1000
1100
,
0001
0010
0001
0000
1000
0100
1000
0000
,
0010
0100
0010
0000
0000
0000
0000
0000
,
1010
1100
0011
0101
,
1000
1010
0001
0011
,
1000
0010
0100
0000
0001
0100
0010
0000
,
1000
0001
1000
0000
0000
0000
0000
0000
,
1010
0011
1100
0101
,
0001
0010
0100
1000
,
0010
0001
1000
0100
,
0001
0010
0100
0010
,
0001
0001
1000
1000
0010
0100
0010
0100
,
0001
0000
0100
0000
1000
0000
0100
0001
,
0010
0000
1000
0000
0010
0000
0001
0100
,
0010
1000
0100
0001
,
0100
0100
1000
1000
0010
0010
0001
0100
,
0000
0000
1000
0001
1000
1001
0000
0000
;

//---------------dance-single - ----------------
#NOTEDATA:;
#CHARTNAME:;
#STEPSTYPE:dance-single;
#DESCRIPTION:;
#CHARTSTYLE:;
#DIFFICULTY:Hard;
#METER:11;
#RADARVALUES:0.460163,0.477038,0.148668,0.000000,0.049556,325.000000,310.000000,15.000000,0.000000,0.000000,0.000000,0.000000,0.000000,0.000000,0.460163,0.477038,0.148668,0.000000,0.049556,325.000000,310.000000,15.000000,0.000000,0.000000,0.000000,0.000000,0.000000,0.000000;
#CREDIT:MILEN;
#NOTES:
0000
0000
0000
0000
,
0000
0000
0000
0000
,
0000
0000
0000
0000
,
0000
0000
0000
0000
,
0000
0000
0000
0000
,
0000
0000
0000
0000
,
0001
0010
1000
0100
,
0001
1000
0010
0110
,
0100
0001
0100
0010
1000
0010
0100
0000
,
0001
0010
0100
1000
,
0010
0100
0010
0000
0000
0000
0000
0000
,
1000
0000
0100
0000
0010
0000
0001
0000
1000
0000
0000
0001
1000
0000
0001
0000
,
0100
0010
1000
0010
0100
0001
0100
0000
,
0010
1000
0100
0010
,
0001
1000
0001
0000
0000
0000
0000
0000
,
1000
0010
0100
0001
1000
0010
0100
0001
,
1000
0000
0100
0000
0001
0100
1000
0000
,
0010
0000
0001
0000
0010
1000
0100
0000
,
0001
0000
0100
0000
1000
0010
0001
0000
,
0010
0000
1000
0000
0100
0001
0100
0000
,
0010
0000
0001
0000
0100
1000
0100
0000
,
0001
0000
0010
0000
1000
0010
0001
0000
,
0100
0000
1000
0000
0100
0001
0010
0000
,
0100
0010
0000
0000
0100
0000
0000
0000
1000
0000
0001
0000
1001
0000
0000
0000
,
1000
0010
0001
0000
0010
1000
0100
0000
,
0001
0100
1000
0000
0010
0001
0010
0000
,
1000
0100
0001
0000
0100
0010
0001
0000
,
0100
1000
0100
0000
0001
0010
1000
0000
,
0010
0001
0100
0000
1000
0100
0001
0000
,
0010
0100
0010
0000
1000
0010
0001
0000
,
0100
0010
1000
0000
0010
0100
0001
0000
,
1000
0100
0010
0001
1000
0100
0010
0001
,
0100
0000
0000
0010
0100
0000
0010
0000
0000
0000
1010
0000
0000
0000
0000
0000
,
1100
0011
1001
0110
,
1000
0000
0000
0001
1000
0000
0000
0000
0000
0000
0001
0000
0000
0000
0001
0000
,
1000
0000
0100
0000
0010
0000
0001
0000
1000
0000
0000
0100
1000
0000
0100
0000
,
0010
0000
0011
1000
0000
1010
0000
0100
,
0001
0010
0100
1000
,
0010
0000
0000
0100
0010
0000
0100
0000
0000
0000
0110
0000
0000
0000
0010
0000
,
1000
0100
0010
0001
1000
0100
0010
0001
,
0100
0000
0000
1000
0100
0000
0000
0000
0010
0000
0000
0001
0010
0000
0000
0000
,
0100
0100
0100
0100
0100
0100
0100
0100
,
1000
0000
0001
0000
0100
0000
0000
0000
0010
0000
0000
0100
0010
0000
0100
0000
,
0101
1010
0011
1100
,
1000
0010
0100
0000
0001
0010
0100
0000
,
1000
1000
1000
1000
1000
1000
1000
1000
,
0001
0000
0010
0000
0100
0000
0000
0000
0010
0000
0000
0001
0100
0000
0010
0000
,
1000
1000
0100
0100
0010
0010
0001
0001
,
0100
0010
1000
0010
0100
0001
0010
0100
,
0001
0100
1000
0001
0100
0010
0100
1000
,
0100
0001
0010
0100
0010
0001
0100
0010
,
1000
1000
0100
0100
0001
0001
0010
0010
,
1000
0100
0010
0001
0100
1000
0100
0010
,
1000
0100
0010
1000
0010
0001
1000
0010
,
0100
1000
0001
0100
0010
0001
0010
0100
,
1000
1000
0010
0010
0001
0001
0100
0100
,
0000
0000
1000
0001
1000
1001
0000
0000
;

//---------------dance-double - ----------------
#NOTEDATA:;
#CHARTNAME:;
#STEPSTYPE:dance-double;
#DESCRIPTION:;
#CHARTSTYLE:;
#DIFFICULTY:Medium;
#METER:10;
#RADARVALUES:0.376625,0.448977,0.247780,0.000000,0.000000,266.000000,241.000000,25.000000,0.000000,0.000000,0.000000,0.000000,0.000000,0.000000,0.376625,0.448977,0.247780,0.000000,0.000000,266.000000,241.000000,25.000000,0.000000,0.000000,0.000000,0.000000,0.000000,0.000000;
#CREDIT:MILEN;
#NOTES:
// measure 0
00000000
00000000
00000000
00000000
,  // measure 1
00000000
00000000
00000000
00000000
,  // measure 2
00000000
00000000
00000000
00000000
,  // measure 3
00000000
00000000
00000000
00000000
,  // measure 4
00000000
00000000
00000000
00000000
,  // measure 5
00000000
00000000
00000000
00000000
,  // measure 6
00001000
00010000
01000000
00010000
,  // measure 7
00001000
00000100
00001000
00010000
,  // measure 8
00100000
10000000
01000000
00010000
,  // measure 9
00001000
00010000
00100000
00010000
,  // measure 10
00001000
00010000
00001000
00000000
00000000
00000000
00000000
00000000
,  // measure 11
00010000
00001000
00011000
00000000
,  // measure 12
00010000
00001000
00000100
00000001
,  // measure 13
00000010
00001000
00010000
01000000
,  // measure 14
10000000
00010000
10000000
00000000
00000000
00000000
00000000
00000000
,  // measure 15
00100000
01000000
01100000
00000000
,  // measure 16
00010000
00100000
10000000
00000000
00100000
10000000
01000000
00000000
,  // measure 17
00010000
01000000
00010000
00001000
,  // measure 18
00000010
00000001
00000100
00000000
00000001
00000100
00001000
00000000
,  // measure 19
00010000
00001000
00010000
01000000
,  // measure 20
10000000
00100000
00010000
00000000
00100000
00010000
00001000
00000000
,  // measure 21
00100000
01000000
00100000
01000000
,  // measure 22
00010000
00001000
00000010
00000000
00001000
00000010
00000100
00000000
,  // measure 23
00000110
00000000
00001001
00000000
00000001
00000100
00001000
00000000
,  // measure 24
00010000
00100000
00010000
00000000
00001000
00000000
00010000
00000000
,  // measure 25
00001000
00000010
00001000
00000000
00010000
00000000
00001000
00000000
,  // measure 26
00010000
01000000
00010000
00000000
00001000
00000000
00010000
00000000
,  // measure 27
00001000
00000100
00001000
00000000
00010000
00000000
00001000
00000000
,  // measure 28
00010000
01000000
10000000
00000000
00100000
00000000
00010000
00000000
,  // measure 29
00001000
00000100
00000001
00000000
00000010
00000000
00001000
00000000
,  // measure 30
00010000
00100000
10000000
00000000
01000000
00000000
00010000
00000000
,  // measure 31
00001000
00000010
00000001
00000000
00001000
00000100
00000010
00000000
,  // measure 32
00001000
00000000
00010000
00001000
00000000
00010000
01000000
00000000
,  // measure 33
11000000
00110000
01001000
00010010
,  // measure 34
00001100
00000000
00000011
00000000
00000000
00001001
00000000
00000010
,  // measure 35
00000100
00000010
00001000
00010000
01000000
00000000
11000000
00000000
,  // measure 36
00100000
00000000
00010000
00001000
00000000
00000100
00000000
00000010
,  // measure 37
00000100
00000101
00010010
00101000
,  // measure 38
00100000
01000000
10000000
00000000
00000000
01100000
00000000
00010000
,  // measure 39
00100000
01000000
00010000
00001000
00000010
00000100
00000001
00000000
,  // measure 40
00001000
00001100
00000001
00000011
,  // measure 41
00000010
00000100
00001000
00000000
00000100
00001000
00010000
00000000
,  // measure 42
00001000
00010000
01000000
00000000
00000000
00000000
00000000
00000000
,  // measure 43
10100000
00010000
00011000
00000010
,  // measure 44
00000001
00000101
00001000
00001010
,  // measure 45
00010000
00001000
00100000
00000000
00100000
01000000
10000000
00000000
,  // measure 46
10000000
00100000
00010000
00000000
00000000
00000000
00000000
00000000
,  // measure 47
00011000
00000100
00000110
00000001
,  // measure 48
00000100
00001000
00010000
00000000
01000000
00000000
10000000
00000000
,  // measure 49
00100000
00010000
00001000
00000000
00000010
00001000
00010000
00000000
,  // measure 50
00000100
00000010
00000001
00000100
,  // measure 51
00001000
00001000
00010000
00010000
00100000
10000000
00100000
10000000
,  // measure 52
01000000
00000000
00010000
00000000
00100000
00000000
01000000
00010000
,  // measure 53
00100000
00000000
01000000
00000000
00010000
00000000
00001000
00010000
,  // measure 54
00000100
00000010
00000001
00000100
,  // measure 55
00001000
00001000
00010000
00010000
01000000
01000000
10000000
00100000
,  // measure 56
00000000
00000000
00010000
00001000
00010000
00011000
00000000
00000000
;

//---------------dance-double - ----------------
#NOTEDATA:;
#CHARTNAME:;
#STEPSTYPE:dance-double;
#DESCRIPTION:;
#CHARTSTYLE:;
#DIFFICULTY:Hard;
#METER:12;
#RADARVALUES:0.409191,0.533160,0.277513,0.000000,0.000000,289.000000,261.000000,28.000000,0.000000,0.000000,0.000000,0.000000,0.000000,0.000000,0.409191,0.533160,0.277513,0.000000,0.000000,289.000000,261.000000,28.000000,0.000000,0.000000,0.000000,0.000000,0.000000,0.000000;
#CREDIT:MILEN;
#NOTES:
// measure 0
00000000
00000000
00000000
00000000
,  // measure 1
00000000
00000000
00000000
00000000
,  // measure 2
00000000
00000000
00000000
00000000
,  // measure 3
00000000
00000000
00000000
00000000
,  // measure 4
00000000
00000000
00000000
00000000
,  // measure 5
00000000
00000000
00000000
00000000
,  // measure 6
10000000
00000000
00010000
00000000
,  // measure 7
00001000
00000000
00000001
00000000
,  // measure 8
00000100
00000010
00001000
00010000
,  // measure 9
01000000
00100000
10000000
00010000
,  // measure 10
00100000
01000000
00100000
00000000
00000000
00000000
00000000
00000000
,  // measure 11
10000000
01000000
00100000
00010000
01000000
00000000
00000000
00000000
,  // measure 12
00010000
10000000
00100000
00010000
,  // measure 13
00001000
00000100
00000001
00001000
,  // measure 14
00000100
00000010
00000100
00000000
00000000
00000000
00000000
00000000
,  // measure 15
00000001
00000010
00000100
00001000
00000010
00000000
00000000
00000000
,  // measure 16
00000001
00000000
00000010
00000000
00001000
00000000
00010000
00001000
,  // measure 17
00000010
00000000
00001000
00000000
00010000
00000000
00001000
00010000
,  // measure 18
00100000
00000000
00010000
00000000
00001000
00000000
00010000
00100000
,  // measure 19
10000000
00000000
01000000
00000000
00010000
00000000
00001000
00000100
,  // measure 20
00000001
00000000
00000100
00000000
00001000
00000000
00010000
00001000
,  // measure 21
00000010
00000000
00001000
00000000
00010000
00000000
00001000
00010000
,  // measure 22
01000000
00010000
00001000
00100000
,  // measure 23
01100000
00000000
10010000
00000000
10000000
01000000
00010000
00000000
,  // measure 24
00100000
10000000
01000000
00010000
,  // measure 25
00100000
01000000
00010000
00001000
,  // measure 26
00000010
00000100
00000001
00000000
00000100
00000010
00001000
00000000
,  // measure 27
00000001
00000100
00001000
00000000
00010000
00100000
10000000
00000000
,  // measure 28
01000000
00010000
00001000
00000000
00000100
00001000
00010000
00000000
,  // measure 29
00001000
00000000
00000010
00000000
00000001
00000100
00001000
00000000
,  // measure 30
00010000
00100000
10000000
01000000
,  // measure 31
00100000
01000000
00010000
00001000
00000010
00000100
00010000
00001000
,  // measure 32
00100000
00000000
00010000
01000000
00000000
10100000
00000000
00000000
,  // measure 33
11000000
00110000
00001010
00000101
,  // measure 34
00000110
00000000
00001001
00000000
00000000
00000110
00000000
00000001
,  // measure 35
00000010
00000100
00001000
00010000
01000000
00000000
10100000
00000000
,  // measure 36
01010000
00000000
00100000
00001000
00000000
00010000
00000000
00000100
,  // measure 37
00000010
00000001
00001100
00010000
,  // measure 38
01000000
10000000
00100000
00000000
00000000
00011000
00000000
00001000
,  // measure 39
00000100
00000001
00000010
00000100
00001000
00000000
00000000
00000000
,  // measure 40
00000001
00000100
00010000
01000000
,  // measure 41
00100000
10000000
00010000
00100000
01000000
10000000
00100000
00010000
,  // measure 42
00001000
00011000
00000000
00000000
,  // measure 43
00010010
00101000
00010100
01001000
,  // measure 44
01000000
00010000
00100000
00000000
01000000
00010000
00001000
00000000
,  // measure 45
00000010
00000100
00010000
00001000
00000100
00000001
00000010
00001000
,  // measure 46
00000100
00000110
00000000
00000000
,  // measure 47
00010100
00101000
00010010
01001000
,  // measure 48
00001000
00010000
00100000
10000000
01000000
00100000
10000000
00010000
,  // measure 49
01000000
10000000
00100000
00010000
00001000
00000100
00000001
00001000
,  // measure 50
00000100
00000010
00001000
00000001
00000100
00000010
00001000
00010000
,  // measure 51
00000100
00000010
00000001
00000001
00001000
00001000
00010000
01000000
,  // measure 52
00100000
10000000
01000000
00010000
00001000
00000010
00010000
00000010
,  // measure 53
00001000
00000010
00000001
00000100
00001000
00000001
00001000
00000100
,  // measure 54
00001000
00010000
00100000
00010000
00001000
00100000
01000000
10000000
,  // measure 55
00100000
00010000
01000000
00001000
00000100
00000001
00000010
00000100
,  // measure 56
00000000
00000000
00010100
00011000
01001000
00011000
00000000
00000000
;
