#TITLE:Love Scenario;
#SUBTITLE:;
#ARTIST:iKON;
#TITLETRANSLIT:;
#SUBTITLETRANSLIT:;
#ARTISTTRANSLIT:;
#GENRE:K-POP;
#CREDIT:MUINELIM;
#BANNER:Love Scenario.png;
#BACKGROUND:Love Scenario-bg.png;
#LYRICSPATH:;
#CDTITLE:;
#MUSIC:Love Scenario.mp3;
#OFFSET:0.154000;
#SAMPLESTART:1.117187;
#SAMPLELENGTH:12.183389;
#SELECTABLE:YES;
#BPMS:0.000000=118.000000
;
#STOPS:
;
#BGCHANGES:0.000=Love Scenario-bg.png=1.000=0=0=1====#000000=#000000,
2.000=Love Scenario.avi=1.000=1=0=0=StretchNoLoop==CrossFade==,
99999=-nosongbg-=1.000=0=0=0 // don't automatically add -songbackground-
;
#KEYSOUNDS:;
#ATTACKS:;

//---------------dance-single - ----------------
#NOTES:
     dance-single:
     :
     Hard:
     13:
     0.516988,0.607802,0.573925,0.159424,0.111596,454.000000,382.000000,72.000000,20.000000,0.000000,0.000000,0.516988,0.607802,0.573925,0.159424,0.111596,454.000000,382.000000,72.000000,20.000000,0.000000,0.000000:
// measure 0
0000
0000
0000
0000
,  // measure 1
1001
0000
1000
0010
0000
0010
0001
1000
,  // measure 2
0100
0000
0001
0010
0000
0010
1000
0001
,  // measure 3
0100
0000
1000
0100
0000
0100
0001
1000
,  // measure 4
0010
0000
0100
0010
0100
0001
0010
0100
,  // measure 5
1100
0000
1100
0000
1000
0010
0001
0100
,  // measure 6
0101
0000
0101
0000
0001
0100
1000
0010
,  // measure 7
1010
0000
1010
0000
1000
0100
0001
0010
,  // measure 8
0011
0000
0001
0010
0100
1000
0010
0100
,  // measure 9
1001
0000
0001
0100
0000
0100
1000
0010
,  // measure 10
0100
0000
1000
0010
0000
0010
0001
0100
,  // measure 11
0010
0000
0001
0010
0000
0010
1000
0100
,  // measure 12
0010
0000
1000
0010
0001
1000
0100
0001
,  // measure 13
0110
0000
0010
1000
0000
1000
0100
0010
,  // measure 14
1000
0000
0100
0001
0000
0001
0100
0010
,  // measure 15
0001
0000
0100
1000
0000
1000
0010
0100
,  // measure 16
0001
0010
0100
1000
0010
0100
0110
0000
,  // measure 17
0010
0000
1000
0000
0100
0000
0010
0100
0010
0001
0000
0000
0101
0000
0100
0010
,  // measure 18
1000
0001
0010
0000
0100
1000
0000
0000
1010
0000
0000
0000
0011
0000
0010
0100
,  // measure 19
1000
0000
0010
0000
0001
0010
0100
0000
0010
1000
0100
0000
0010
0001
0100
0000
,  // measure 20
1000
0100
0010
0000
0001
0010
1000
0000
0100
0000
0110
0000
0001
0000
1001
0000
,  // measure 21
1000
0000
0010
0001
0000
0010
1000
0000
0100
0001
0000
0100
1000
0000
0010
0100
,  // measure 22
0001
0000
0010
1000
0000
0001
0100
0000
1100
0000
0000
0000
0011
0000
0000
0010
,  // measure 23
0100
0000
1000
0010
0000
0001
0010
0100
0010
0000
0001
0010
0000
1000
0100
0010
,  // measure 24
0100
0000
1000
0010
0000
0001
0100
0000
1100
0000
0001
0100
0010
0000
1000
0000
,  // measure 25
0002
0010
0010
0013
,  // measure 26
0020
1000
1000
1030
,  // measure 27
2000
0100
0100
3100
,  // measure 28
0200
0000
0001
0000
0301
0010
0100
1000
,  // measure 29
0020
0031
0002
0103
,  // measure 30
0200
1300
2000
3010
,  // measure 31
0020
0031
0002
0103
,  // measure 32
0200
0000
1300
0000
1000
0010
0100
0001
,  // measure 33
2001
0000
0010
0100
0000
0100
0010
0001
,  // measure 34
0010
0000
0010
0100
0000
0100
0001
0100
,  // measure 35
0010
0000
0010
0100
0000
0100
0001
0010
,  // measure 36
0100
0000
3010
0100
0101
0010
0110
1000
,  // measure 37
1002
0000
0010
0100
0000
0100
0010
1000
,  // measure 38
0010
0000
0010
0100
0000
0100
1000
0100
,  // measure 39
0010
0000
0010
0100
0000
0100
1000
0010
,  // measure 40
0100
0000
0013
0100
1100
0010
0110
0001
,  // measure 41
0201
0000
0010
1000
0000
1000
0010
0001
,  // measure 42
0010
0000
0010
1000
0000
1000
0301
0110
,  // measure 43
1020
0000
0100
0001
0000
0001
0100
1000
,  // measure 44
0130
0001
0011
0100
1010
0001
0110
1000
,  // measure 45
1020
0000
0001
0100
0000
0100
1000
0001
,  // measure 46
0100
0000
0100
0001
0000
0001
1030
1001
,  // measure 47
0201
0000
1000
0010
0000
0010
0001
1000
,  // measure 48
0010
0000
0010
0301
0110
0000
0000
0000
,  // measure 49
1010
0000
1100
0000
0011
0000
0101
0110
,  // measure 50
1010
1100
0011
0101
,  // measure 51
1100
0000
0101
0000
1010
0000
0011
1001
,  // measure 52
1100
0101
0011
1010
,  // measure 53
0110
0000
1100
0000
0011
0000
0101
1100
,  // measure 54
0011
1010
1001
0000
1010
0000
0011
0000
,  // measure 55
0101
0000
1100
0000
0110
0000
1010
0011
,  // measure 56
1100
0101
0110
0010
1000
0100
0001
0010
,  // measure 57
0210
0000
0001
0010
0000
0010
1000
0001
,  // measure 58
0010
0000
0010
0001
0000
0001
0010
1000
,  // measure 59
0001
0010
0000
0010
0001
0010
1000
0001
,  // measure 60
0320
0000
1000
0100
0001
1000
0001
0200
,  // measure 61
0330
0000
0000
0000
;

//---------------dance-double - ----------------
#NOTES:
     dance-double:
     :
     Hard:
     13:
     0.429305,0.582294,0.135510,0.263049,0.111596,377.000000,360.000000,17.000000,33.000000,0.000000,0.000000,0.429305,0.582294,0.135510,0.263049,0.111596,377.000000,360.000000,17.000000,33.000000,0.000000,0.000000:
00000000
00000000
00000000
00000000
00000000
10000000
01000000
00100000
,
00010000
02000000
00000000
00000000
00000000
03100000
00010000
00001000
,
00000100
00000020
00000000
00000000
00000000
00001030
00000100
00000010
,
00000001
00000100
00000000
00000100
00000001
00000010
00001000
00020000
,
00000000
00000000
00000000
00031000
00000100
00000001
00000010
00000100
,
00001000
00000020
00000000
00000000
00000000
00000130
00001000
00010000
,
00100000
02000000
00000000
00000000
00000000
03010000
00100000
01000000
,
10000000
00100000
00000000
00100000
10000000
01000000
00010000
00002000
,
00000000
00000000
00000000
00103000
01000000
10000000
00100000
00010000
,
00001000
00000000
00001000
00000200
00000000
00000000
00000301
00000010
,
00000100
00002000
00000000
00000000
00000000
00003010
00010000
00001000
,
00100000
00000000
00100000
02000000
00000000
00000000
13000000
00100000
,
00010000
00002000
00000000
00000000
00000000
00103000
01000000
00010000
,
00001000
00000000
00001000
00000020
00000000
00000000
00000031
00000100
,
00000010
00002000
00000000
00000000
00000000
00003100
00010000
00001000
,
00100000
00000000
00100000
02000000
00000000
00000000
13000000
00100000
,
00020000
00002000
00000000
00000000
00033000
00000000
00011000
00000000
,
00100000
00000000
00010000
00000000
01000000
00000000
00100000
10000000
00100000
10000000
00000000
00000000
11000000
00000000
01000000
00100000
,
01000000
00100000
01000000
00000000
00010000
00001000
00000000
00000000
00011000
00000000
00000000
00000000
00010010
00000000
00000010
00001000
,
00000010
00000000
00000100
00000000
00000001
00000010
00000001
00000000
00001000
00000100
00001000
00000000
00000100
00010000
00000100
00000000
,
00010000
00001000
00010000
00000000
00001000
00100000
00001000
00000000
01000000
00000000
00100000
00000000
00010000
00000000
00001000
00000000
,
00100000
00000000
01000000
10000000
00000000
10000000
00100000
00000000
00100000
01000000
00000000
01000000
00010000
00000000
00100000
00010000
,
00100000
00000000
00001000
00010000
00000000
00010000
00000100
00000000
00001100
00000000
00000000
00000000
00000011
00000000
00000000
00000001
,
00000100
00000000
00000100
00000010
00000000
00000010
00010000
00001000
00010000
00000000
00001000
00100000
00000000
00100000
00010000
00100000
,
01000000
00000000
00100000
00010000
00000000
00010000
10000000
00000000
00100000
00000000
00010000
00001000
00010000
00000000
00000100
00000000
,
00002000
00000001
00000001
00003001
,
00020000
00000010
00000010
00030010
,
00002000
01000000
01000000
01003000
,
00020000
00000000
10000000
00000000
10030000
01000000
00100000
00010000
,
20000000
30100000
00200000
00310000
,
00020000
00031000
00002000
00003100
,
00000200
00000301
00000002
00000013
,
00000020
00000000
00001030
00000000
00001000
00010000
00001000
00010000
,
00021000
00001000
00000000
00000000
00000000
00000010
00000010
00001000
,
00001000
00001000
00000000
00000000
00000000
00000100
00000100
00000010
,
00000010
00000010
00000000
00001000
00001000
00000100
00000100
00000010
,
00000000
00000000
00000000
00030010
00010000
00001000
01000000
00001000
,
00012000
00010000
00000000
00000000
00000000
00100000
00100000
00010000
,
00010000
00010000
00000000
00000000
00000000
01000000
01000000
00100000
,
00100000
00100000
00000000
00010000
00010000
01000000
01000000
00100000
,
00000000
00000000
00000000
00103000
00001000
00010000
00000100
00010000
,
00012000
00000000
00100000
00100000
00000000
00000000
00000010
00000010
,
00100000
00100000
00000000
00000000
00000000
00013000
00010000
00001000
,
00021000
00000000
00000100
00000100
00000000
00000000
01000000
01000000
,
00000100
00000100
00000000
00000000
00000000
00031000
00001000
00010000
,
00012000
00000000
01000000
01000000
00000000
00000000
00000100
00000100
,
00000001
00000001
00000000
00000000
00000000
00003100
00010000
00001000
,
00021000
00000000
00000010
00000010
00000000
00000000
00100000
00100000
,
10000000
10000000
00000000
00000000
00031000
00000000
00000000
00000000
,
00001000
00010000
00000000
00010000
10000000
00000000
00010000
00100000
,
01000000
10000000
00100000
00010000
00001000
00010000
00011000
00000000
,
00010000
00001000
00000000
00001000
00000001
00000000
00001000
00000100
,
00000010
00000001
00000100
00001000
00010000
00001000
00011000
00000000
,
00001000
00010000
00000000
10000000
00010000
00000000
00001000
00010000
,
00100000
10000000
01000000
00010000
00100000
00010000
00011000
00000000
,
00010000
00001000
00000000
00000001
00001000
00000000
00010000
00001000
,
00000010
00000001
00000100
00001000
00000010
00001000
00010000
00001000
,
00012000
00010000
00000000
00000000
00000000
00100000
00100000
00000010
,
00000010
00100000
00000000
00000000
00000000
01000000
01000000
00000100
,
00000100
01000000
00000000
00100000
00100000
00000010
00000010
00000001
,
00000000
00000000
00000010
00000010
00100000
00100000
00013000
00011000
;

//---------------dance-single - ----------------
#NOTES:
     dance-single:
     :
     Beginner:
     1:
     0.063769,0.095654,0.000000,0.000000,0.000000,56.000000,56.000000,0.000000,0.000000,0.000000,0.000000,0.063769,0.095654,0.000000,0.000000,0.000000,56.000000,56.000000,0.000000,0.000000,0.000000,0.000000:
0000
0000
0000
0000
,
0000
0000
0000
0000
,
0000
0000
0000
0000
,
0000
0000
0000
0000
,
0000
0000
0000
0000
,
1000
0000
0000
0000
,
0001
0000
0000
0000
,
1000
0000
0000
0000
,
0001
0000
0000
0000
,
1000
0000
0000
0000
,
1000
0000
0000
0000
,
0001
0000
0000
0000
,
0001
0000
0000
0000
,
1000
0000
0000
0000
,
1000
0000
0000
0000
,
0001
0000
0000
0000
,
0001
0000
0000
0000
,
0100
0000
0000
0000
,
0100
0000
0000
0000
,
0010
0000
0000
0000
,
0010
0000
0000
0000
,
0100
0000
0000
0000
,
0010
0000
0000
0000
,
0100
0000
0000
0000
,
0010
0000
0000
0000
,
1000
0000
0000
0000
,
0000
0000
0000
0000
,
0100
0000
0000
0000
,
0000
0000
0000
0000
,
0010
0000
0000
0000
,
0000
0000
0000
0000
,
0001
0000
0000
0000
,
0000
0000
0000
0000
,
1000
0000
0000
0000
,
1000
0000
0000
0000
,
1000
0000
0000
0000
,
1000
0000
0000
0000
,
0001
0000
0000
0000
,
0001
0000
0000
0000
,
0001
0000
0000
0000
,
0001
0000
0000
0000
,
0100
0000
0000
0000
,
0100
0000
0000
0000
,
0010
0000
0000
0000
,
0010
0000
0000
0000
,
0100
0000
0000
0000
,
0010
0000
0000
0000
,
0100
0000
0000
0000
,
0010
0000
0000
0000
,
1000
0000
1000
0000
,
1000
0000
0000
0000
,
0001
0000
0001
0000
,
0001
0000
0000
0000
,
0010
0000
0010
0000
,
0010
0000
0000
0000
,
0100
0000
0100
0000
,
0100
0000
0000
0000
,
1000
0000
0000
0000
,
0010
0000
0000
0000
,
0001
0000
0000
0000
,
0100
0000
0000
0000
;

//---------------dance-single - ----------------
#NOTES:
     dance-single:
     :
     Easy:
     4:
     0.129816,0.169487,0.015942,0.031885,0.000000,114.000000,112.000000,2.000000,4.000000,0.000000,0.000000,0.129816,0.169487,0.015942,0.031885,0.000000,114.000000,112.000000,2.000000,4.000000,0.000000,0.000000:
0000
0000
0000
0000
,
0000
0000
0000
0000
,
0000
0000
0000
0000
,
0000
0000
0000
0000
,
0000
0000
0000
0000
,
1000
0000
1000
0000
,
0001
0000
0001
0000
,
1000
0000
0001
0000
,
1000
0000
0001
0000
,
0100
0000
0100
0000
,
0010
0000
0010
0000
,
0100
0000
0010
0000
,
0100
0000
0010
0000
,
1000
0000
0001
0000
,
0100
0000
0010
0000
,
1000
0000
0001
0000
,
0100
0000
0010
0010
,
0010
0000
1000
0000
,
0100
0000
1000
0000
,
0010
0000
0001
0000
,
0100
0000
0001
0000
,
0010
0000
1000
0000
,
0100
0000
0001
0000
,
0010
0000
0001
0000
,
0100
0000
1000
1000
,
0020
0000
0000
0000
,
0030
0000
0000
0000
,
0200
0000
0000
0000
,
0300
0000
0000
0000
,
0002
0000
0000
0000
,
0003
0000
0000
0000
,
2000
0000
0000
0000
,
3000
0000
0000
0000
,
0001
0000
0001
0000
,
0001
0000
0001
0000
,
0001
0000
0001
0000
,
0001
0000
0001
0001
,
1000
0000
1000
0000
,
1000
0000
1000
0000
,
1000
0000
1000
0000
,
1000
0000
1000
1000
,
0010
0000
0100
0000
,
0010
0000
0100
0100
,
0010
0000
0100
0000
,
0010
0000
0100
0100
,
0010
0000
0100
0000
,
0010
0000
0100
0100
,
0010
0000
0100
0000
,
0010
0000
0110
0000
,
1000
0000
0010
0000
,
0001
0000
0100
0100
,
1000
0000
0010
0000
,
0001
0000
0100
0100
,
1000
0000
0100
0000
,
0001
0000
0010
0010
,
1000
0000
0100
0000
,
0001
0000
0010
0010
,
1000
0000
0001
0000
,
1000
0000
0001
0000
,
0010
0000
0100
0000
,
0010
0000
0100
0110
;

//---------------dance-double - ----------------
#NOTES:
     dance-double:
     :
     Easy:
     3:
     0.124123,0.169487,0.023914,0.031885,0.000000,109.000000,106.000000,3.000000,4.000000,0.000000,0.000000,0.124123,0.169487,0.023914,0.031885,0.000000,109.000000,106.000000,3.000000,4.000000,0.000000,0.000000:
00000000
00000000
00000000
00000000
,
00000000
00000000
00000000
00000000
,
00000000
00000000
00000000
00000000
,
00000000
00000000
00000000
00000000
,
00000000
00000000
00000000
00000000
,
00001000
00000000
00001000
00000000
,
01000000
00000000
01000000
00000000
,
00001000
00000000
00010000
00000000
,
00001000
00000000
00010000
00000000
,
00000010
00000000
00000010
00000000
,
00010000
00000000
00010000
00000000
,
00000010
00000000
00010000
00000000
,
00000010
00000000
00010000
00000000
,
00001000
00000000
00100000
00000000
,
00010000
00000000
01000000
00000000
,
00001000
00000000
00010000
00000000
,
00000100
00000000
00001000
00000000
,
00000010
00000000
00000100
00000000
,
00000001
00000000
00001000
00000000
,
00000100
00000000
00010000
00000000
,
00001000
00000000
00100000
00000000
,
00010000
00000000
01000000
00000000
,
00100000
00000000
10000000
00000000
,
00010000
00000000
00100000
00000000
,
01000000
00000000
00010000
00001000
,
00020000
00000000
00000000
00000000
,
00031000
00000000
00000000
00000000
,
00002000
00000000
00000000
00000000
,
00013000
00000000
00000000
00000000
,
00020000
00000000
00000000
00000000
,
00031000
00000000
00000000
00000000
,
00002000
00000000
00000000
00000000
,
00013000
00000000
00000000
00000000
,
00010000
00000000
00001000
00000000
,
00000100
00000000
00000010
00000000
,
00001000
00000000
00000100
00000000
,
00010000
00000000
00001000
00000000
,
00001000
00000000
00010000
00000000
,
00100000
00000000
01000000
00000000
,
00010000
00000000
00100000
00000000
,
00001000
00000000
00010000
00000000
,
00010000
00000000
00001000
00000000
,
00000100
00000000
00000001
00000000
,
00000010
00000000
00001000
00000000
,
00010000
00000000
00100000
00000000
,
10000000
00000000
01000000
00000000
,
00010000
00000000
00001000
00000000
,
00000010
00000000
00000001
00000000
,
00000100
00000000
00000110
00000000
,
00000001
00000000
00000010
00000000
,
00000100
00000000
00001000
00000000
,
00010000
00000000
00100000
00000000
,
01000000
00000000
10000000
00000000
,
00100000
00000000
01000000
00000000
,
00010000
00000000
00001000
00000000
,
00000010
00000000
00000100
00000000
,
00000001
00000000
00000010
00000000
,
00001000
00000000
00010000
00000000
,
01000000
00000000
00010000
00000000
,
00001000
00000000
00000100
00000000
,
00001000
00000000
00011000
00011000
;

//---------------dance-single - ----------------
#NOTES:
     dance-single:
     :
     Medium:
     9:
     0.365535,0.364681,0.175366,0.127539,0.000000,321.000000,299.000000,22.000000,16.000000,0.000000,0.000000,0.365535,0.364681,0.175366,0.127539,0.000000,321.000000,299.000000,22.000000,16.000000,0.000000,0.000000:
0000
0000
0000
0000
,
1000
0000
0001
0010
0000
0010
0001
0000
,
1000
0000
0001
0100
0000
0100
0001
0000
,
1000
0000
0010
0100
0000
0100
0010
0000
,
1000
0001
0100
0110
,
0001
0001
0001
0011
,
1000
1000
1000
1100
,
0001
0001
0001
0101
,
1000
1000
1000
1010
,
0001
0000
1000
0100
0000
0100
1000
0000
,
0001
0000
1000
0010
0000
0010
1000
0000
,
0001
0000
0100
0010
0000
0010
0100
0000
,
0001
1000
0010
0110
,
1000
0000
0010
0100
0000
0100
0001
0000
,
1000
0000
0100
0010
0000
0010
0001
0000
,
1000
0000
0010
0100
0000
0100
0001
0000
,
0010
0100
1000
1001
,
0001
0100
0010
0000
0100
0001
0010
0000
,
0001
0010
0100
1000
0010
0000
0110
0000
,
1000
0010
0100
0000
0010
1000
0100
0000
,
1000
0100
0010
0001
1000
0000
1001
0000
,
0001
0100
1000
0000
1000
0100
0001
0000
,
0010
0100
1000
0010
0100
0000
0101
0000
,
1000
0010
0001
0000
0001
0010
1000
0000
,
0100
0010
0001
0100
0010
0000
1010
0000
,
0001
0010
0001
0010
,
1000
0100
1000
0100
,
0001
0010
1000
0100
,
0001
0010
1000
0100
,
0001
0100
1000
0010
,
0001
0100
1000
0010
,
0110
0000
0000
1001
0000
0000
0220
0000
,
0000
0000
0000
0330
0000
0100
0001
1000
,
0010
0000
0100
0010
0000
0100
0001
1000
,
0010
0000
0100
0010
0000
0100
0001
1000
,
0100
0000
0010
0100
0000
0010
0001
1000
,
0010
0000
0100
0010
0100
0000
0101
0000
,
1010
0000
1000
0001
0000
0010
0001
1000
,
0100
0000
1000
0001
0000
0100
0001
1000
,
0010
0000
1000
0001
0000
0010
0001
1000
,
0100
0000
1000
0001
1000
0000
1100
0000
,
0011
0000
0001
0100
0000
0010
1000
0001
,
0010
0000
0100
1000
0000
0010
0100
0001
,
1000
0000
0100
0010
0000
0001
0100
0010
,
1000
0000
0001
0010
0100
0000
1100
0000
,
0011
0000
0001
0100
0000
0010
1000
0100
,
0010
0000
0001
0010
0000
0100
1000
0010
,
0100
0000
0001
1000
0000
0100
0010
0001
,
1000
0000
0010
0100
0110
0000
0000
0000
,
0002
0010
1000
0103
,
2000
0010
0001
3100
,
0020
0100
0001
1030
,
0200
0010
1000
0301
,
0002
0013
0200
1300
,
0020
0130
0002
1003
,
0200
0310
0002
0103
,
0020
1030
0200
0310
,
1001
0000
0001
0100
0000
1000
0100
0001
,
0010
0000
0001
0010
0000
1000
0010
0001
,
0100
0000
1000
0100
0000
0001
0010
0100
,
1000
0000
0010
0100
0001
1000
0020
0200
,
0330
0000
0000
0000
;

//---------------dance-double - ----------------
#NOTES:
     dance-double:
     :
     Medium:
     8:
     0.350732,0.339672,0.183337,0.263049,0.000000,308.000000,285.000000,23.000000,33.000000,0.000000,0.000000,0.350732,0.339672,0.183337,0.263049,0.000000,308.000000,285.000000,23.000000,33.000000,0.000000,0.000000:
00000000
00000000
00000000
00000000
,
00001000
00000000
00100000
00010000
00000000
01000000
00001000
00000000
,
00010000
00000000
00000100
00001000
00000000
00000010
00010000
00000000
,
00001000
00000000
01000000
00010000
00000000
00100000
00001000
00000000
,
00010000
00000100
00001000
00001001
,
00000010
00000010
00000010
00000110
,
00001000
00001000
00001000
00011000
,
00100000
00100000
00100000
01100000
,
10000000
10000000
10000000
10010000
,
00010000
00000000
01000000
00001000
00000000
00010000
00000100
00000000
,
00001000
00000000
00000010
00010000
00000000
00001000
00100000
00000000
,
00010000
00000000
01000000
00001000
00000000
00010000
00000100
00000000
,
00001000
00000010
00000100
00000110
,
00000010
00000000
00010000
00001000
00000000
00100000
00010000
00000000
,
01000000
00000000
00001000
00010000
00000000
00000100
00001000
00000000
,
00000010
00000000
00010000
00001000
00000000
01000000
00010000
00000000
,
00100000
00001000
00010000
00011000
,
00001000
00000000
00000100
00000000
00000001
00000010
00001000
00000000
,
00010000
01000000
00100000
01100000
,
00010000
00000000
00100000
00000000
10000000
01000000
00010000
00000000
,
00001000
00000010
00000100
00000110
,
00000001
00000100
00001000
00000000
00000100
00001000
00010000
00000000
,
00001000
00010000
00100000
00000000
10000000
00000000
11000000
00000000
,
10000000
01000000
00010000
00000000
01000000
00010000
00001000
00000000
,
00010000
00001000
00000010
00000000
00000001
00000000
00000101
00000000
,
00001000
00001000
00001000
00001000
,
00000010
00000010
00000010
00000010
,
00010000
00010000
00010000
00010000
,
00100000
00100000
00100000
00100000
,
00001000
00001000
00000100
00000100
,
00010000
00010000
01000000
01000000
,
01100000
00000000
00000000
00011000
00000000
00000000
00000220
00000000
,
00000000
00000000
00000000
00000330
00000000
00000010
00001000
00000001
,
00000100
00000000
00000010
00001000
00000000
00000100
00010000
00001000
,
00100000
00000000
00010000
01000000
00000000
00100000
10000000
00010000
,
01000000
00000000
00100000
10000000
00000000
01000000
00100000
00010000
,
01000000
00001000
00010000
00011000
,
00101000
00000000
00100000
00010000
00000000
01000000
00001000
00010000
,
00000100
00000000
00001000
00000010
00000000
00000100
00000001
00001000
,
00000100
00000000
00000010
00000001
00000000
00001000
00000100
00010000
,
00001000
00100000
00010000
01010000
,
10100000
00000000
10000000
00010000
00000000
01000000
00001000
00010000
,
00000100
00000000
00001000
00000100
00000000
00000010
00000001
00000100
,
00000010
00000000
00001000
00000010
00000000
00000100
00000001
00000010
,
00000100
00010000
00001000
01001000
,
00010100
00000000
00000100
00001000
00000000
00000010
00000100
00000001
,
00001000
00000000
00000010
00010000
00000000
00001000
00010000
00100000
,
01000000
00000000
00100000
10000000
00000000
01000000
00100000
00010000
,
01000000
00000000
00001000
00010000
00011000
00000000
00000000
00000000
,
00002000
00203000
00320000
02030000
,
03200000
20300000
32000000
03200000
,
00320000
02030000
03002000
00023000
,
00030200
00002300
00003002
00000023
,
00000230
00020300
00032000
00203000
,
02300000
23000000
30200000
00320000
,
00032000
00003200
00000302
00000023
,
00000230
00002300
00003020
00010030
,
00011000
00000000
00001000
00100000
00000000
01000000
10000000
00000000
,
00100000
00000000
00010000
00001000
00000000
00000100
00000001
00000000
,
00000010
00000000
00000100
00010000
00000000
00001000
01000000
00000000
,
00100000
00000000
10000000
00010000
01000000
00001000
00010000
00011000
;
