#TITLE:Love Love Love;
#SUBTITLE:;
#ARTIST:EPIK HIGH;
#TITLETRANSLIT:;
#SUBTITLETRANSLIT:;
#ARTISTTRANSLIT:;
#GENRE:K-POP;
#CREDIT:;
#BANNER:Love Love Love.png;
#BACKGROUND:Love Love Love-bg.png;
#LYRICSPATH:;
#CDTITLE:;
#MUSIC:Love Love Love.mp3;
#OFFSET:-0.803000;
#SAMPLESTART:21.424999;
#SAMPLELENGTH:13.000000;
#SELECTABLE:YES;
#BPMS:0.000000=128.000000
;
#STOPS:
;
#BGCHANGES:-2.000=Love Love Love.avi=1.000=0=0=0=StretchNoLoop====,
99999=-nosongbg-=1.000=0=0=0 // don't automatically add -songbackground-
;
#KEYSOUNDS:;
#ATTACKS:;

//---------------dance-single - ----------------
#NOTES:
     dance-single:
     :
     Beginner:
     3:
     0.103791,0.153092,0.008649,0.000000,0.000000,84.000000,83.000000,1.000000,0.000000,0.000000,0.000000,0.103791,0.153092,0.008649,0.000000,0.000000,84.000000,83.000000,1.000000,0.000000,0.000000,0.000000:
0000
0000
0000
0000
,
0000
0000
0000
0000
,
0000
0000
0000
0000
,
0000
0000
0000
0000
,
0000
0000
0000
0000
,
0001
0000
0000
0000
,
1000
0000
0000
0000
,
0001
0000
0000
0000
,
1000
0000
0000
0000
,
1001
0000
0000
0000
,
0000
0000
0000
0000
,
0001
0000
0001
0000
,
0001
0000
0000
0000
,
1000
0000
1000
0000
,
1000
0000
0000
0000
,
0010
0000
0010
0000
,
0010
0000
0000
0000
,
0100
0000
0100
0000
,
0100
0000
0000
0000
,
0010
0000
0000
0000
,
1000
0000
0000
0000
,
0001
0000
0000
0000
,
0100
0000
0000
0000
,
0010
0000
0000
0000
,
1000
0000
0000
0000
,
0001
0000
0000
0000
,
0100
0000
0000
0000
,
0010
0000
0010
0000
,
1000
0000
1000
0000
,
0100
0000
0100
0000
,
0010
0000
0010
0000
,
0001
0000
0001
0000
,
0100
0000
0100
0000
,
0010
0000
0100
0000
,
0010
0000
0000
0000
,
1000
0000
1000
0000
,
0001
0000
0001
0000
,
0100
0000
0100
0000
,
0010
0000
0010
0000
,
1000
0000
1000
0000
,
0100
0000
0100
0000
,
0010
0000
0010
0000
,
0001
0001
0001
0000
,
1000
0000
0000
0000
,
0010
0000
0000
0000
,
0100
0000
0000
0000
,
0001
0000
0000
0000
,
0010
0000
0000
0000
,
0100
0000
0000
0000
,
1000
0000
0000
0000
,
0010
0000
0100
0000
,
0010
0000
0000
0000
,
0010
0000
1000
0000
,
0010
0000
0100
0000
,
0001
0000
0100
0000
,
0010
0000
1000
0000
,
0100
0000
0010
0000
,
0001
0000
0100
0000
,
0010
0000
0100
0100
,
0100
0000
0000
0000
;

//---------------dance-single - ----------------
#NOTES:
     dance-single:
     :
     Easy:
     5:
     0.187812,0.229638,0.086492,0.051895,0.000000,152.000000,142.000000,10.000000,6.000000,0.000000,0.000000,0.187812,0.229638,0.086492,0.051895,0.000000,152.000000,142.000000,10.000000,6.000000,0.000000,0.000000:
0000
0000
0000
0000
,
0000
0000
0000
0000
,
0000
0000
0000
0000
,
0000
0000
0000
0000
,
0000
0000
0000
0000
,
1000
0000
0000
0000
,
0001
0000
0000
0000
,
1000
0000
0000
0000
,
0001
0000
0000
0000
,
1001
0000
0000
0000
,
1001
0000
0200
0300
,
0010
0100
0010
0000
,
1000
0000
0001
0000
,
0100
0010
0100
0000
,
0010
0010
0110
0000
,
1000
0001
1000
0000
,
0010
0000
0100
0000
,
0001
1000
0001
0000
,
1000
1000
1001
0000
,
0010
0000
1000
0000
,
0001
0000
0100
0000
,
0010
0000
1000
0000
,
0001
0000
0100
0000
,
0001
0000
1000
0000
,
0010
0000
0100
0000
,
0001
0000
1000
0000
,
0020
0030
0100
0100
,
0001
0010
0001
0000
,
1000
0100
1000
0000
,
0001
0010
0001
0000
,
1000
0001
1000
0000
,
0010
1000
0010
0000
,
0100
0001
0100
0000
,
0010
1000
0010
0000
,
0110
0000
0100
0100
,
0001
0010
0100
0000
,
0100
1000
0010
0000
,
0100
0001
0010
0000
,
0010
0100
2000
3001
,
0000
0001
0100
0010
,
0000
1000
0010
0100
,
0000
0001
1000
0010
,
0100
0010
0110
0000
,
1000
0010
1000
0000
,
0001
0000
1000
0000
,
0001
0100
0001
0000
,
1000
0001
1001
0000
,
0010
0001
0010
0000
,
0100
0000
0010
0000
,
0100
1000
0100
0000
,
0010
0100
0110
0000
,
2002
0000
3003
0000
,
0001
1000
0100
0000
,
1000
0001
0010
0000
,
0001
1000
0010
0100
,
0010
1000
0100
0000
,
0010
0001
0100
0000
,
0010
1000
0001
0100
,
0020
0030
1000
0001
,
1001
0000
0000
0000
;

//---------------dance-single - ----------------
#NOTES:
     dance-single:
     :
     Medium:
     9:
     0.320022,0.389216,0.138388,0.294074,0.000000,259.000000,243.000000,16.000000,34.000000,0.000000,0.000000,0.320022,0.389216,0.138388,0.294074,0.000000,259.000000,243.000000,16.000000,34.000000,0.000000,0.000000:
0000
0000
0000
0000
,
0000
0000
0000
0000
,
0000
0000
0000
0000
,
0000
0000
0000
0000
,
0000
0000
0000
0000
0000
0000
0010
0100
,
0020
0000
0000
2030
0000
0000
0000
0000
,
3010
0000
0100
0000
0010
0010
0000
0000
,
0200
0000
0000
0302
0000
0000
0000
0000
,
0103
0010
0220
0330
,
1001
0000
0000
0000
,
1001
0000
0000
0010
0200
0000
0320
0000
,
0130
0001
0010
0001
,
1000
0100
1000
0010
,
0100
0000
0001
1000
0001
0000
1001
0000
,
2000
3002
2003
3000
,
0010
1000
0100
1000
,
0001
0010
0001
0100
,
0010
0000
1000
0001
1000
0000
1001
0000
,
0002
2003
3002
0003
,
0100
0010
0000
0010
0100
0000
0101
0000
,
0001
0010
0001
0000
1000
0000
0100
0000
,
1000
0010
1000
0000
0001
0000
0100
0000
,
0001
1000
0001
0000
0100
0000
0000
0000
,
0010
1000
0010
0000
0100
0000
0010
0000
,
0100
0001
0100
0000
0010
0000
0100
0000
,
0010
1000
0100
0000
0010
0001
0100
0000
,
0110
0000
0020
2030
,
3100
0010
0001
0000
0010
0000
0100
0000
,
0010
0100
1000
0000
0100
0000
0010
0000
,
0001
0100
0010
0000
1000
0000
0010
0000
,
1000
0010
0100
0000
0001
0000
0000
0000
,
0010
0100
1000
0000
0010
0000
0100
0000
,
0001
0010
0100
0000
1000
0000
0001
0000
,
0100
0010
1000
0000
0010
0100
0001
0000
,
2002
3003
1010
0101
,
0001
0010
0001
0100
0001
0000
1000
0000
,
0010
0100
0010
1000
0010
0000
0100
0000
,
0001
1000
0001
0010
0001
0000
1000
0000
,
0020
0230
0302
2003
,
3000
0000
0100
0010
0100
1000
0100
0000
,
0010
0000
0001
0100
0001
0010
0001
0000
,
1000
0000
0010
0100
0010
1000
0010
0000
,
0100
0000
0010
2002
0000
0000
3003
0000
,
1000
0010
0001
0010
,
0100
1000
0100
0001
,
0010
0000
0100
1000
0100
0000
0110
0000
,
0020
0032
0203
0300
,
0001
0010
1000
0010
,
0100
0001
0100
1000
,
0010
0000
0100
0001
0100
0000
0110
0000
,
0020
0230
2300
3001
,
2002
0000
0000
3003
,
0110
0000
0010
1000
0001
0000
0100
0001
,
1000
0000
0100
0010
0000
0010
0100
1000
,
0000
1000
0010
0100
0001
0010
0100
0000
,
1000
0010
0001
0010
,
1000
0000
0100
0001
0000
0100
1000
0100
,
0000
0010
0001
0010
0000
1000
0100
0010
,
0001
0000
1000
0010
0100
0001
1000
0000
,
2002
0000
0000
0000
,
3003
0000
0000
0000
;

//---------------dance-single - ----------------
#NOTES:
     dance-single:
     :
     Hard:
     12:
     0.496714,0.544903,0.423813,0.328671,0.129739,402.000000,353.000000,49.000000,38.000000,0.000000,0.000000,0.496714,0.544903,0.423813,0.328671,0.129739,402.000000,353.000000,49.000000,38.000000,0.000000,0.000000:
0000
0000
0000
0000
,
0000
0000
0000
0000
,
0000
0000
0000
0000
,
0000
0000
0000
0000
,
0000
0000
0000
0000
0000
0000
0010
0100
,
0020
0000
0000
1000
0000
0000
0030
0000
,
1010
0000
0101
0000
0100
0020
0000
0000
,
0230
0000
0000
0001
0000
0000
0300
0000
,
0101
1010
2002
3003
,
0011
0000
0000
1100
0000
0000
1010
0000
,
0101
0000
0000
0110
0110
0000
1001
0000
,
1020
0000
0230
0000
0302
0000
0013
0001
,
1001
0000
1000
0010
0000
0010
0100
0001
,
0100
0010
1000
1000
1000
0100
0010
0001
,
0101
0000
0000
0000
1100
0000
0000
0000
1001
0000
0000
0000
0001
0100
0001
0000
,
0021
0000
0230
0000
2300
0000
3100
1000
,
1001
0000
0001
0010
0000
0010
0100
1000
,
0100
0010
0001
0001
0001
0100
0010
1000
,
1100
0000
0101
0000
1001
0000
0010
0010
,
0200
0000
0001
0000
0300
0000
0010
0100
0010
0000
1000
0000
1100
0000
0100
0000
,
0010
0001
0010
0000
0100
0000
0010
0000
0001
0000
0100
0000
0010
0000
0000
0000
,
0100
0001
0100
0000
0010
0000
1000
0000
0100
1000
0100
0000
0010
0000
0000
0000
,
0001
0010
0001
0000
1000
0000
0200
0000
1000
0000
0300
0000
0010
0000
0100
0000
,
1000
0010
1000
0000
0010
0000
0100
0000
0001
0010
0001
0000
0010
0000
0000
0000
,
0100
0010
0100
0000
1000
0000
0010
0000
0100
0010
0100
0000
0001
0000
0000
0000
,
1000
0010
1000
0000
0100
0000
0000
0000
0010
0001
0010
0000
0100
0000
1000
0000
,
2002
0000
3003
0000
,
1001
0000
0001
0000
0100
0000
0010
1000
0100
0000
0100
0000
1000
0000
0000
0000
,
0100
0010
0001
0000
0010
0000
0100
0000
0010
0001
0100
0000
0010
0000
0000
0000
,
0100
0001
0010
0000
0010
0000
0100
0000
1000
0010
0100
0000
0010
0000
0000
0000
,
1000
0001
0010
0000
0001
0000
0010
0000
0100
1000
0010
0000
0100
0000
0000
0000
,
0001
1000
0010
0000
0100
0000
0010
0000
1000
0100
0010
0000
0100
0000
0000
0000
,
0010
0001
0100
0000
0010
0000
1000
0000
0001
0010
0100
0000
1000
0000
0010
0100
,
0001
0000
2000
0000
0010
0000
3000
0000
0100
1000
0001
0000
0010
0000
0100
0000
,
0220
0030
0010
0310
,
0110
0010
0001
0100
0010
1000
0100
0000
,
0110
0100
1000
0010
0100
0001
0010
0000
,
0110
0010
0001
1000
0100
0010
0001
1000
,
0020
0100
0230
0001
0302
1000
1003
0000
,
1010
0010
0100
0001
0010
0100
1000
0000
,
0101
0100
0010
1000
0100
0010
0001
0000
,
1001
1000
0010
0001
0010
1000
0100
0010
,
0011
0000
0000
1100
0000
0000
2002
0000
0000
0000
0000
0000
3003
0000
0000
0000
,
0201
0000
2300
0000
3200
0000
0301
0010
,
0110
0000
1000
0100
0000
0001
0100
1000
,
0010
0100
0001
0001
0001
1000
0100
0010
,
0011
0000
0000
0000
0101
0000
0000
0000
1100
0000
0000
0000
0001
1000
0010
0000
,
1020
0000
0032
0000
0023
0000
1030
0100
,
0110
0000
0001
0100
0000
1000
0100
0001
,
0010
0100
1000
1000
1000
0010
0100
0001
,
0011
0000
0000
0000
1010
0000
0000
0000
1100
0000
0000
0000
0100
0010
0100
0010
,
0200
0000
0000
0000
0000
0000
0300
0010
,
0011
0001
0100
1000
0100
0001
0010
1000
,
0010
0001
0200
0010
0300
0010
2000
0100
,
3000
0000
0100
0000
0010
0000
0001
0000
1000
0000
0010
0000
0100
0010
1000
0000
,
1100
0100
0010
0001
1000
0010
0100
0001
,
0020
0000
0130
2000
0000
3010
0100
0101
,
0000
1000
0020
0001
0000
0130
0002
0010
,
0000
0000
0103
0010
1000
0100
0010
0001
,
2002
0000
0000
0000
,
3003
0000
0000
0000
;

//---------------dance-double - ----------------
#NOTES:
     dance-double:
     :
     Hard:
     11:
     0.459646,0.493007,0.415164,0.345970,0.021623,372.000000,324.000000,48.000000,40.000000,0.000000,0.000000,0.459646,0.493007,0.415164,0.345970,0.021623,372.000000,324.000000,48.000000,40.000000,0.000000,0.000000:
00000000
00000000
00000000
00000000
,
00000000
00000000
00000000
00000000
,
00000000
00000000
00000000
00000000
,
00000000
00000000
00000000
00000000
,
00000000
00000000
00000000
00000000
00000000
00000000
00001000
00010000
,
00000200
00000000
00000000
00000010
00000000
00000000
00000300
00000000
,
00001100
00000000
00010100
00000000
00010000
00002000
00000000
00000000
,
00203000
00000000
00000000
01000000
00000000
00000000
00300000
00000000
,
00110000
00101000
00022000
00033000
,
00010010
00000000
00000000
01001000
00000000
00000000
00010100
00000000
,
00101000
00000000
00000000
00001000
00010000
00000000
00011000
00000000
,
00201000
00000000
02300000
00000000
23000000
00000000
30100000
00010000
,
00011000
00000000
00001000
00100000
00000000
01000000
00100000
00010000
,
01000000
00100000
00020000
00000000
00031000
00000010
00000100
00000010
,
00000011
00000000
00000000
00000000
00001100
00000000
00000000
00000000
00011000
00000000
00000000
00000000
00010000
00001000
00010000
00000000
,
00010020
00000000
00000230
00000000
00000302
00000000
00000013
00001000
,
00011000
00000000
00010000
00000010
00000000
00000100
00000010
00001000
,
00000100
00000010
00002000
00000000
00013000
00100000
01000000
00100000
,
10100000
00000000
01010000
00000000
00011000
00000000
00001000
00010000
,
00000200
00001000
00000300
00000010
00000010
00000001
00000101
00001000
,
00000100
00000010
00001000
00010000
01000000
00100000
00010000
00000000
,
10000000
10000000
00100000
00010000
00001000
00001000
00000010
00000000
,
00000001
00000001
00000100
00002000
00010000
00003000
01000000
00010000
,
00100000
00100000
01000000
10000000
00100000
00100000
00010000
00000000
,
00001000
00001000
00100000
01000000
00010000
00010000
00001000
00000000
,
00000010
00000010
00000001
00000000
00000100
00000100
00001000
00010000
,
00022000
00000000
00033000
00000000
,
00011000
00010000
00001000
00100000
01000000
10000000
00100000
00000000
,
00010000
00001000
00000010
00010000
00100000
01000000
00010000
00000000
,
00001000
00000100
00000001
00001000
00000100
00000010
00001000
00000000
,
00010000
00100000
00001000
00000010
00000100
00000001
00001001
00000000
,
00001000
00000010
00010000
00100000
10000000
01000000
00100000
00000000
,
00010000
01000000
00001000
00000100
00000001
00000010
00000100
00000010
,
00001000
00020000
00100000
00030000
00001000
00010000
01000000
10000000
,
20020000
30000000
00230000
00301000
,
00011000
00010000
00001000
00000100
00000001
00000010
00001000
00000000
,
00011000
00001000
00010000
01000000
10000000
00100000
00010000
00000000
,
00011000
00010000
00001000
00000010
00001000
00010000
00100000
00010000
,
00001000
00000010
00000001
00000100
00001000
00010000
00100000
00000000
,
10100000
10000000
01000000
00010000
00001000
00000010
00000001
00000000
,
00000101
00000001
00000100
00001000
00010000
00100000
10000000
00000000
,
11000000
01000000
00010000
00001000
00000010
00000001
00000100
00001000
,
00011000
00000000
00000000
00010010
00000000
00000000
00202000
00000000
00000000
00000000
00000000
00000000
00303000
00000000
00000000
00000000
,
00021000
00000000
02030000
00000000
23000000
00000000
30100000
01000000
,
01010000
00000000
00010000
00100000
00000000
01000000
00010000
00001000
,
00100000
01000000
00020000
00000000
00031000
00000100
00000001
00000010
,
00000110
00000000
00000000
00000000
00010100
00000000
00000000
00000000
00010010
00000000
00000000
00000000
00010000
00001000
00010000
00000000
,
00012000
00000000
00003200
00000000
00000302
00000000
00000013
00000100
,
00001100
00000000
00001000
00000010
00000000
00000100
00001000
00010000
,
00000010
00000100
00002000
00000000
00013000
01000000
10000000
00100000
,
01100000
00000000
00000000
00000000
01001000
00000000
00000000
00000000
00101000
00000000
00000000
00000000
00001000
00010000
00001000
00010000
,
00002000
00000000
00000000
00000000
00000000
00000000
00003000
00010000
,
00010100
00000100
00001000
00000100
00000010
00000001
00000010
00000100
,
00001000
00000010
00020000
00001000
00030000
00100000
00020000
00001000
,
00030000
00000010
00001000
00000100
00000010
00000001
00000100
00001000
,
00011000
00010000
00100000
10000000
01000000
00100000
00010000
01000000
,
00002000
00000000
00013000
00020000
00000000
00030100
00001000
00001001
,
00000000
00000001
00000020
00001000
00000030
00000001
00000200
00001000
,
00000000
00000300
00000010
00001000
00010000
01000000
00100000
10000000
,
20020000
00000000
00000000
00000000
,
30030000
00000000
00000000
00000000
;

//---------------dance-double - ----------------
#NOTES:
     dance-double:
     :
     Easy:
     5:
     0.174221,0.229638,0.060545,0.051895,0.000000,141.000000,134.000000,7.000000,6.000000,0.000000,0.000000,0.174221,0.229638,0.060545,0.051895,0.000000,141.000000,134.000000,7.000000,6.000000,0.000000,0.000000:
00000000
00000000
00000000
00000000
,
00000000
00000000
00000000
00000000
,
00000000
00000000
00000000
00000000
,
00000000
00000000
00000000
00000000
,
00000000
00000000
00000000
00000000
,
00001000
00000000
00000000
00000000
,
00010000
00000000
00000000
00000000
,
00001000
00000000
00000000
00000000
,
00010000
00000000
00000000
00000000
,
00011000
00000000
00000000
00000000
,
00011000
00000000
00020000
00030000
,
00000100
00001000
00000100
00000000
,
00010000
00000000
00001000
00000000
,
00100000
00010000
00100000
00000000
,
00001000
00010000
00001000
00000000
,
01000000
00010000
01000000
00000000
,
00001000
00000000
00010000
00000000
,
00000010
00001000
00000010
00000000
,
00010000
00001000
00010000
00000000
,
00011000
00000000
00000000
00000000
,
00001000
00000000
00010000
00000000
,
01000000
00000000
10000000
00000000
,
00100000
00000000
00010000
00000000
,
00001000
00000000
00000100
00000000
,
00000001
00000000
00000010
00000000
,
00001000
00000000
00010000
00000000
,
00002000
00003000
00100000
00100000
,
00010000
00000000
01000000
00000000
,
00001000
00000000
00000100
00000000
,
00010000
00000000
00100000
00000000
,
00001000
00000000
00000010
00000000
,
00010000
00000000
01000000
00000000
,
00001000
00000000
00000100
00000000
,
00010000
00000000
00100000
00000000
,
00002000
00003000
00000010
00000010
,
00000001
00000100
00000001
00000000
,
00001000
00000010
00001000
00000000
,
00000100
00010000
00000100
00000000
,
00010000
00001000
00010000
00011000
,
00000000
01000000
00010000
01000000
,
00000000
00100000
10000000
00100000
,
00000000
00010000
00001000
00010000
,
00001000
00010000
00011000
00000000
,
00001000
00100000
01000000
00000000
,
00010000
00000000
00001000
00000000
,
00010000
00000100
00000010
00000000
,
00001000
00010000
00001000
00000000
,
00010000
00000010
00000100
00000000
,
00001000
00000000
00010000
00000000
,
00001000
01000000
00100000
00000000
,
00010000
00001000
00010000
00000000
,
00022000
00000000
00033000
00000000
,
00001000
00000100
00000001
00000000
,
00000001
00000100
00001000
00000000
,
00010000
00100000
10000000
01000000
,
00010000
01000000
10000000
00000000
,
10000000
01000000
00010000
00000000
,
00001000
00000010
00000001
00000100
,
00002000
00003000
00010000
00001000
,
00011000
00000000
00000000
00000000
;

//---------------dance-double - ----------------
#NOTES:
     dance-double:
     :
     Medium:
     9:
     0.312609,0.363268,0.147037,0.198933,0.000000,253.000000,236.000000,17.000000,23.000000,0.000000,0.000000,0.312609,0.363268,0.147037,0.198933,0.000000,253.000000,236.000000,17.000000,23.000000,0.000000,0.000000:
// measure 0
00000000
00000000
00000000
00000000
,  // measure 1
00000000
00000000
00000000
00000000
,  // measure 2
00000000
00000000
00000000
00000000
,  // measure 3
00000000
00000000
00000000
00000000
,  // measure 4
00000000
00000000
00000000
00000000
00000000
00000000
00001000
00010000
,  // measure 5
00002000
00000000
00000000
02003000
00000000
00000000
00000000
00000000
,  // measure 6
03001000
00000000
00010000
00000000
00001000
00001000
00000000
00000000
,  // measure 7
00020000
00000000
00000000
00030020
00000000
00000000
00000000
00000000
,  // measure 8
00010030
00001000
00022000
00033000
,  // measure 9
00011000
00000000
00000000
00000000
,  // measure 10
00011000
00000000
00000000
00001000
00020000
00000000
00030200
00000000
,  // measure 11
00001300
00000010
00000100
00000001
,  // measure 12
00000100
00000010
00001000
00000100
,  // measure 13
00000010
00000000
00001000
00010000
00001000
00000000
00011000
00000000
,  // measure 14
00010000
00001000
00200000
00300000
,  // measure 15
00010000
01000000
00100000
10000000
,  // measure 16
00100000
01000000
00010000
00100000
,  // measure 17
01000000
00000000
00010000
00001000
00010000
00000000
00011000
00000000
,  // measure 18
00001000
00010000
00000200
00000300
,  // measure 19
00000010
00000001
00000000
00000001
00000100
00000000
00000110
00000000
,  // measure 20
00000010
00001000
00000100
00000000
00010000
00000000
00001000
00000000
,  // measure 21
00100000
00010000
01000000
00000000
00001000
00000000
00010000
00000000
,  // measure 22
00000100
00000010
00000001
00000000
00000100
00000000
00000000
00000000
,  // measure 23
00001000
00010000
00100000
00000000
10000000
00000000
01000000
00000000
,  // measure 24
00100000
00010000
01000000
00000000
00001000
00000000
00010000
00000000
,  // measure 25
00000100
00001000
00000010
00000000
00000100
00000001
00000010
00000000
,  // measure 26
00000110
00000000
00000200
00000320
,  // measure 27
00000031
00000100
00001000
00000000
00010000
00000000
00001000
00000000
,  // measure 28
00010000
00100000
10000000
00000000
01000000
00000000
00100000
00000000
,  // measure 29
00010000
01000000
00001000
00000000
00010000
00000000
00000100
00000000
,  // measure 30
00001000
00000010
00010000
00000000
00001000
00000000
00000000
00000000
,  // measure 31
00100000
01000000
10000000
00000000
00100000
00000000
00010000
00000000
,  // measure 32
00001000
00000100
00000001
00000000
00000010
00000000
00000100
00000000
,  // measure 33
00000010
00001000
00010000
00000000
00100000
00010000
00001000
00000000
,  // measure 34
00022000
00033000
00010010
01001000
,  // measure 35
01000000
00010000
00100000
00000000
01000000
00000000
10000000
00000000
,  // measure 36
00100000
00010000
00001000
00000000
00000100
00000000
00000001
00000000
,  // measure 37
00000010
00000100
00001000
00000000
00000010
00000000
00010000
00000000
,  // measure 38
00002000
01003000
00020000
00030100
,  // measure 39
00000000
00000000
00000100
00000010
00000001
00000000
00000100
00000000
,  // measure 40
00001000
00000000
00010000
00100000
10000000
00000000
01000000
00000000
,  // measure 41
00100000
00000000
00010000
01000000
00001000
00000000
00010000
00000000
,  // measure 42
00000100
00000000
00001000
00002002
00000000
00000000
00003003
00000000
,  // measure 43
00000001
00000100
00000010
00001000
,  // measure 44
00000010
00000100
00000001
00000010
,  // measure 45
00001000
00000000
00010000
00001000
00010000
00000000
00011000
00000000
,  // measure 46
00001000
00100000
02000000
03000000
,  // measure 47
10000000
00100000
01000000
00010000
,  // measure 48
01000000
00100000
10000000
01000000
,  // measure 49
00010000
00000000
00001000
00010000
00001000
00000000
00011000
00000000
,  // measure 50
00010000
00000100
00000010
00000001
,  // measure 51
00002002
00000000
00000000
00003003
,  // measure 52
00000110
00000000
00000010
00001000
00000100
00000000
00000010
00001000
,  // measure 53
00010000
00000000
01000000
00100000
00000000
01000000
10000000
00100000
,  // measure 54
00000000
01000000
00100000
00010000
00001000
00000000
00011000
00000000
,  // measure 55
00010000
00000100
00001000
00000001
,  // measure 56
00000010
00000000
00001000
00010000
00000000
00100000
10000000
01000000
,  // measure 57
00000000
00100000
00010000
01000000
00000000
00100000
00010000
00001000
,  // measure 58
00000010
00000000
00000001
00000100
00001000
00010000
00001000
00000000
,  // measure 59
00022000
00000000
00000000
00000000
,  // measure 60
00033000
00000000
00000000
00000000
;
