#TITLE:Love Lee;
#SUBTITLE:;
#ARTIST:AKMU;
#TITLETRANSLIT:;
#SUBTITLETRANSLIT:;
#ARTISTTRANSLIT:;
#GENRE:XROSS;
#CREDIT:MUINELIM;
#BANNER:Love Lee.png;
#BACKGROUND:Love Lee-bg.png;
#LYRICSPATH:;
#CDTITLE:;
#MUSIC:Love Lee.mp3;
#OFFSET:-0.072000;
#SAMPLESTART:47.771999;
#SAMPLELENGTH:10.000000;
#SELECTABLE:YES;
#DISPLAYBPM:100.000000;
#BPMS:0.000000=100.000000
;
#STOPS:
;
#BGCHANGES:0.000=Love Lee.avi=1.000=0=0=0=StretchNoLoop====,
99999=-nosongbg-=1.000=0=0=0 // don't automatically add -songbackground-
;
#KEYSOUNDS:;
#ATTACKS:;

//---------------dance-single - ----------------
#NOTES:
     dance-single:
     :
     Beginner:
     1:
     0.069287,0.102849,0.008661,0.000000,0.000000,56.000000,55.000000,1.000000,0.000000,0.000000,0.000000,0.069287,0.102849,0.008661,0.000000,0.000000,56.000000,55.000000,1.000000,0.000000,0.000000,0.000000:
// measure 0
0000
0000
0000
0000
,  // measure 1
0000
0000
0000
0000
,  // measure 2
0000
0000
0000
0000
,  // measure 3
0000
0000
0000
0000
,  // measure 4
0001
0000
0000
0000
,  // measure 5
0001
0000
0000
0000
,  // measure 6
1000
0000
0000
0000
,  // measure 7
1000
0000
0000
0000
,  // measure 8
0001
0000
0000
0000
,  // measure 9
1000
0000
0000
0000
,  // measure 10
0001
0000
0000
0000
,  // measure 11
1000
0000
0000
0000
,  // measure 12
0001
0000
0000
0000
,  // measure 13
0001
0000
0000
0000
,  // measure 14
0001
0000
0000
0000
,  // measure 15
0001
0000
0000
0000
,  // measure 16
1000
0000
0000
0000
,  // measure 17
1000
0000
0000
0000
,  // measure 18
1000
0000
0000
0000
,  // measure 19
1000
0000
0000
0000
,  // measure 20
0010
0000
0010
0000
,  // measure 21
0010
0000
0010
0000
,  // measure 22
0010
0000
0000
0000
,  // measure 23
0000
0000
0000
0000
,  // measure 24
0100
0000
0100
0000
,  // measure 25
0100
0000
0100
0000
,  // measure 26
0100
0000
0000
0000
,  // measure 27
0001
0000
1000
0000
,  // measure 28
0001
0000
0000
0000
,  // measure 29
0010
0000
0000
0000
,  // measure 30
0100
0000
0000
0000
,  // measure 31
1000
0000
0000
0000
,  // measure 32
1000
0000
0000
0000
,  // measure 33
0100
0000
0000
0000
,  // measure 34
0010
0000
0000
0000
,  // measure 35
0001
0000
0000
0000
,  // measure 36
0001
0000
0000
0000
,  // measure 37
0100
0000
0000
0000
,  // measure 38
0010
0000
0000
0000
,  // measure 39
1000
0000
0000
0000
,  // measure 40
1001
0000
0000
0000
,  // measure 41
0001
0000
0001
0000
,  // measure 42
0001
0000
1000
0000
,  // measure 43
1000
0000
1000
0000
,  // measure 44
0010
0000
0010
0000
,  // measure 45
0010
0000
0010
0000
,  // measure 46
0100
0000
0100
0000
,  // measure 47
0100
0000
0100
0000
;

//---------------dance-single - ----------------
#NOTES:
     dance-single:
     :
     Easy:
     4:
     0.138575,0.186102,0.051966,0.060627,0.000000,112.000000,106.000000,6.000000,7.000000,0.000000,0.000000,0.138575,0.186102,0.051966,0.060627,0.000000,112.000000,106.000000,6.000000,7.000000,0.000000,0.000000:
0000
0000
0000
0000
,
0000
0000
0000
0000
,
0000
0000
0000
0000
,
0000
0000
0000
0000
,
0001
0000
1000
0000
,
0001
0001
0001
0000
,
1000
0000
0001
0000
,
1000
1000
1000
0000
,
0010
0000
0100
0000
,
0010
0010
0100
0100
,
0020
0030
1000
0000
,
0001
0000
1000
0000
,
0010
0100
0010
0010
,
1000
0100
1000
1000
,
0001
0010
0001
0001
,
0100
0010
0100
0001
,
1000
0000
0010
1000
,
0001
0000
0100
0001
,
1000
0000
0010
0100
,
0020
0000
0000
0030
,
1000
0000
0100
0000
,
0010
0000
0001
0000
,
1001
0000
1000
0000
,
1001
0000
0001
0000
,
1000
0010
0100
0020
,
0030
0100
0010
0100
,
0001
0000
0010
0000
,
1000
0000
0200
0300
,
0010
0000
0000
0000
,
0010
0000
0000
0000
,
0010
0000
0000
0000
,
0010
0000
0000
0000
,
0001
0000
1000
0000
,
0001
0000
1000
0000
,
0010
0000
0100
0000
,
0020
0000
0030
0000
,
1000
0000
0001
0000
,
1000
0000
0001
0000
,
0100
0000
0010
0000
,
0100
0100
0200
0300
,
0110
0000
0000
0000
,
0001
0100
0010
1000
,
1001
0000
0001
0000
,
1001
0000
1000
0000
,
0010
0100
0010
0002
,
0003
0010
0100
0010
,
1000
0000
0100
0000
,
0001
0000
0010
0110
;

//---------------dance-single - ----------------
#NOTES:
     dance-single:
     :
     Medium:
     7:
     0.233845,0.290250,0.112592,0.138575,0.000000,189.000000,176.000000,13.000000,16.000000,0.000000,0.000000,0.233845,0.290250,0.112592,0.138575,0.000000,189.000000,176.000000,13.000000,16.000000,0.000000,0.000000:
0000
0000
0000
0000
,
0000
0000
0000
0000
,
0000
0000
0000
0000
,
0000
0000
0000
0000
,
1000
0100
1000
0001
,
1000
0100
1000
0000
1100
0000
0000
0000
,
0001
0100
0001
1000
,
0001
0100
0001
0000
0101
0000
0000
0000
,
1000
0010
1000
0000
0001
0010
0001
0000
,
1000
0001
0100
0010
,
0220
0330
0100
0010
,
1000
0001
1000
0002
0000
2003
0000
0000
,
3010
0010
0010
0000
1000
0000
0001
0000
,
0100
0100
0100
0000
0001
0000
1000
0000
,
0001
0001
0001
0000
0100
0000
0010
0000
,
1000
1000
1000
0000
0010
0000
0100
0000
,
0110
0000
0000
0000
0010
1000
0100
0000
,
0110
0000
0000
0000
0010
0001
0100
0000
,
0110
0000
0000
0000
0010
1000
0001
0000
,
2002
0000
0000
3003
,
1000
0010
0100
0001
,
1000
0100
0010
0001
,
1000
0000
0010
0100
0001
0000
0100
0010
,
1000
0000
0010
0100
0001
0000
0100
0000
,
0010
1000
0001
0000
0100
0001
1000
0000
,
0010
0000
0100
0000
0010
0100
0010
0010
,
0000
1000
0100
0010
,
0001
1000
2002
3003
,
0001
0000
0100
0000
,
1000
0000
0010
0000
,
0001
0000
0100
0000
,
1000
0000
0010
0000
,
0001
0001
1000
1000
,
0001
1000
0002
0003
,
0100
0100
0010
0010
,
0220
0000
0330
0000
,
1000
1000
0001
0001
,
1000
0001
2000
3000
,
0020
0030
0200
0300
,
0010
0100
0220
0330
,
1001
0000
0000
1001
,
0001
1000
0001
0000
1000
0001
1000
0000
,
0010
0000
0100
0001
0010
0000
0100
1000
,
0010
0000
0100
0001
0010
0000
0110
0000
,
1000
0100
0010
0000
0001
0010
0100
0000
,
1000
0000
0001
0000
0100
0010
1000
0001
,
0010
0010
1000
1000
,
0100
0000
0100
0000
0001
0000
0001
1000
;

//---------------dance-single - ----------------
#NOTES:
     dance-single:
     :
     Hard:
     10:
     0.347675,0.373178,0.155897,0.199201,0.147236,281.000000,263.000000,18.000000,23.000000,0.000000,0.000000,0.347675,0.373178,0.155897,0.199201,0.147236,281.000000,263.000000,18.000000,23.000000,0.000000,0.000000:
0000
0000
0000
0000
,
0000
0000
0000
0000
,
0000
0000
0000
0000
,
0000
0000
0000
0000
0000
0000
1000
0010
,
0000
0010
0100
0001
0100
0010
1000
0010
,
0100
0100
0001
2000
0000
0000
3001
0010
,
0000
0010
0001
0010
0100
1000
0100
0010
,
0010
0001
1000
0200
0000
0000
0310
0000
,
0010
0001
0100
0000
0010
1000
0100
0000
,
0010
0001
0100
0010
1000
0100
0010
0010
,
0020
0000
0000
0031
1000
0010
0000
1000
,
0001
0100
0010
0210
0000
0302
0000
0000
,
1003
0010
0010
0000
0001
0100
0100
0000
,
1000
0010
0100
0001
0010
0010
0010
0000
,
0001
0100
0010
1000
0100
0100
0100
0001
,
1000
0010
0001
0100
0010
0100
0001
1000
,
1001
0000
0001
0100
0010
0001
0010
0100
,
0001
0000
1000
0010
0100
1000
0100
0010
,
1000
0000
0001
0010
1000
0001
0100
1000
,
0020
0000
0000
0000
0100
0100
0130
0000
,
0100
0001
1000
0010
0001
0010
0000
0010
,
1000
0100
0001
0100
1000
1010
0000
0000
,
0101
0000
0000
0000
0001
0010
0000
0001
0000
0000
0000
0000
1000
0100
0000
1000
,
0000
0000
0010
0000
0100
0010
0000
0220
0000
0000
0330
0000
0110
0000
0100
0000
,
0001
0001
1000
1000
0100
0100
0020
0000
,
0031
0000
0001
0100
0001
0000
1000
0000
0100
0000
0010
0000
0100
0000
1000
0000
,
0000
1000
0010
0001
0010
1000
0100
1000
,
0010
0000
0000
0001
0000
0000
0100
0000
0220
0000
0000
0000
0330
0000
0000
0000
,
1000
0000
0100
0000
,
0001
0000
0010
0000
,
1000
0000
0100
0000
,
0001
0000
0010
0000
,
1000
0100
0000
0100
0010
0000
0010
0001
0000
0001
0100
0000
,
0100
0010
0000
0010
1000
0000
2002
0000
0000
3003
0000
0000
,
0001
0100
0000
0100
0010
0000
0010
1000
0000
1000
0100
0000
,
0220
0000
0000
0330
,
0001
0000
0100
0000
0000
0000
0100
0000
1000
0000
0000
0000
1100
0000
0000
0000
0000
0000
1000
0000
0000
0010
0000
0000
,
0000
0010
0000
0001
0000
0000
0000
0001
0000
0100
0000
0000
0220
0000
0000
0000
0000
0000
0330
0000
0000
0000
0000
0000
,
0010
0000
0000
1000
0000
0000
0010
0000
0100
0000
0000
0001
0000
0000
0100
0000
,
0010
0000
1000
0000
0000
0000
1000
0000
0001
0000
0000
0000
2002
0000
0000
0000
0000
0000
0000
0000
0000
3003
0000
0000
,
1001
0000
0000
1001
,
1000
0010
0001
0010
1000
0100
0001
0100
,
1100
0000
0000
0000
1000
0010
0000
1000
0000
0000
0000
0000
0001
0100
0000
0001
,
0000
0000
1000
0000
0100
0010
0000
0220
0000
0000
0330
0000
0110
0000
0100
0000
,
1000
1000
0010
0010
0001
0001
0200
0000
,
1300
0000
1000
0010
1000
0000
0100
0000
0001
0000
0100
0000
1000
0000
0010
0000
,
0000
0010
0001
0010
1000
0100
0010
0001
,
0100
0000
0000
1000
0000
0000
0010
0000
0012
0000
0000
0000
1000
0000
1003
0000
;

//---------------dance-double - ----------------
#NOTES:
     dance-double:
     :
     Easy:
     5:
     0.139812,0.186102,0.060627,0.069287,0.000000,113.000000,106.000000,7.000000,8.000000,0.000000,0.000000,0.139812,0.186102,0.060627,0.069287,0.000000,113.000000,106.000000,7.000000,8.000000,0.000000,0.000000:
00000000
00000000
00000000
00000000
,
00000000
00000000
00000000
00000000
,
00000000
00000000
00000000
00000000
,
00000000
00000000
00000000
00000000
,
00001000
00000000
00010000
00000000
,
00000010
00000010
00000010
00000000
,
00010000
00000000
00001000
00000000
,
01000000
01000000
01000000
00000000
,
00001000
00000000
00010000
00000000
,
00001000
00001000
00010000
00010000
,
00002000
00003000
00100000
00000000
,
00001000
00000000
00010000
00000000
,
00000010
00001000
00000100
00000100
,
00010000
00001000
00100000
00100000
,
00010000
01000000
00001000
00001000
,
00010000
00000100
00001000
00000001
,
00000100
00000000
00001000
00010000
,
00000010
00000000
00010000
00001000
,
01000000
00000000
00010000
10000000
,
00200000
00000000
00000000
00300000
,
10000000
00000000
01000000
00000000
,
00100000
00000000
00001000
00000000
,
00011000
00000000
00010000
00000000
,
00011000
00000000
00001000
00000000
,
00010000
00000100
00000010
00000002
,
00000003
00001000
00000100
00000010
,
00000001
00000000
00000100
00000000
,
00001000
00000000
00022000
00033000
,
00010000
00000000
00000000
00000000
,
00001000
00000000
00000000
00000000
,
00010000
00000000
00000000
00000000
,
00001000
00000000
00000000
00000000
,
00100000
00000000
01000000
00000000
,
00010000
00000000
00001000
00000000
,
00000010
00000000
00000100
00000000
,
00000020
00000000
00000030
00000000
,
00000100
00000000
00000010
00000000
,
00001000
00000000
00010000
00000000
,
01000000
00000000
00100000
00000000
,
01000000
01000000
02000000
03000000
,
01100000
00000000
00000000
00000000
,
10000000
00100000
01000000
00001000
,
00011000
00000000
00010000
00000000
,
00011000
00000000
00001000
00000000
,
00010000
00000100
00001000
00000002
,
00000003
00000010
00001000
00010000
,
00001000
00000000
00010000
00000000
,
00100000
00000000
10000000
10010000
;

//---------------dance-double - ----------------
#NOTES:
     dance-double:
     :
     Medium:
     7:
     0.227659,0.290250,0.112592,0.138575,0.000000,184.000000,171.000000,13.000000,16.000000,0.000000,0.000000,0.227659,0.290250,0.112592,0.138575,0.000000,184.000000,171.000000,13.000000,16.000000,0.000000,0.000000:
00000000
00000000
00000000
00000000
,
00000000
00000000
00000000
00000000
,
00000000
00000000
00000000
00000000
,
00000000
00000000
00000000
00000000
,
00001000
01000000
00001000
00010000
,
00000010
00010000
00011000
00000000
,
00001000
00100000
00001000
00010000
,
00000100
00010000
00011000
00000000
,
00001000
00100000
01000000
00010000
,
00001000
00000010
00000100
00010000
,
00022000
00033000
00001000
00010000
,
00100000
00000000
10000000
02000000
00000000
03200000
00000000
00000000
,
00301000
00010000
00001000
00000000
01000000
00000000
00001000
00000000
,
00010000
00001000
00010000
00000000
00000010
00000000
00010000
00000000
,
00001000
00010000
00001000
00000000
00100000
00000000
00001000
00000000
,
00010000
00001000
00010000
00000000
00000100
00000000
00010000
00000000
,
00011000
00000000
00000000
00000000
00001000
00100000
01000000
00000000
,
00010000
00000000
00000000
00000000
00010000
00000100
00000010
00000000
,
00001000
00000000
00000000
00000000
00001000
00010000
00001000
00000000
,
00022000
00000000
00000000
00033000
,
00010000
00001000
00000100
00000001
,
00000010
00001000
00010000
01000000
,
10000000
00000000
00100000
01000000
00010000
00000000
00100000
01000000
,
00010000
00000000
00001000
00000010
00000100
00000000
00000110
00000000
,
00000001
00000100
00001000
00000000
00010000
00100000
10000000
00000000
,
01000000
00000000
00100000
00000000
01000000
00010000
00001000
00011000
,
00000000
00010000
00001000
00000100
,
00000001
00001000
00002002
00003003
,
00000001
00000000
00000100
00000000
,
00000010
00000000
00001000
00000000
,
00010000
00000000
01000000
00000000
,
00100000
00000000
10000000
00000000
,
01000000
01000000
00010000
00010000
,
00001000
00010000
00002000
00003000
,
00000010
00000010
00001000
00010000
,
00022000
00000000
00033000
00000000
,
00000100
00000100
00010000
00010000
,
00001000
00100000
00020000
00030000
,
02000000
03000000
00002000
00003000
,
00010000
00000100
00000220
00000330
,
00000110
00000000
00000000
00001001
,
00000001
00000100
00001000
00000000
00010000
00100000
10000000
00000000
,
01000000
00000000
00100000
00010000
01000000
00000000
00100000
00010000
,
00001000
00000000
00010000
00001000
00000100
00000000
00000110
00000000
,
00000001
00000010
00001000
00000000
00010000
01000000
10000000
00000000
,
00100000
00000000
01000000
00000000
00010000
00100000
01000000
00010000
,
00001000
00000010
00000001
00000100
,
00001000
00000000
00010000
00000000
01000000
00000000
10000000
00010000
;

//---------------dance-double - ----------------
#NOTES:
     dance-double:
     :
     Hard:
     10:
     0.347675,0.373178,0.173219,0.207862,0.138575,281.000000,261.000000,20.000000,24.000000,0.000000,0.000000,0.347675,0.373178,0.173219,0.207862,0.138575,281.000000,261.000000,20.000000,24.000000,0.000000,0.000000:
00000000
00000000
00000000
00000000
,
00000000
00000000
00000000
00000000
,
00000000
00000000
00000000
00000000
,
00000000
00000000
00000000
00000000
00000000
00000000
00001000
00100000
,
00000000
00100000
00010000
00100000
01000000
10000000
01000000
00100000
,
00100000
00010000
01000000
00002000
00000000
00000000
00013000
00000010
,
00000000
00000010
00001000
00000010
00000100
00000001
00000100
00000010
,
00000010
00001000
00000100
00020000
00000000
00000000
00031000
00000000
,
00001000
00100000
00010000
00000000
00100000
00001000
00010000
00000000
,
00001000
00010000
00000100
00001000
00000100
00000010
00000001
00000001
,
00000002
00000000
00000000
00000103
00001000
00010000
00000000
00001000
,
00010000
00100000
10000000
12000000
00000000
03020000
00000000
00000000
,
00031000
00100000
00100000
00000000
01000000
00010000
00010000
00000000
,
00001000
00000010
00000100
00000010
00000001
00000001
00000001
00000000
,
00000100
00001000
00010000
00001000
00100000
00100000
00100000
01000000
,
10000000
00100000
00010000
00001000
00000100
00000001
00001000
00000001
,
00001001
00000000
00001000
00000010
00010000
00001000
00100000
00010000
,
01000000
00000000
00010000
00100000
00001000
00010000
00000010
00001000
,
00000100
00000000
00000010
00000001
00000100
00001000
00010000
00100000
,
20000000
00000000
00000000
00000000
00010000
00010000
30010000
00000000
,
00010000
00100000
01000000
00010000
00001000
00011000
00000000
00010000
,
00001000
00000010
00000100
00000010
00000001
00001001
00000000
00000000
,
00000110
00000000
00000000
00000000
00000010
00001000
00000000
00000100
00000000
00000000
00000000
00000000
00010000
00001000
00000000
00100000
,
00000000
00000000
00010000
00000000
01000000
00100000
00000000
02200000
00000000
00000000
03300000
00000000
01100000
00000000
10000000
00000000
,
01000000
01000000
00010000
00010000
00001000
00001000
00000020
00000000
,
00000031
00001000
00001100
00000100
00000010
00001000
00010000
00100000
,
00000000
10000000
01000000
00100000
00010000
01000000
00100000
00010000
,
00001000
00000000
00000000
00000100
00000000
00000000
00000001
00000000
00002002
00000000
00000000
00000000
00003003
00000000
00000000
00000000
,
00001000
00000000
00000010
00000000
,
00010000
00000000
00100000
00000000
,
00001000
00000000
00000100
00000000
,
00010000
00000000
01000000
00000000
,
10000000
00100000
00000000
00100000
01000000
00000000
01000000
00010000
00000000
00010000
00100000
00000000
,
00100000
00001000
00000000
00001000
00010000
00000000
00022000
00000000
00000000
00033000
00000000
00000000
,
00001000
00010000
00000000
00010000
00000100
00000000
00000100
00000010
00000000
00000010
00000001
00000000
,
00002002
00000000
00000000
00003003
,
00001000
00000000
00000010
00000000
00000000
00000000
00000010
00000000
00010000
00000000
00000000
00000000
00011000
00000000
00000000
00000000
00000000
00000000
00001000
00000000
00000000
00100000
00000000
00000000
,
00000000
00100000
00000000
01000000
00000000
00000000
00000000
01000000
00000000
10000000
00000000
00000000
20020000
00000000
00000000
00000000
00000000
00000000
30030000
00000000
00000000
00000000
00000000
00000000
,
00010000
00000000
00000000
01000000
00000000
00000000
00001000
00000000
00000100
00000000
00000000
00000001
00000000
00000000
00000010
00000000
,
00001000
00000000
00010000
00000000
00000000
00000000
00010000
00000000
00001000
00000000
00000000
00000000
00022000
00000000
00000000
00000000
00000000
00000000
00000000
00000000
00000000
00033000
00000000
00000000
,
00011000
00000000
00000000
00011000
,
00001000
00000100
00000001
00000010
00001000
00010000
01000000
10000000
,
10100000
00000000
00000000
00000000
00100000
01000000
00000000
00010000
00000000
00000000
00000000
00000000
00100000
00001000
00000000
00010000
,
00000000
00000000
00000100
00000000
00001000
00000001
00000000
00002002
00000000
00000000
00003003
00000000
00000101
00000000
00000100
00000000
,
00000010
00000010
00001000
00001000
00010000
00010000
02000000
00000000
,
03100000
10000000
11000000
01000000
00010000
00001000
00100000
01000000
,
00000000
01000000
00010000
00001000
00000010
00000001
00000100
00001000
,
00010000
00000000
00000000
00100000
00000000
00000000
10000000
00000000
02000000
00000000
00000000
00000000
03020000
00000000
00031000
00000000
;
