#VERSION:0.83;
#TITLE:Lonely Together (feat. Rita Ora);
#SUBTITLE:;
#ARTIST:Avicii;
#TITLETRANSLIT:;
#SUBTITLETRANSLIT:;
#ARTISTTRANSLIT:;
#GENRE:POP CHARTS;
#ORIGIN:;
#CREDIT:MUINELIM;
#BANNER:Lonely Together (feat. Rita Ora).png;
#BACKGROUND:Lonely Together (feat. Rita Ora)-bg.png;
#PREVIEWVID:;
#JACKET:Lonely Together (feat. Rita Ora)-jacket.png;
#CDIMAGE:;
#DISCIMAGE:;
#LYRICSPATH:;
#CDTITLE:;
#MUSIC:Lonely Together (feat. Rita Ora).ogg;
#OFFSET:-0.073000;
#SAMPLESTART:55.055916;
#SAMPLELENGTH:13.980583;
#SELECTABLE:YES;
#DISPLAYBPM:103.000000;
#BPMS:0.000=103.000;
#STOPS:;
#DELAYS:;
#WARPS:;
#TIMESIGNATURES:0.000=4=4;
#TICKCOUNTS:0.000=4;
#COMBOS:0.000=1;
#SPEEDS:0.000=1.000=0.000=0;
#SCROLLS:0.000=1.000;
#FAKES:;
#LABELS:0.000=Song Start;
#BGCHANGES:;
#KEYSOUNDS:;
#ATTACKS:
;

//---------------dance-single - ----------------
#NOTEDATA:;
#CHARTNAME:;
#STEPSTYPE:dance-single;
#DESCRIPTION:;
#CHARTSTYLE:;
#DIFFICULTY:Beginner;
#METER:2;
#RADARVALUES:0.090948,0.125829,0.022469,0.000000,0.000000,85.000000,82.000000,3.000000,0.000000,0.000000,0.000000,0.000000,0.000000,0.000000,0.090948,0.125829,0.022469,0.000000,0.000000,85.000000,82.000000,3.000000,0.000000,0.000000,0.000000,0.000000,0.000000,0.000000;
#CREDIT:;
#DISPLAYBPM:102.000000;
#NOTES:
// measure 0
0000
0000
0000
0000
,  // measure 1
0000
0000
0000
0000
,  // measure 2
0000
0000
0000
0000
,  // measure 3
0000
0000
0000
0000
,  // measure 4
1000
0000
1000
0000
,  // measure 5
1000
0000
0000
0000
,  // measure 6
0001
0000
0001
0000
,  // measure 7
0001
0000
0000
0000
,  // measure 8
0100
0000
0100
0000
,  // measure 9
0100
0000
0000
0000
,  // measure 10
0010
0000
0010
0000
,  // measure 11
0010
0000
0000
0000
,  // measure 12
0100
0000
0001
0000
,  // measure 13
1000
0000
0010
0000
,  // measure 14
0100
0000
0100
0000
,  // measure 15
0100
0000
0000
0000
,  // measure 16
0001
0000
0000
0000
,  // measure 17
0010
0000
0000
0000
,  // measure 18
0100
0000
0000
0000
,  // measure 19
1000
0000
0000
0000
,  // measure 20
0001
0000
0001
0000
,  // measure 21
0010
0000
0010
0000
,  // measure 22
0100
0000
0100
0000
,  // measure 23
1000
0000
1000
0000
,  // measure 24
1001
0000
0000
0000
,  // measure 25
0000
0000
0010
0000
,  // measure 26
0010
0000
0000
0000
,  // measure 27
0100
0000
0100
0000
,  // measure 28
0001
0000
1000
0000
,  // measure 29
0001
0000
1000
0000
,  // measure 30
0100
0000
0010
0000
,  // measure 31
0100
0000
0010
0000
,  // measure 32
0001
0000
0000
0000
,  // measure 33
0100
0000
0000
0000
,  // measure 34
1000
0000
0000
0000
,  // measure 35
0010
0000
0000
0000
,  // measure 36
0001
0000
0000
0000
,  // measure 37
0100
0000
0000
0000
,  // measure 38
0010
0000
0000
0000
,  // measure 39
1000
0000
0000
0000
,  // measure 40
0001
0000
0001
0000
,  // measure 41
0100
0000
0100
0000
,  // measure 42
0010
0000
0010
0000
,  // measure 43
1000
0000
1000
0000
,  // measure 44
1001
0000
0000
0000
,  // measure 45
0000
0000
0100
0000
,  // measure 46
0100
0000
0000
0000
,  // measure 47
0010
0000
0010
0000
,  // measure 48
0001
0000
0100
0000
,  // measure 49
0010
0000
1000
0000
,  // measure 50
0100
0000
0010
0000
,  // measure 51
0001
0000
1000
0000
,  // measure 52
0001
0000
0100
0000
,  // measure 53
1000
0000
0010
0000
,  // measure 54
1000
0000
0100
0000
,  // measure 55
0001
0000
0010
0000
,  // measure 56
1001
0000
0000
0000
;

//---------------dance-single - ----------------
#NOTEDATA:;
#CHARTNAME:;
#STEPSTYPE:dance-single;
#DESCRIPTION:;
#CHARTSTYLE:;
#DIFFICULTY:Easy;
#METER:4;
#RADARVALUES:0.135886,0.188743,0.022469,0.029959,0.000000,127.000000,124.000000,3.000000,4.000000,0.000000,0.000000,0.000000,0.000000,0.000000,0.135886,0.188743,0.022469,0.029959,0.000000,127.000000,124.000000,3.000000,4.000000,0.000000,0.000000,0.000000,0.000000,0.000000;
#CREDIT:;
#DISPLAYBPM:102.000000;
#NOTES:
0000
0000
0000
0000
,
0000
0000
0000
0000
,
0000
0000
0000
0000
,
0000
0000
0000
0000
,
1000
0001
1000
0001
,
1000
0000
0000
0000
,
0001
1000
0001
1000
,
0001
0000
0000
0000
,
0100
0010
0100
0010
,
0100
0000
0000
0000
,
0010
0100
0010
0100
,
0010
0000
0000
0000
,
1000
0000
0100
0000
,
0010
0000
0001
0000
,
1000
0000
0001
0000
,
1001
0000
0000
0000
,
1000
1000
0010
0000
,
0001
0001
0010
0000
,
1000
1000
0100
0000
,
0001
0001
0100
0000
,
1000
0000
0010
0000
,
0100
0000
0001
0000
,
0010
0100
0010
0100
,
0010
0010
0010
0000
,
0001
0000
0100
0000
,
1000
0000
0010
0000
,
1000
0000
0100
0000
,
0001
0000
0010
0000
,
0001
0000
0100
0000
,
1000
0000
0010
0000
,
0001
0000
0100
0000
,
1000
0000
0010
0000
,
0002
0000
0003
0000
,
2000
0000
3000
0000
,
0020
0000
0030
0000
,
0200
0000
0300
0000
,
0010
0000
0010
0000
,
1000
0000
1000
0000
,
0001
0000
0001
0000
,
0100
0000
0100
0000
,
0010
1000
0010
0000
,
0100
0001
0100
0000
,
0001
1000
0001
0100
,
0010
0100
0110
0000
,
0001
0010
0010
0000
,
1000
0010
0010
0000
,
0001
0100
0100
0000
,
1000
0100
0100
0000
,
0001
0000
0010
0000
,
1000
0000
0100
0000
,
0001
0000
0010
0000
,
1000
0000
0100
0000
,
0001
0010
0001
0000
,
0010
1000
0010
0000
,
1000
0100
1000
0000
,
0100
0001
0100
0000
,
1001
0000
0000
0000
;

//---------------dance-single - ----------------
#NOTEDATA:;
#CHARTNAME:;
#STEPSTYPE:dance-single;
#DESCRIPTION:;
#CHARTSTYLE:;
#DIFFICULTY:Medium;
#METER:8;
#RADARVALUES:0.277122,0.320189,0.082388,0.194735,0.044939,259.000000,248.000000,11.000000,26.000000,0.000000,0.000000,0.000000,0.000000,0.000000,0.277122,0.320189,0.082388,0.194735,0.044939,259.000000,248.000000,11.000000,26.000000,0.000000,0.000000,0.000000,0.000000,0.000000;
#CREDIT:;
#DISPLAYBPM:102.000000;
#NOTES:
0000
0000
0000
0000
,
0000
0000
0000
0000
,
0000
0000
0000
0000
,
0000
0000
0000
0000
,
0010
0000
0100
0000
0010
1000
0001
0200
,
0000
0000
0000
0300
,
0100
0000
0010
0000
0100
0001
1000
0020
,
0000
0000
0000
0030
,
0010
1000
0001
0100
,
0010
1000
0001
0200
0000
0000
0300
0000
,
0100
0000
0010
0000
0100
0001
1000
0020
,
0000
0000
0000
0030
,
0010
0000
1000
0000
0001
0010
0001
0000
,
0100
0000
0001
0000
1000
0100
1000
0000
,
0010
0000
0100
0000
0010
0000
1000
0001
,
2002
0000
0000
0000
3003
0000
0010
0100
,
0110
0000
0010
0000
1000
0000
0001
0010
,
0001
0000
0100
0000
0001
0000
1000
0100
,
1000
0000
0100
0000
1000
0000
0001
0100
,
0001
0000
0010
0000
0001
0000
1000
0010
,
0000
0210
0000
0302
0000
0023
0000
0230
,
0000
2300
0000
3020
0000
0100
0130
0000
,
0100
0001
0100
0000
0010
1000
0010
0000
,
1000
0001
0100
0010
0220
0000
0330
0000
,
0100
0000
0100
0000
0000
0001
0000
0000
1000
0000
0000
0010
0000
0000
0100
0000
,
0000
0000
0010
0000
0000
1000
0000
0000
0001
0000
0000
0000
1001
0000
0000
0000
,
0010
0000
0010
0000
0000
1000
0000
0000
0001
0000
0000
0100
0000
0000
0010
0000
,
0000
0000
0100
0000
0000
0001
0000
0000
1000
0000
0000
0000
1001
0000
0000
0000
,
0001
0010
0001
0000
0100
0001
0100
0000
,
0010
1000
0100
0000
1000
0100
1000
0000
,
0001
0100
0001
0000
0010
0001
0010
0000
,
0100
1000
0100
0000
1000
0010
1000
0000
,
0002
0000
0000
0000
0013
0100
1000
0000
,
2000
0000
0000
0000
3100
0010
0001
0000
,
1000
0000
0010
0000
0100
0000
0001
1000
,
2002
0000
0000
0000
3003
0000
0010
0100
,
0010
1000
0100
0001
,
0010
0001
0100
1000
,
0001
0010
1000
0100
,
1000
0010
0001
0100
,
0020
1030
2000
3100
,
0200
0301
0002
0013
,
0010
0100
0010
0000
1000
0001
1000
0000
,
0010
0100
0001
1000
2002
0000
3003
0000
,
0001
0000
0001
0000
0000
0100
0000
0000
1000
0000
0000
0100
0000
0000
0001
0000
,
0000
0000
1000
0000
0000
0010
0000
0000
0100
0000
0000
0000
0110
0000
0000
0000
,
1000
0000
1000
0000
0000
0010
0000
0000
0001
0000
0000
0010
0000
0000
1000
0000
,
0000
0000
0001
0000
0000
0100
0000
0000
0010
0000
0000
0000
0110
0000
0000
0000
,
1000
0100
1000
0000
0100
0001
0100
0000
,
0001
0010
0001
0000
0010
1000
0010
0000
,
0100
0001
0100
0000
1000
0100
1000
0000
,
0010
1000
0010
0000
0001
0010
0001
0000
,
0010
0100
1000
0000
0001
0010
0100
0000
,
1000
0010
0100
0000
0001
0100
0010
0000
,
1000
0100
0001
0000
0001
0010
1000
0000
,
1000
0010
0001
0000
0001
0100
1000
0010
,
0220
0000
0000
0000
,
0330
0000
0000
0000
;

//---------------dance-single - ----------------
#NOTEDATA:;
#CHARTNAME:;
#STEPSTYPE:dance-single;
#DESCRIPTION:;
#CHARTSTYLE:;
#DIFFICULTY:Hard;
#METER:12;
#RADARVALUES:0.450458,0.490956,0.479347,0.142306,0.325806,421.000000,357.000000,64.000000,19.000000,0.000000,0.000000,0.000000,0.000000,0.000000,0.450458,0.490956,0.479347,0.142306,0.325806,421.000000,357.000000,64.000000,19.000000,0.000000,0.000000,0.000000,0.000000,0.000000;
#CREDIT:;
#DISPLAYBPM:102.000000;
#NOTES:
0000
0000
0000
0000
,
0000
0000
0000
0000
,
0000
0000
0000
0000
,
0000
0000
0000
0000
,
0001
1000
0001
0000
0100
0000
0001
1000
0001
0000
1000
0001
1000
0000
0020
0000
,
0000
0000
0000
0000
0000
0000
0000
0000
0030
0000
0000
0000
0000
0000
0100
0010
,
0100
0000
0010
1000
0010
0000
0100
0001
0100
0000
0001
1000
0001
0000
0200
0000
,
0000
0000
0000
0000
0000
0000
0000
0000
0300
0000
0000
0000
0000
0000
0001
0010
,
0001
0000
0100
0001
0100
0000
0010
1000
0010
0000
1000
0100
1000
0000
0001
1000
,
0001
0000
0010
0000
0100
0000
2000
0000
3000
0000
0000
0000
0000
0000
0100
1000
,
0100
0000
1000
0010
1000
0000
0001
0100
0001
0000
0010
0001
0010
0000
0002
0000
,
0000
0000
0000
0003
,
0010
0001
0000
0001
0100
0000
0010
0000
1000
0000
0100
0000
0010
0000
0000
0000
,
0100
1000
0000
1000
0010
0000
0100
0000
0001
0000
0010
0000
0100
0000
0000
0000
,
1100
0000
0000
1001
0000
0000
0201
0000
0000
0000
0000
0000
0310
0000
0010
2000
,
0002
0000
0000
0000
0000
0000
0000
0000
3003
0000
0000
0000
0010
0100
0000
0000
,
0110
0000
0010
0000
1000
0000
0001
0100
0000
0010
0000
0000
0100
0001
0000
0000
,
0010
0000
0100
0000
1000
0000
0010
0100
0000
0000
0000
0000
0100
0010
0000
0000
,
0110
0000
0100
0000
0001
0000
1000
0010
0000
0100
0000
0000
0010
1000
0000
0000
,
0100
0000
0010
0000
0001
0000
0100
0010
0000
0000
0000
0000
0110
0000
2002
0000
,
3003
0000
0001
0000
0000
0100
0000
0000
1000
0000
0000
0100
0000
0000
0001
0010
,
0000
0000
1000
0000
0000
0010
0000
0000
0001
0000
0000
0000
1000
0001
0000
0000
,
1001
0000
1000
0000
0100
0000
0001
0100
0000
1000
0000
0000
0010
0001
0000
0000
,
0010
0000
1000
0000
0100
0000
0010
0002
2000
0000
0000
0000
3003
0000
0000
0000
,
1000
0000
1100
0000
0000
0101
0000
0000
1100
0000
0000
0101
0000
0000
0001
0010
,
0000
0000
0011
0000
0000
1010
0000
0000
0011
0000
0010
0000
0100
0000
1000
0000
,
0001
0000
0011
0000
0000
1010
0000
0000
0011
0000
0000
1010
0000
0000
1000
0100
,
0000
0000
1100
0000
0000
0101
0000
0000
1100
0000
0100
0000
0010
0000
0001
0000
,
1000
0010
1000
0000
0100
0000
0010
0000
0100
0000
1000
0000
0100
0000
0010
0000
,
0001
0100
0001
0000
0010
0000
0100
0000
0010
0000
0001
0000
0010
0000
0100
0000
,
1000
0001
1000
0000
0010
0000
0100
0000
1000
0000
0100
0000
0001
0000
0010
0000
,
0001
1000
0001
0000
0100
0000
0010
0000
0001
0000
0010
0000
1000
0000
0001
0000
,
2001
0000
0000
0000
0010
0001
3100
0000
,
1002
0000
0000
0000
0010
1000
0103
0000
,
0110
0000
0000
0011
0000
0000
2100
0000
0000
0000
0000
0000
3010
0000
0110
0000
,
2002
0000
0000
0000
0000
0000
0000
0000
3003
0000
0000
0000
0001
0100
0000
1000
,
0010
0011
0100
1100
,
0010
0101
0010
1010
,
0001
0011
1000
1100
,
0001
1010
0001
0101
,
1000
0100
0001
0100
0010
0001
1000
0000
,
0001
0010
1000
0010
0100
1000
0001
0000
,
0100
1000
0100
0010
0001
0010
1000
0001
,
0100
0010
0100
0000
0010
0100
0010
0000
2002
0000
0000
0000
3003
0000
0000
0000
,
0010
0000
1010
0000
0000
1100
0000
0000
0101
0000
0000
0011
0000
0000
0010
0100
,
0000
0000
1100
0000
0000
1010
0000
0000
0011
0000
0001
0000
1000
0000
0100
0000
,
0010
0000
0011
0000
0000
0101
0000
0000
1100
0000
0000
1010
0000
0000
0010
0100
,
0000
0000
0101
0000
0000
0011
0000
0000
1010
0000
1000
0000
0001
0000
0100
0000
,
0010
1000
0010
0000
1000
0100
1000
0000
0010
1000
0010
0000
0001
0000
0010
0000
,
0100
0001
0100
0000
0001
0010
0001
0000
0100
0001
0100
0000
1000
0000
0100
0000
,
0001
0010
1000
0001
0100
1000
0010
0001
,
1000
0000
0100
0000
0001
0000
0010
0000
0100
0010
0100
0010
0100
0000
1000
0001
,
0000
0000
0101
0000
0000
1100
0000
0000
0011
0000
0000
1010
0000
0000
1000
0001
,
0100
0000
0110
0000
0000
1001
0000
0000
1000
0010
0100
0000
0001
0000
0010
0100
,
0000
0000
1100
0000
0000
0101
0000
0000
1010
0000
0000
0011
0000
0000
0001
1000
,
0010
0000
0110
0000
0000
1001
0000
0000
0001
0100
1000
0000
0100
0000
0010
0100
,
0002
0000
0000
0000
,
0003
0000
0000
0000
;

//---------------dance-double - ----------------
#NOTEDATA:;
#CHARTNAME:;
#STEPSTYPE:dance-double;
#DESCRIPTION:;
#CHARTSTYLE:;
#DIFFICULTY:Hard;
#METER:12;
#RADARVALUES:0.375560,0.405572,0.052429,0.471857,0.187245,351.000000,344.000000,7.000000,63.000000,0.000000,0.000000,0.000000,0.000000,0.000000,0.375560,0.405572,0.052429,0.471857,0.187245,351.000000,344.000000,7.000000,63.000000,0.000000,0.000000,0.000000,0.000000,0.000000;
#CREDIT:;
#DISPLAYBPM:102.000000;
#NOTES:
00000000
00000000
00000000
00000000
,
00000000
00000000
00000000
00000000
,
00000000
00000000
00000000
00000000
,
00000000
00000000
00000000
00000000
,
01000000
00010000
00001000
00000100
00001000
00010000
01000000
20000000
,
00000000
00000000
00000000
00000000
30000000
00000000
00000000
00100000
,
00010000
00001000
00000010
00001000
00010000
00100000
10000000
02000000
,
00000000
00000000
00000000
00000000
03000000
00000000
00000000
00010000
,
00001000
00000010
00001000
00010000
00100000
00010000
00001000
00000010
,
00001000
00010000
00100000
20000000
30000000
00000000
00000000
01000000
,
00010000
00001000
00000100
00001000
00010000
01000000
00010000
00002000
,
00000000
00000000
00000000
00003000
,
00000100
00000001
00000000
00000010
00000001
00000000
00000100
00000000
00001000
00000000
00010000
00000000
01000000
00000000
10000000
00000000
,
00100000
10000000
00000000
01000000
10000000
00000000
00100000
00000000
00010000
00000000
00001000
00000000
00000100
00000000
00000001
00000000
,
00000010
00000000
00000000
00001000
00000000
00000000
00020000
00000000
00000000
00000000
00000000
00000000
00130000
00000000
10000000
00000000
,
20020000
00000000
00000000
00000000
00000000
00000000
00000000
00000000
30030000
00000000
00000000
00000000
00100000
01000000
00100000
00000000
,
10000000
01000000
00010000
00001000
00010000
01000000
00010000
00001000
,
00000100
00000000
00001000
00000000
00010000
00000000
00001000
00000000
00000100
00000000
00000001
00000000
00000010
00000100
00000010
00000000
,
00000001
00000010
00001000
00010000
00001000
00000010
00001000
00010000
,
00100000
00010000
00001000
00010000
00100000
10000000
02000000
03100000
,
00000000
00000000
00200000
00000000
00000000
00302000
00000000
00000000
00023000
00000000
00000000
00030200
00000000
00000000
00000310
00000001
,
00000010
00000000
00000200
00000000
00000000
00020300
00000000
00000000
00032000
00000000
00000000
00000000
01003000
00100000
01000000
00000000
,
10000000
01000000
00100000
00010000
00001000
00000100
00000010
00000001
,
00000010
00000100
00001000
00010000
00022000
00000000
00033000
00000000
,
00001000
00000000
00020000
00000000
00000000
02030000
00000000
00000000
23000000
00000000
00000000
30200000
00000000
00000000
00310000
00001000
,
00010000
00000000
00002000
00000000
00000000
00003200
00000000
00000000
00000301
00000000
00000010
00000000
00001000
00010000
00001000
00000000
,
00010000
00000000
00002000
00000000
00000000
00003020
00000000
00000000
00000032
00000000
00000000
00000203
00000000
00000000
00001300
00010000
,
00001000
00000000
00020000
00000000
00000000
00230000
00000000
00000000
10300000
00000000
01000000
00000000
00010000
00001000
00010000
00000000
,
00001000
00100000
01000000
00010000
00001000
00000010
00001000
00010000
,
01000000
10000000
00100000
00010000
00001000
00100000
01000000
00010000
,
00001000
00000010
00000100
00010000
00001000
00000100
00000001
00000010
,
00001000
00010000
00000100
00000010
00001000
00010000
01000000
10000000
,
10020000
00000000
00000000
00000000
00130000
00001000
00000010
00000000
,
00002001
00000000
00000000
00000000
00003100
00010000
01000000
00000000
,
20000000
00000000
00000000
30200000
00000000
00000000
00320000
00000000
00000000
00000000
00000000
00000000
00031000
00000000
00000100
00000002
,
00002000
00000000
00000000
00000000
00000000
00000000
00000000
00000000
00003003
00000000
00000000
00000000
00000010
00000100
00000010
00000000
,
00000001
00000010
00000100
00001000
,
00010000
00100000
01000000
10010000
,
10000000
00100000
01000000
00010000
,
00001000
00000010
00000100
00001001
,
00000001
00000010
00000100
00010000
00100000
01000000
00010000
00000000
,
10000000
01000000
00100000
00001000
00000100
00000010
00001000
00000000
,
00000001
00000100
00010000
01000000
00100000
10000000
01000000
00001000
,
00000100
00000010
00000001
00000100
00000220
00000000
00000330
00000000
,
00000001
00000000
00002000
00000000
00000000
00003020
00000000
00000000
00020030
00000000
00000000
00230000
00000000
00000000
10300000
01000000
,
10000000
00000000
02000000
00000000
00000000
03020000
00000000
00000000
00030100
00000000
00000010
00000000
00001000
00000000
01000000
00100000
,
10000000
00000000
00020000
00000000
00000000
02030000
00000000
00000000
03002000
00000000
00000000
00003200
00000000
00000000
00000301
00000010
,
00000001
00000000
00000020
00000000
00000000
00002030
00000000
00000000
00103000
00000000
01000000
00000000
00010000
00000000
00000010
00000100
,
00000001
00000001
00000010
00001000
00000001
00000001
00000100
00010000
,
00001000
00001000
00100000
10000000
00010000
00010000
01000000
10000000
,
00100000
00001000
00000010
00010000
00000100
00000010
00000001
00000100
,
00010000
00000000
01000000
00000000
00100000
00000000
10000000
00000000
01000000
00100000
01000000
00100000
01000000
00000000
00010000
00001000
,
00000000
00000000
00000020
00000000
00000000
00000032
00000000
00000000
00000203
00000000
00000000
00020300
00000000
00000000
01030000
00100000
,
10000000
00000000
02000000
00000000
00000000
03020000
00000000
00000000
00030100
00000010
00000100
00000000
00001000
00000000
00000001
00000100
,
00000000
00000000
00000020
00000000
00000000
00020030
00000000
00000000
00230000
00000000
00000000
20300000
00000000
00000000
30010000
00100000
,
01000000
00000000
00200000
00000000
00000000
00302000
00000000
00000000
00003010
00000001
00000100
00000000
00001000
00000000
00010000
00100000
,
20000000
00000000
00000000
00000000
,
30000000
00000000
00000000
00000000
;

//---------------dance-double - ----------------
#NOTEDATA:;
#CHARTNAME:;
#STEPSTYPE:dance-double;
#DESCRIPTION:;
#CHARTSTYLE:;
#DIFFICULTY:Easy;
#METER:4;
#RADARVALUES:0.128396,0.188743,0.059918,0.000000,0.000000,120.000000,112.000000,8.000000,0.000000,0.000000,0.000000,0.000000,0.000000,0.000000,0.128396,0.188743,0.059918,0.000000,0.000000,120.000000,112.000000,8.000000,0.000000,0.000000,0.000000,0.000000,0.000000,0.000000;
#CREDIT:;
#DISPLAYBPM:102.000000;
#NOTES:
00000000
00000000
00000000
00000000
,
00000000
00000000
00000000
00000000
,
00000000
00000000
00000000
00000000
,
00000000
00000000
00000000
00000000
,
01000000
00100000
01000000
00100000
,
01000000
00000000
00000000
00000000
,
00001000
00010000
00001000
00010000
,
00001000
00000000
00000000
00000000
,
00010000
00001000
00010000
00001000
,
00010000
00000000
00000000
00000000
,
00000010
00000100
00000010
00000100
,
00000010
00000000
00000000
00000000
,
00000001
00000000
00000010
00000000
,
00000100
00000000
00001000
00000000
,
00010000
00000000
00001000
00000000
,
00011000
00000000
00000000
00000000
,
00010000
00000000
00100000
00000000
,
01000000
00000000
10000000
00000000
,
01000000
00000000
00100000
00000000
,
00010000
00000000
00001000
00000000
,
00000100
00000000
00000001
00000000
,
00000010
00000000
00001000
00000000
,
00010000
00000000
00001000
00000000
,
00010000
00001000
00011000
00000000
,
00010000
00000000
01000000
00000000
,
10000000
00000000
00100000
00000000
,
00010000
00000000
00001000
00000000
,
00000100
00000000
00000001
00000000
,
00000010
00000000
00001000
00000000
,
00010000
00000000
00100000
00000000
,
10000000
00000000
01000000
00000000
,
00010000
00000000
00001000
00000000
,
00011000
00000000
00000000
00000000
,
00011000
00000000
00000000
00000000
,
00011000
00000000
00000000
00000000
,
00011000
00000000
00000000
00000000
,
00000100
00000000
00000100
00000000
,
00000010
00000000
00000010
00000000
,
00001000
00000000
00001000
00000000
,
00010000
00000000
00010000
00000000
,
01000000
00000000
01000000
00000000
,
00100000
00000000
00100000
00000000
,
00001000
00010000
00001000
00010000
,
00001000
00010000
00011000
00000000
,
00001000
00000000
00000010
00000000
,
00000100
00000000
00000001
00000000
,
00000100
00000000
00000010
00000000
,
00001000
00000000
00010000
00000000
,
00100000
00000000
10000000
00000000
,
01000000
00000000
00010000
00000000
,
00001000
00000000
00000010
00000000
,
00000001
00000000
00000100
00000000
,
00001000
00010000
00000010
00000000
,
00010000
00001000
01000000
00000000
,
00001000
00010000
00000100
00000000
,
00010000
00001000
00100000
00000000
,
00011000
00000000
00000000
00000000
;

//---------------dance-double - ----------------
#NOTEDATA:;
#CHARTNAME:;
#STEPSTYPE:dance-double;
#DESCRIPTION:;
#CHARTSTYLE:;
#DIFFICULTY:Medium;
#METER:8;
#RADARVALUES:0.266423,0.298843,0.097367,0.149796,0.044939,249.000000,236.000000,13.000000,20.000000,0.000000,0.000000,0.000000,0.000000,0.000000,0.266423,0.298843,0.097367,0.149796,0.044939,249.000000,236.000000,13.000000,20.000000,0.000000,0.000000,0.000000,0.000000,0.000000;
#CREDIT:;
#DISPLAYBPM:102.000000;
#NOTES:
00000000
00000000
00000000
00000000
,
00000000
00000000
00000000
00000000
,
00000000
00000000
00000000
00000000
,
00000000
00000000
00000000
00000000
,
01000000
00010000
00001000
00000010
,
00000002
00000000
00000000
00000003
,
00000100
00001000
00010000
01000000
,
20000000
00000000
00000000
30000000
,
00100000
00010000
00001000
00000100
,
00000001
00000010
00002000
00003000
,
00010000
00100000
10000000
01000000
,
00020000
00000000
00000000
00030000
,
00001000
00000000
00010000
00000000
00001000
00100000
00001000
00000000
,
00010000
00000000
00001000
00000000
00010000
00000100
00010000
00000000
,
00001000
00000000
00010000
00000000
00001000
00000000
00010000
00001000
,
00022000
00000000
00033000
00011000
,
00010000
00000000
01000000
00000000
10000000
00000000
00100000
01000000
,
00100000
00000000
00010000
00000000
00001000
00000000
00000100
00000010
,
00000100
00000000
00000001
00000000
00000010
00000000
00001000
00010000
,
00001000
00000000
00010000
00000000
01000000
00000000
10000000
00100000
,
00000000
01100000
00000000
01000000
00000000
00010000
00000000
00001000
,
00000000
00000010
00000000
00000110
00000000
00000100
00000001
00000000
,
00000010
00000100
00000010
00000000
00001000
00010000
00001000
00000000
,
00100000
01000000
00100000
00000000
20020000
00000000
30030000
00000000
,
10000000
00000000
10000000
00000000
00000000
00100000
00000000
00000000
01000000
00000000
00000000
00010000
00000000
00000000
00100000
00000000
,
00000000
00000000
00001000
00000000
00000000
00010000
00000000
00000000
00000100
00000000
00000000
00000000
00000110
00000000
00000000
00000000
,
00000001
00000000
00000001
00000000
00000000
00000100
00000000
00000000
00000010
00000000
00000000
00001000
00000000
00000000
00000100
00000000
,
00000000
00000000
00010000
00000000
00000000
00001000
00000000
00000000
00100000
00000000
00000000
00000000
01100000
00000000
00000000
00000000
,
10000000
00100000
01000000
00000000
00010000
00100000
00001000
00000000
,
00010000
00000100
00001000
00000000
00000010
00000100
00000001
00000000
,
00000010
00001000
00010000
00000000
00001000
00010000
01000000
00000000
,
10000000
00100000
00010000
00000000
00001000
00000100
00000001
00000000
,
00000020
00000000
00001030
00010000
,
00200000
00000000
00310000
00001000
,
00000100
00001000
00010000
01000000
,
20020000
00000000
30030000
01100000
,
00100000
10000000
01000000
00010000
,
00001000
00010000
00100000
00010000
,
00001000
00000100
00001000
00010000
,
00001000
00000010
00000001
00000100
,
00000020
00010030
00002000
00103000
,
00000200
00010300
00002000
01003000
,
01000000
00100000
01000000
00000000
00010000
00001000
00010000
00000000
,
00000100
00000010
00000100
00000000
00002002
00000000
00003003
00000000
,
00000001
00000000
00000001
00000000
00000000
00000100
00000000
00000000
00001000
00000000
00000000
00010000
00000000
00000000
00100000
00000000
,
00000000
00000000
10000000
00000000
00000000
01000000
00000000
00000000
00100000
00000000
00000000
00000000
01100000
00000000
00000000
00000000
,
10000000
00000000
10000000
00000000
00000000
00100000
00000000
00000000
00010000
00000000
00000000
00001000
00000000
00000000
00000100
00000000
,
00000000
00000000
00000001
00000000
00000000
00000010
00000000
00000000
00000100
00000000
00000000
00000000
00000110
00000000
00000000
00000000
,
00000001
00000010
00000100
00000000
00000010
00001000
00010000
00000000
,
00001000
00010000
01000000
00000000
00100000
01000000
10000000
00000000
,
10000000
00100000
01000000
00000000
00100000
00010000
00001000
00000000
,
00010000
00001000
00000100
00000000
00000010
00000100
00000001
00000000
,
00000010
00001000
00010000
00000000
00100000
00010000
00001000
00000000
,
00000100
00001000
00010000
00000000
01000000
00010000
00001000
00000000
,
00000010
00000001
00000100
00000000
00001000
00010000
00100000
00000000
,
10000000
01000000
00010000
00000000
00001000
00000010
00000001
00000000
,
00002002
00000000
00000000
00000000
,
00003003
00000000
00000000
00000000
;
