#VERSION:0.83;
#TITLE:Location Unknown;
#SUBTITLE:;
#ARTIST:HONNE;
#TITLETRANSLIT:;
#SUBTITLETRANSLIT:;
#ARTISTTRANSLIT:;
#GENRE:POP CHARTS;
#ORIGIN:;
#CREDIT:MUINELIM;
#BANNER:Location Unknown.png;
#BACKGROUND:Location Unknown-bg.png;
#PREVIEWVID:;
#JACKET:Location Unknown-jacket.png;
#CDIMAGE:;
#DISCIMAGE:;
#LYRICSPATH:;
#CDTITLE:;
#MUSIC:Location Unknown.ogg;
#OFFSET:0.000000;
#SAMPLESTART:81.818176;
#SAMPLELENGTH:15.232728;
#SELECTABLE:YES;
#DISPLAYBPM:110.000000;
#BPMS:0.000=110.000;
#STOPS:;
#DELAYS:;
#WARPS:;
#TIMESIGNATURES:0.000=4=4;
#TICKCOUNTS:0.000=4;
#COMBOS:0.000=1;
#SPEEDS:0.000=1.000=0.000=0;
#SCROLLS:0.000=1.000;
#FAKES:;
#LABELS:0.000=Song Start;
#BGCHANGES:;
#KEYSOUNDS:;
#ATTACKS:
;

//---------------dance-single - ----------------
#NOTEDATA:;
#CHARTNAME:;
#STEPSTYPE:dance-single;
#DESCRIPTION:;
#CHARTSTYLE:;
#DIFFICULTY:Beginner;
#METER:2;
#RADARVALUES:0.075272,0.133170,0.021654,0.028871,0.000000,73.000000,70.000000,3.000000,4.000000,0.000000,0.000000,0.000000,0.000000,0.000000,0.075272,0.133170,0.021654,0.028871,0.000000,73.000000,70.000000,3.000000,4.000000,0.000000,0.000000,0.000000,0.000000,0.000000;
#CREDIT:MILEN;
#DISPLAYBPM:110.000000;
#NOTES:
0000
0000
0000
0000
,
0000
0000
0000
0000
,
0000
0000
0000
0000
,
0000
0000
0000
0000
,
0000
0000
0000
0000
,
1000
0000
0000
0000
,
0001
0000
0000
0000
,
0000
0000
1000
0000
,
1000
0000
0000
0000
,
0001
0000
0000
0001
,
0000
0000
1000
0000
,
1000
0000
1000
0000
,
0000
0000
1001
0000
,
0000
0000
0001
0000
,
0100
0000
0001
0000
,
0100
0000
0010
0000
,
1000
0000
0010
0000
,
1000
0000
0001
0000
,
0100
0000
0010
0000
,
1000
0000
0001
0000
,
0100
0000
0010
0000
,
0000
0000
1000
0000
,
0100
0000
1000
0000
,
0100
0000
0010
0000
,
0001
0000
0010
0000
,
0001
0000
1000
0000
,
0100
0000
0010
0000
,
0001
0000
1000
0000
,
0100
0000
0010
0000
,
0000
0000
0001
0000
,
0000
0000
0000
0000
,
0000
0000
0100
0000
,
0000
0000
0000
0000
,
0000
0000
0010
0000
,
0000
0000
0000
0000
,
0000
0000
1000
0000
,
0000
0000
0000
0000
,
1001
0000
0001
0000
,
0001
0000
0100
0000
,
0100
0000
1000
0000
,
1000
0000
0100
0000
,
0001
0000
1000
0000
,
1000
0000
0010
0000
,
0010
0000
0001
0000
,
0001
0000
0010
0000
,
1000
0000
0001
0000
,
0000
0000
0000
0000
,
0000
0000
0100
0000
,
0000
0000
0000
0000
,
0000
0000
1000
0000
,
0000
0000
0000
0000
,
0000
0000
0010
0000
,
0000
0000
0000
0000
,
0000
0000
0002
0000
,
0003
0000
0000
0000
,
0000
0000
2000
0000
,
3000
0000
0000
0000
,
0000
0000
0020
0000
,
0030
0000
0000
0000
,
0000
0000
0200
0000
,
0300
0000
0000
0000
,
0000
0000
1001
0000
;

//---------------dance-single - ----------------
#NOTEDATA:;
#CHARTNAME:;
#STEPSTYPE:dance-single;
#DESCRIPTION:;
#CHARTSTYLE:;
#DIFFICULTY:Easy;
#METER:5;
#RADARVALUES:0.172198,0.244145,0.101050,0.072179,0.000000,167.000000,153.000000,14.000000,10.000000,0.000000,0.000000,0.000000,0.000000,0.000000,0.172198,0.244145,0.101050,0.072179,0.000000,167.000000,153.000000,14.000000,10.000000,0.000000,0.000000,0.000000,0.000000,0.000000;
#CREDIT:MILEN;
#DISPLAYBPM:110.000000;
#NOTES:
0000
0000
0000
0000
,
0000
0000
0000
0000
,
0000
0000
0000
0000
,
0000
0000
0000
0000
,
0000
0000
1000
0000
,
0000
0000
0001
0000
,
0000
0000
1000
0000
,
0000
0000
0001
0000
,
1000
0000
0001
0000
,
0100
0000
0110
0000
,
0000
0000
1000
0000
,
0001
0000
1000
0000
,
0010
0000
0220
0000
,
0330
0000
1000
1000
,
1000
0000
0010
0010
,
0010
0000
0100
0100
,
0100
0000
0001
0001
,
0001
0000
1000
0010
,
0100
0001
0100
0010
,
1000
0001
1001
0000
,
0100
0010
0110
0000
,
0200
0300
0001
0001
,
0001
0000
0010
0010
,
0010
0000
0100
0100
,
0100
0000
1000
1000
,
1000
0000
0001
0010
,
0100
1000
0100
0000
,
0010
0001
0010
0000
,
0100
0010
0100
0220
,
0330
0000
1000
0100
,
1000
0000
0001
0010
,
0001
0000
1000
0010
,
1000
0000
0001
0100
,
0001
0000
0010
0001
,
0010
0000
0100
1000
,
0100
0000
0010
0100
,
0010
0000
0001
1000
,
0002
1003
1000
0100
,
1000
1010
0001
0010
,
0001
0101
0000
1000
,
0001
0100
0000
0001
,
1000
0100
1000
0010
,
1000
1100
0001
0100
,
0001
0011
0000
1000
,
0001
0010
0000
0001
,
1000
0100
1000
0010
,
0110
0000
0001
1000
,
0001
0010
0001
0100
,
0110
0000
1000
0100
,
1000
0010
1000
0100
,
0110
0000
0001
0010
,
0001
0100
0001
0010
,
0110
0000
1000
0001
,
1000
0010
0200
0000
,
0000
0000
0300
0000
,
0100
0000
0020
0000
,
0000
0000
0030
0000
,
0010
0000
2000
0000
,
0000
0000
3000
0000
,
1000
0000
0002
0000
,
0000
0000
0003
0000
,
0001
0100
0110
0000
;

//---------------dance-double - ----------------
#NOTEDATA:;
#CHARTNAME:;
#STEPSTYPE:dance-double;
#DESCRIPTION:;
#CHARTSTYLE:;
#DIFFICULTY:Easy;
#METER:5;
#RADARVALUES:0.172198,0.244145,0.101050,0.072179,0.000000,167.000000,153.000000,14.000000,10.000000,0.000000,0.000000,0.000000,0.000000,0.000000,0.172198,0.244145,0.101050,0.072179,0.000000,167.000000,153.000000,14.000000,10.000000,0.000000,0.000000,0.000000,0.000000,0.000000;
#CREDIT:MILEN;
#DISPLAYBPM:110.000000;
#NOTES:
00000000
00000000
00000000
00000000
,
00000000
00000000
00000000
00000000
,
00000000
00000000
00000000
00000000
,
00000000
00000000
00000000
00000000
,
00000000
00000000
00001000
00000000
,
00000000
00000000
00010000
00000000
,
00000000
00000000
00001000
00000000
,
00000000
00000000
00010000
00000000
,
00001000
00000000
01000000
00000000
,
00001000
00000000
00011000
00000000
,
00000000
00000000
00001000
00000000
,
00010000
00000000
00000010
00000000
,
00010000
00000000
00022000
00000000
,
00033000
00000000
00001000
00001000
,
00001000
00000000
00100000
00100000
,
00100000
00000000
00010000
00010000
,
00010000
00000000
01000000
01000000
,
01000000
00000000
00001000
00100000
,
00010000
01000000
00010000
00100000
,
00001000
00010000
00010010
00000000
,
00010000
00001000
00101000
00000000
,
00002000
00003000
00010000
00010000
,
00010000
00000000
00000100
00000100
,
00000100
00000000
00001000
00001000
,
00001000
00000000
00000010
00000010
,
00000010
00000000
00010000
00000100
,
00001000
00000010
00010000
00000000
,
00001000
00100000
00010000
00000000
,
01000000
00001000
00010000
00022000
,
00033000
00000000
00001000
00010000
,
00100000
00000000
00100000
10000000
,
01000000
00000000
10000000
01000000
,
00010000
00000000
01000000
00010000
,
00001000
00000000
00010000
00001000
,
00000010
00000000
00000010
00000001
,
00000100
00000000
00000001
00000100
,
00001000
00000000
00000100
00001000
,
00020000
00031000
00001000
00100000
,
00010000
10010000
00010000
00100000
,
00001000
00011000
00000000
00010000
,
01000000
10000000
00000000
10000000
,
00100000
00010000
00010000
00000010
,
00001000
00001001
00001000
00000010
,
00010000
00011000
00000000
00001000
,
00000100
00000001
00000000
00000001
,
00000010
00001000
00010000
01000000
,
11000000
00000000
10000000
00100000
,
00010000
00001000
00000100
00000001
,
00000011
00000000
00000010
00001000
,
00010000
01000000
10000000
00100000
,
10100000
00000000
10000000
01000000
,
00010000
00001000
00000010
00000001
,
00000101
00000000
00000100
00001000
,
00010000
00100000
02000000
00000000
,
00000000
00000000
03000000
00000000
,
01000000
00000000
00002000
00000000
,
00000000
00000000
00003000
00000000
,
00001000
00000000
00020000
00000000
,
00000000
00000000
00030000
00000000
,
00010000
00000000
00000020
00000000
,
00000000
00000000
00000030
00000000
,
00000010
00000100
00001001
00000000
;

//---------------dance-single - ----------------
#NOTEDATA:;
#CHARTNAME:;
#STEPSTYPE:dance-single;
#DESCRIPTION:;
#CHARTSTYLE:;
#DIFFICULTY:Medium;
#METER:7;
#RADARVALUES:0.262937,0.310729,0.180447,0.230972,0.000000,255.000000,230.000000,25.000000,32.000000,0.000000,0.000000,0.000000,0.000000,0.000000,0.262937,0.310729,0.180447,0.230972,0.000000,255.000000,230.000000,25.000000,32.000000,0.000000,0.000000,0.000000,0.000000,0.000000;
#CREDIT:MILEN;
#DISPLAYBPM:110.000000;
#NOTES:
0000
0000
0000
0000
,
0000
0000
0000
0000
,
0000
0000
0000
0000
,
0000
0000
0000
0000
,
0000
0000
1000
0001
,
0020
0030
0001
1000
,
0200
0300
1000
0001
,
1001
0000
1000
0010
,
0100
0001
1000
0100
,
0020
0030
0001
0200
,
0300
0010
0100
0010
,
1000
0001
1000
1001
,
0010
0100
0010
0220
,
0000
0000
0330
0000
0100
0010
0100
0000
,
0001
0000
0000
0000
0100
0010
0100
0000
,
1000
0000
0000
0000
0100
0010
0100
0000
,
0001
0000
0011
0000
0010
0100
0010
0000
,
0100
0000
1100
0000
1000
0001
1000
0000
,
0010
0000
1010
0000
0001
1000
0001
0000
,
0100
0000
0101
0000
1000
0010
0100
0000
,
0001
0000
0011
0000
0001
0100
0010
0000
,
1000
0000
1100
0000
0010
0100
0010
0000
,
0001
0000
0000
0000
0010
0100
0010
0000
,
1000
0000
0000
0000
0010
0100
0010
0000
,
0001
0000
0101
0000
0100
0010
0100
0000
,
0010
0000
1010
0000
1000
0001
0010
0000
,
0001
0000
0101
0000
0001
1000
0100
0000
,
1000
0000
1010
0000
0010
0100
0001
0000
,
0100
0010
1000
0000
2002
0000
0000
0000
,
3003
0000
0020
0100
,
0130
0000
0100
0010
0200
0000
0010
0000
,
0320
0000
0100
0000
0030
0000
0100
0010
,
0100
0000
0110
0000
0010
0100
0010
0100
,
0020
0130
2000
0001
,
3001
0000
0001
1000
0002
0000
1000
0000
,
2003
0000
0001
0000
3000
0000
0001
1000
,
0001
0000
1001
0000
1000
0001
1000
0001
,
2000
0000
3001
0000
0001
0100
0010
1000
,
0001
0000
0001
0000
1000
0010
0100
0001
,
1000
0000
1000
0000
0000
0001
0010
0001
,
0000
0101
0000
0100
0000
0010
1000
0100
,
0000
1100
0000
1000
0001
0010
0100
1000
,
0001
0000
0001
0000
1000
0100
0010
0001
,
1000
0000
1000
0000
0000
0001
0100
0001
,
0000
0011
0000
0010
0000
0100
1000
0010
,
0000
1010
0000
1000
0002
0000
0023
0000
,
0032
0000
0003
0000
0100
0001
0100
0000
,
0010
0010
2000
3200
,
2300
0000
3000
0000
0010
0100
0010
0000
,
0100
0100
0002
2003
,
3002
0000
0003
0000
1000
0010
1000
0000
,
0001
0001
0200
0320
,
0230
0000
0300
0000
0010
1000
0010
0000
,
1000
1000
1002
0000
,
0000
0000
0000
0003
,
0100
0010
2010
0000
,
0000
0000
0000
3000
,
0100
0010
0012
0000
,
0000
0000
0000
0003
,
0010
0100
2100
0000
,
0000
0000
0000
3000
,
1001
0000
0010
0100
0010
0000
0000
0000
;

//---------------dance-double - ----------------
#NOTEDATA:;
#CHARTNAME:;
#STEPSTYPE:dance-double;
#DESCRIPTION:;
#CHARTSTYLE:;
#DIFFICULTY:Medium;
#METER:7;
#RADARVALUES:0.239221,0.266339,0.079397,0.223754,0.000000,232.000000,221.000000,11.000000,31.000000,0.000000,0.000000,0.000000,0.000000,0.000000,0.239221,0.266339,0.079397,0.223754,0.000000,232.000000,221.000000,11.000000,31.000000,0.000000,0.000000,0.000000,0.000000,0.000000;
#CREDIT:MILEN;
#DISPLAYBPM:110.000000;
#NOTES:
00000000
00000000
00000000
00000000
,
00000000
00000000
00000000
00000000
,
00000000
00000000
00000000
00000000
,
00000000
00000000
00000000
00000000
,
00000000
00000000
00001000
00010000
,
00000020
00000030
00010000
00001000
,
02000000
03000000
00001000
00010000
,
00011000
00000000
00010000
00001000
,
00100000
00010000
00100000
00001000
,
00020000
00030000
00000100
00002000
,
00003000
00000010
00010000
00001000
,
01000000
00010000
01000000
00001000
,
00010000
00000010
00001000
00002002
,
00000000
00000000
00003003
00000000
00000001
00000010
00000001
00000000
,
00000100
00000000
00000000
00000000
00001000
00010000
00001000
00000000
,
00000100
00000000
00000000
00000000
00000001
00000010
00000001
00000000
,
00000100
00000000
00001000
00000000
00010000
00001000
00010000
00000000
,
00100000
00000000
10000000
00000000
01000000
00100000
01000000
00000000
,
00010000
00000000
00001000
00000000
00000010
00000100
00000010
00000000
,
00000001
00000000
00000100
00000000
00001000
00010000
00001000
00000000
,
00010000
00000000
00100000
00000000
10000000
01000000
10000000
00000000
,
00010000
00000000
10010000
00000000
10000000
00100000
10000000
00000000
,
01000000
00000000
00000000
00000000
00010000
00001000
00010000
00000000
,
01000000
00000000
00000000
00000000
10000000
00100000
10000000
00000000
,
01000000
00000000
00010000
00000000
00001000
00010000
00001000
00000000
,
00000010
00000000
00000001
00000000
00000100
00000010
00000100
00000000
,
00001000
00000000
00010000
00000000
00100000
01000000
00100000
00000000
,
10000000
00000000
01000000
00000000
00010000
00001000
00010000
00000000
,
00001000
00000000
00000100
00000000
00000001
00000010
00000001
00000000
,
00001000
00000100
00020000
00001000
,
00031000
00001000
00020000
00001000
,
00032000
00010000
00003000
00010000
,
00001000
00011000
00010000
00001000
,
00020000
00031000
00002000
01000000
,
01003000
00001000
00020000
00000010
,
00032000
00100000
00003000
00010000
,
00000100
00010100
00010000
00001000
,
01002000
00000000
00013000
00000000
00010000
00001000
00000100
00000000
,
00000001
00000000
00000100
00000000
00001000
00010000
00100000
00000000
,
10000000
00000000
00100000
00000000
00000000
00010000
00001000
00010000
,
00000000
00000100
00000000
00001000
00000000
00000010
00000100
00000010
,
00000000
00001000
00000000
00000100
00010000
00001000
00000010
00000000
,
00000001
00000000
00000010
00000000
00001000
00010000
01000000
00000000
,
10000000
00000000
01000000
00000000
00000000
00010000
00001000
00010000
,
00000000
00000010
00000000
00001000
00000000
00000100
00000010
00000100
,
00000000
00001000
00000000
00000010
00020000
00000000
00032000
00000000
,
02003000
00000000
03000000
00000000
00100000
10000000
00100000
00000000
,
01000000
01000000
00020000
00230000
,
00302000
00000000
00003000
00000000
00010000
00001000
00010000
00000000
,
00000100
00000100
00002000
00003002
,
00000023
00000000
00000030
00000000
00000001
00000100
00000001
00000000
,
00001000
00001000
00000020
00020030
,
00032000
00000000
00003000
00000000
00100000
00010000
00100000
00000000
,
01000000
01000000
21000000
00000000
,
00000000
00000000
00000000
30000000
,
00100000
00010000
00012000
00000000
,
00000000
00000000
00000000
00003000
,
00000100
00000001
00000021
00000000
,
00000000
00000000
00000000
00000030
,
00001000
00010000
00022000
00000000
,
00000000
00000000
00000000
00033000
,
00011000
00000000
01000000
10000000
00100000
00000000
00000000
00000000
;

//---------------dance-single - ----------------
#NOTEDATA:;
#CHARTNAME:;
#STEPSTYPE:dance-single;
#DESCRIPTION:;
#CHARTSTYLE:;
#DIFFICULTY:Hard;
#METER:10;
#RADARVALUES:0.403170,0.421276,0.346458,0.137140,0.184056,391.000000,343.000000,48.000000,19.000000,0.000000,0.000000,0.000000,0.000000,0.000000,0.403170,0.421276,0.346458,0.137140,0.184056,391.000000,343.000000,48.000000,19.000000,0.000000,0.000000,0.000000,0.000000,0.000000;
#CREDIT:MILEN;
#DISPLAYBPM:110.000000;
#NOTES:
0000
0000
0000
0000
,
0000
0000
0000
0000
,
0000
0000
0000
0000
,
0000
0000
0000
0000
,
0000
0000
0000
0000
0000
0000
0000
0000
0001
0000
0000
0010
0000
0000
0100
0000
,
0000
0000
0000
0000
0000
0000
0000
0000
1000
0000
0000
0100
0000
0000
0010
0000
,
0000
0000
0000
0000
0000
0000
0000
0000
0001
0000
0000
1000
0000
0000
0010
0000
,
0000
0000
0000
0000
0110
0000
0000
0100
0001
0000
0000
0200
0000
0310
0000
0000
,
0010
0000
0000
0000
0000
0000
0000
0000
0000
1000
0000
0000
0010
0000
0000
0000
0000
0000
0000
0000
0000
0000
0000
0000
0110
0000
0000
0000
0000
0000
0000
0000
0001
0000
0000
0000
0010
0000
0000
0000
0100
0000
0000
0000
1000
0000
0000
0000
,
0001
0000
0000
0000
0000
1000
0100
0010
0001
1000
0000
0000
,
1001
0000
0000
0000
0110
0000
0000
0100
0001
0000
0000
0001
1000
0000
0000
1000
,
0010
0000
0000
0010
0100
0000
0000
0001
0000
0000
1000
0000
0000
0000
0100
0000
,
0110
0000
0000
0010
0100
0000
0000
0000
1100
0000
0000
0020
0002
0000
0000
0000
,
0000
0000
0033
0000
0001
0100
0010
1000
,
0001
0000
0000
0000
1000
0010
0100
0001
,
1000
0000
0000
0000
0001
0100
0010
1000
,
0001
0001
0001
0000
1000
0100
0010
0001
,
0100
0000
0000
0010
0100
0000
0110
0000
0001
0000
0100
0000
0010
0000
1000
0000
,
0001
0001
1000
0010
0100
0001
1000
1000
,
0010
0000
0000
0110
0000
0000
0202
0000
0000
0000
0000
0000
0303
0000
0000
0000
,
0100
0000
0000
0110
0000
0000
2010
0000
0000
0000
0002
0000
3003
0000
0000
0000
,
1010
0000
0000
0100
0001
0000
0001
0000
1000
0000
0100
0000
0010
0000
0001
0000
,
1000
0000
0000
0000
0001
0010
0100
1000
,
0001
0000
0000
0000
1000
0100
0010
0001
,
1000
1000
1000
0000
0001
0100
0010
1000
,
0100
0000
0000
0010
0100
0000
0110
0000
1000
0000
0100
0000
0010
0000
0001
0000
,
1000
1000
0001
0010
0100
1000
0001
0001
,
0010
0000
0000
0110
0000
0000
2200
0000
0000
0000
0000
0000
3300
0000
0000
0000
,
0100
0000
0000
0110
0000
0000
0012
0000
0000
0000
2000
0000
3003
0000
0000
0000
,
0011
0000
0000
0100
1000
0000
0000
0000
0001
0000
0010
0000
1000
0000
0010
0000
,
0001
0000
0000
0000
0001
0000
0100
0000
1000
0000
0100
0000
0001
0000
0000
0001
,
0010
0000
0000
0010
0200
0000
0000
0000
0000
0000
0000
0000
1300
0000
0010
0000
,
0001
0010
1000
0000
1000
0100
0001
0100
,
1000
0000
0000
1010
0000
0000
0000
0000
0001
0000
0100
0000
1000
0000
0001
0000
,
0010
0000
0000
0000
1000
0000
0100
0000
0001
0000
1000
0000
0010
0000
0000
0010
,
0001
0000
0000
0001
0200
0000
0000
0000
0000
0000
0000
0000
1300
0000
0100
0000
,
0001
0000
0010
0000
1000
0000
0000
0000
0001
0000
0100
0000
1000
0000
0010
0100
,
0010
0000
0000
2002
0000
0000
3003
0000
1000
0000
0010
0000
0100
0000
1000
0000
,
0100
0001
0011
0000
0001
0100
0010
0001
,
0010
1000
1100
0000
0000
0100
0010
0001
,
0000
0101
0000
1100
0000
0100
0010
0001
,
0000
0101
0000
1100
1000
0010
0001
1000
,
0100
0010
1010
0000
0001
0100
1000
0001
,
0010
0100
0101
0000
0000
0010
0100
1000
,
0000
1010
0000
0011
0000
0010
0100
1000
,
0000
1010
0000
0011
0001
0100
1000
0100
,
0001
0000
0001
0010
1000
0010
0001
0100
,
0110
0000
0000
1010
0000
0000
1001
0000
1000
0000
0010
0000
0001
0000
0010
0000
,
1000
0000
1000
0100
0001
0100
1000
0010
,
0110
0000
0000
0101
0000
1010
0000
0000
1000
0000
0100
0000
0001
0000
1000
0000
,
0010
0000
0001
0100
1000
0001
0010
1000
,
1001
0000
0000
0011
0000
0000
0110
0000
0100
0000
1000
0000
0001
0000
0010
0000
,
1000
0000
0001
0100
1000
0010
0001
1000
,
0100
0000
0000
0100
0001
0000
0000
0001
2000
0000
0000
0000
0010
0000
0010
0000
,
0010
0000
0000
0000
0010
0000
0000
0010
0000
0000
0000
0000
0001
0000
0001
0000
,
3001
0000
0000
1100
0000
0000
0101
0000
0002
0000
0000
0000
0010
0000
0010
0000
,
0010
0000
0000
0000
0010
0000
0000
0010
0000
0000
0000
0000
1000
0000
1000
0000
,
1003
0000
0000
0011
0000
1010
0000
0000
0200
0000
0000
0000
0010
0000
0010
0000
,
0010
0000
0000
0000
0001
0000
0000
0001
0000
0000
0000
0000
1000
0000
1000
0000
,
1300
0000
0000
0101
0000
0000
0011
0000
0020
0000
0000
0000
0100
0000
0100
0000
,
0100
0000
0000
0000
1000
0000
0000
1000
0000
0000
0000
0000
0001
0000
0001
0000
,
0031
0000
0000
0001
0100
0000
0000
1010
0000
0000
0000
0000
0000
0000
0000
0000
;

//---------------dance-double - ----------------
#NOTEDATA:;
#CHARTNAME:;
#STEPSTYPE:dance-double;
#DESCRIPTION:;
#CHARTSTYLE:;
#DIFFICULTY:Hard;
#METER:11;
#RADARVALUES:0.404201,0.421276,0.339240,0.137140,0.184056,392.000000,345.000000,47.000000,19.000000,0.000000,0.000000,0.000000,0.000000,0.000000,0.404201,0.421276,0.339240,0.137140,0.184056,392.000000,345.000000,47.000000,19.000000,0.000000,0.000000,0.000000,0.000000,0.000000;
#CREDIT:MILEN;
#DISPLAYBPM:110.000000;
#NOTES:
// measure 0
00000000
00000000
00000000
00000000
,  // measure 1
00000000
00000000
00000000
00000000
,  // measure 2
00000000
00000000
00000000
00000000
,  // measure 3
00000000
00000000
00000000
00000000
,  // measure 4
00000000
00000000
00000000
00000000
00000000
00000000
00000000
00000000
01000000
00000000
00000000
00010000
00000000
00000000
00001000
00000000
,  // measure 5
00000000
00000000
00000000
00000000
00000000
00000000
00000000
00000000
00000100
00000000
00000000
00001000
00000000
00000000
00010000
00000000
,  // measure 6
00000000
00000000
00000000
00000000
00000000
00000000
00000000
00000000
00100000
00000000
00000000
00010000
00000000
00000000
00001000
00000000
,  // measure 7
00000000
00000000
00000000
00000000
00011000
00000000
00000000
00010000
00000100
00000000
00000000
00002000
00000000
00003001
00000000
00000000
,  // measure 8
00000001
00000000
00000000
00000000
00000000
00000000
00000000
00000000
00000000
00000100
00000000
00000000
00000010
00000000
00000000
00000000
00000000
00000000
00000000
00000000
00000000
00000000
00000000
00000000
00001010
00000000
00000000
00000000
00000000
00000000
00000000
00000000
00001000
00000000
00000000
00000000
00000100
00000000
00000000
00000000
00010000
00000000
00000000
00000000
00001000
00000000
00000000
00000000
,  // measure 9
01000000
00000000
00000000
00000000
00000000
00010000
00100000
00001000
00010000
00000010
00000000
00000000
,  // measure 10
00000110
00000000
00000000
00000000
00001001
00000000
00000000
00001000
00000100
00000000
00000000
00000100
00010000
00000000
00000000
00010000
,  // measure 11
00001000
00000000
00000000
00001000
00100000
00000000
00000000
01000000
00000000
00000000
10000000
00000000
00000000
00000000
00100000
00000000
,  // measure 12
01100000
00000000
00000000
01000000
00010000
00000000
00000000
00000000
00100000
00000000
00000000
00002000
00020000
00000000
00000000
00000000
,  // measure 13
00000000
00000000
00033000
00000000
00010000
00001000
00000010
00000001
,  // measure 14
00000100
00000000
00000000
00000000
00001000
00010000
01000000
10000000
,  // measure 15
00100000
00000000
00000000
00000000
00010000
00001000
00100000
01000000
,  // measure 16
00010000
00001000
00000010
00000000
00000001
00000100
00001000
00010000
,  // measure 17
00100000
00000000
00000000
10000000
01000000
00000000
11000000
00000000
10000000
00000000
00100000
00000000
00010000
00000000
00001000
00000000
,  // measure 18
00100000
01000000
00010000
00001000
00000010
00000100
00001000
00000010
,  // measure 19
00000001
00000000
00000000
00000110
00000000
00000000
00002002
00000000
00000000
00000000
00000000
00000000
00003003
00000000
00000000
00000000
,  // measure 20
00000110
00000000
00000000
00010010
00000000
00000000
00012000
00000000
00000000
00000000
00200000
00000000
00303000
00000000
00000000
00000000
,  // measure 21
00011000
00000000
00000000
00010000
01000000
00000000
00010000
00000000
00001000
00000000
00010000
00000000
00100000
00000000
10000000
00000000
,  // measure 22
01000000
00000000
00000000
00000000
00010000
00001000
00000100
00000001
,  // measure 23
00000010
00000000
00000000
00000000
00001000
00010000
00000010
00000100
,  // measure 24
00001000
00010000
00100000
00000000
10000000
01000000
00010000
00001000
,  // measure 25
00000010
00000000
00000000
00000001
00000100
00000000
00000101
00000000
00000001
00000000
00000010
00000000
00001000
00000000
00010000
00000000
,  // measure 26
00000010
00000100
00001000
00010000
00100000
01000000
00010000
00100000
,  // measure 27
10000000
00000000
00000000
01100000
00000000
00000000
20020000
00000000
00000000
00000000
00000000
00000000
30030000
00000000
00000000
00000000
,  // measure 28
01100000
00000000
00000000
00101000
00000000
00000000
00021000
00000000
00000000
00000000
00000200
00000000
00030300
00000000
00000000
00000000
,  // measure 29
00011000
00000000
00000000
00001000
00000010
00000000
00000000
00000000
00000001
00000000
00000100
00000000
00001000
00000000
00000100
00000000
,  // measure 30
00000001
00000000
00000000
00000000
00000001
00000000
00000010
00000000
00001000
00000000
00000010
00000000
00000001
00000000
00000000
00000001
,  // measure 31
00000100
00000000
00000000
00000100
00002000
00000000
00000000
00000000
00000000
00000000
00000000
00000000
00013000
00000000
00001000
00000000
,  // measure 32
00000100
00000010
00010000
00000000
00001000
00010000
00100000
01000000
,  // measure 33
00010000
00000000
00000000
10010000
00000000
00000000
00000000
00000000
10000000
00000000
01000000
00000000
00010000
00000000
00001000
00000000
,  // measure 34
00000010
00000000
00000000
00000000
00000001
00000000
00000100
00000000
00001000
00000000
00010000
00000000
00100000
00000000
00000000
00100000
,  // measure 35
10000000
00000000
00000000
10000000
02000000
00000000
00000000
00000000
00000000
00000000
00000000
00000000
03010000
00000000
00001000
00000000
,  // measure 36
00000010
00000000
00000100
00000000
00001000
00000000
00000000
00000000
00010000
00000000
01000000
00000000
00100000
00000000
00010000
00001000
,  // measure 37
00010000
00000000
00000000
00022000
00000000
00000000
00033000
00000000
00001000
00000000
00100000
00000000
01000000
00000000
10000000
00000000
,  // measure 38
00100000
00010000
00001000
00100000
01000000
10000000
00100000
00010000
,  // measure 39
00001000
00100000
01100000
00000000
00000000
10000000
00100000
00010000
,  // measure 40
00000000
00011000
00000000
00001100
00000000
00000001
00000010
00001000
,  // measure 41
00000000
00011000
00000000
01010000
01000000
00001000
00010000
00100000
,  // measure 42
00001000
00000010
00010000
00001000
00000100
00010000
01000000
00001000
,  // measure 43
00010000
00000100
00000110
00000000
00000000
00000001
00000100
00001000
,  // measure 44
00000000
00011000
00000000
01010000
00000000
10000000
00100000
00010000
,  // measure 45
00000000
00011000
00000000
00001100
00000100
00000001
00000010
00001000
,  // measure 46
00010000
00000000
00100000
10000000
01000000
00010000
00001000
00100000
,  // measure 47
01100000
00000000
00000000
00101000
00000000
00000000
00011000
00000000
00010000
00000000
00001000
00000000
00000010
00000000
00000001
00000000
,  // measure 48
00000100
00000000
00001000
00010000
01000000
10000000
00100000
00010000
,  // measure 49
00011000
00000000
00000000
01001000
00000000
00010100
00000000
00000000
00000100
00000000
00000010
00000000
00000001
00000000
00000100
00000000
,  // measure 50
00001000
00000000
00100000
01000000
10000000
00100000
00010000
00001000
,  // measure 51
00011000
00000000
00000000
00010010
00000000
00000000
00001100
00000000
00001000
00000000
00000001
00000000
00000010
00000000
00001000
00000000
,  // measure 52
00010000
00000000
00001000
00010000
01000000
10000000
00010000
00100000
,  // measure 53
01000000
00000000
00000000
01000000
10000000
00000000
00000000
10000000
00200000
00000000
00000000
00000000
01000000
00000000
01000000
00000000
,  // measure 54
01000000
00000000
00000000
00000000
00010000
00000000
00000000
00010000
00000000
00000000
00000000
00000000
10000000
00000000
10000000
00000000
,  // measure 55
10300000
00000000
00000000
11000000
00000000
00000000
01010000
00000000
00020000
00000000
00000000
00000000
00001000
00000000
00001000
00000000
,  // measure 56
00001000
00000000
00000000
00000000
00100000
00000000
00000000
00100000
00000000
00000000
00000000
00000000
00000010
00000000
00000010
00000000
,  // measure 57
00030010
00000000
00000000
00010100
00000000
01001000
00000000
00000000
00002000
00000000
00000000
00000000
00010000
00000000
00010000
00000000
,  // measure 58
00010000
00000000
00000000
00000000
00000010
00000000
00000000
00000010
00000000
00000000
00000000
00000000
00100000
00000000
00100000
00000000
,  // measure 59
00103000
00000000
00000000
00011000
00000000
00000000
00010010
00000000
00000020
00000000
00000000
00000000
00000100
00000000
00000100
00000000
,  // measure 60
00000100
00000000
00000000
00000000
00000001
00000000
00000000
00000001
00000000
00000000
00000000
00000000
00001000
00000000
00001000
00000000
,  // measure 61
00001030
00000000
00000000
00001000
00010000
00000000
00000000
10010000
00000000
00000000
00000000
00000000
00000000
00000000
00000000
00000000
;
