#TITLE:きたさいたま2000;
#SUBTITLE:;
#ARTIST:Linda AI-CUE;
#TITLETRANSLIT:Kita Saitama2000;
#SUBTITLETRANSLIT:;
#ARTISTTRANSLIT:;
#GENRE:VARIETY;
#CREDIT:MUINELIM;
#BANNER:Kita Saitama2000.png;
#BACKGROUND:Kita Saitama2000-bg.png;
#LYRICSPATH:;
#CDTITLE:;
#MUSIC:Kita Saitama2000.mp3;
#OFFSET:0.641000;
#SAMPLESTART:27.745377;
#SAMPLELENGTH:15.135136;
#SELECTABLE:YES;
#BPMS:0.000000=111,36.000000=222,131.000000=111,161.000000=222,248.000000=111,263.000000=222,339.000000=444;
#STOPS:244.000000=0.811,245.000000=1.351,246.000000=1.622,247.000000=2.162,263.000000=0.27;
#BGCHANGES:;
#KEYSOUNDS:;
#ATTACKS:;

//---------------dance-single - ----------------
#NOTES:
     dance-single:
     :
     Beginner:
     6:
     0.212166,0.358102,0.032463,0.024347,0.008116,183.000000,179.000000,4.000000,3.000000,0.000000,0.000000,0.212166,0.358102,0.032463,0.024347,0.008116,183.000000,179.000000,4.000000,3.000000,0.000000,0.000000:
0000
0000
0000
0000
,
0000
0000
0000
0000
,
0000
0000
0000
0000
,
0000
0000
0000
0000
,
0000
0000
0000
0000
,
1000
1000
1000
0000
,
0001
0001
0001
0000
,
1000
1000
0001
0001
,
1000
0001
1000
0001
,
1001
0000
0000
0000
1000
0000
0000
0001
,
0000
0100
0100
0000
,
0001
0000
0000
1000
0000
0000
0010
0000
,
0000
0100
0000
0000
0001
0000
0000
1000
,
0000
0010
0100
0100
,
0100
0000
0000
0001
0000
0000
1000
0000
,
1000
0010
0000
0010
,
0000
0020
0000
0000
,
0030
0010
0000
0000
,
0000
0000
0000
1000
,
1000
0000
0000
0000
,
0000
0000
0000
0001
,
0001
0000
0000
0000
,
0000
0000
0100
0100
,
0000
0000
0000
0000
,
0000
0000
0010
0000
1000
0000
0000
1000
,
0000
0000
0000
0000
,
0000
0000
0100
0100
,
0000
0000
0000
0000
,
0000
0000
0010
0010
,
0000
0000
0000
0000
,
0000
0001
0001
0000
,
0000
0000
0000
0000
,
0100
0000
0100
0000
0000
0010
0000
0000
,
0000
1000
0000
0100
,
0000
0010
0000
0001
,
0000
0100
0000
0010
,
0000
0000
0100
0000
0000
0001
0000
0000
,
0001
0000
0000
0000
0000
0001
0000
0000
0001
0000
0000
0000
0000
0000
0001
0000
,
0000
0000
2000
3000
1000
0000
0000
1000
,
0000
0000
0000
1000
0000
0000
1000
0000
0000
0000
0000
0000
1000
0000
0000
0000
,
0000
1000
0001
0000
0000
0000
0100
0000
,
0000
1000
0000
0100
,
0000
0001
0000
0100
,
0000
1000
0000
0100
,
0000
0001
0000
0100
,
0000
1000
0000
0100
,
0000
0001
0000
0010
,
0000
1000
0000
0010
,
0000
0001
0000
0010
,
0000
1000
0000
0010
,
0000
0001
0000
0010
,
0000
1000
0000
0010
,
0000
0001
0000
1001
,
0000
0000
1000
0000
0000
0001
0000
0000
,
0010
0010
0000
0001
,
0000
1000
0000
0000
0100
0000
0000
0010
,
0000
0000
0001
0000
0000
1000
0000
0000
,
0100
0010
0010
0010
,
0000
0001
0000
0000
1000
0000
1000
0000
,
0100
0000
0100
0000
,
0200
0000
0000
0300
,
0100
0100
0100
0100
,
0100
0000
0100
0000
,
0010
0000
0010
0000
,
1000
1000
0001
0001
,
0100
0010
0100
0110
,
0001
0000
0010
0000
,
1000
0000
0010
0000
,
0001
0000
0010
0000
,
1000
0000
0010
0000
,
0001
0000
0010
0000
,
1000
0000
0010
0000
,
0001
0000
0100
0000
,
1000
0000
0100
0000
,
0001
0000
0100
0000
,
1000
0000
0100
0000
,
0001
0000
0100
0000
,
1000
0000
0100
0000
,
0001
0000
0010
0000
,
1000
0000
0010
0000
,
0001
0000
0100
0000
,
1000
0000
0100
0000
,
0001
0000
0010
0000
,
1000
0000
0100
0000
,
0001
0000
1000
1000
,
0000
0000
0000
0001
,
0000
0000
1000
0000
,
0001
0000
1000
0000
,
0000
1001
0000
0000
;

//---------------dance-single - ----------------
#NOTES:
     dance-single:
     :
     Hard:
     16:
     0.783738,0.931066,0.251585,0.202891,0.389550,676.000000,645.000000,31.000000,25.000000,0.000000,0.000000,0.783738,0.931066,0.251585,0.202891,0.389550,676.000000,645.000000,31.000000,25.000000,0.000000,0.000000:
0000
0000
0000
0000
,
0000
0000
0000
0000
,
0000
0000
0000
0000
,
0000
0000
0000
0000
,
0000
0000
0000
0000
,
0001
0100
0010
1100
,
1000
0010
0100
0011
,
0001
1000
0010
0100
0010
1000
0001
0100
,
0010
1000
0010
1000
0001
0100
0001
0100
0010
1000
0001
0100
0010
1000
0001
0100
,
0220
0000
0330
0000
0001
0001
0000
1000
,
1000
0010
0100
0001
0020
0000
0230
0000
,
0320
0000
0031
0001
0100
0010
1000
0100
,
0010
0100
0010
0001
0001
1000
0010
0100
,
0001
0010
0110
0000
0100
1000
0001
1000
,
0100
0000
0010
0001
1000
0001
0010
0100
,
1100
0000
1000
1000
0010
0010
0100
0100
,
0001
0000
0001
0000
1000
0100
1000
0000
0001
0010
0001
0000
1000
0010
1000
0000
,
0001
0100
0001
0000
1000
0000
0010
0000
1000
0000
0010
0000
1000
0000
0010
0000
,
1000
0000
0010
0000
0010
0000
1000
0000
1000
0000
0010
0100
0010
0000
0000
0000
,
0100
0001
0100
0001
0100
0001
0100
0001
,
0001
0000
0100
0000
0100
0000
0010
0100
0001
0000
0001
0000
1000
0000
1000
0000
,
0001
0010
0001
0010
0001
0010
0001
0010
,
0010
0000
0001
0000
0001
0000
0010
0100
0010
0000
0000
0000
0100
0000
1000
0000
,
0100
1000
0100
1000
0100
1000
0100
0100
,
1000
0000
1000
0000
0001
0000
0001
0000
0010
0000
0010
0000
0001
0100
0001
0100
,
0010
1000
0001
1000
0010
1000
0001
1000
,
1000
0000
0010
0000
0010
0000
1000
0100
1000
0000
0000
0000
0001
0000
0100
0000
,
0001
1000
0001
0100
0001
1000
1000
0001
,
0001
0000
0100
0001
0010
0000
0010
0000
0100
0000
0100
0000
1000
0000
0010
0000
,
0100
0010
1000
0010
0100
0010
0010
1000
,
1000
0000
0100
1000
0100
0000
0000
0000
0010
0000
0001
0000
0010
0000
0100
0000
,
0010
0001
0010
0100
0010
0010
0001
0001
,
1000
0000
1000
0000
0100
0000
0100
0000
0010
0100
0010
0100
0020
0000
0000
0000
,
0000
0001
0000
0230
,
0000
1000
0000
0320
,
0000
1000
0000
0230
,
0000
0000
0001
0000
0000
0310
0000
0000
,
0011
0000
0000
0000
0000
0101
0000
0000
1100
0000
0000
0000
0000
0000
1010
0000
,
0000
0000
0000
0000
0000
0000
0000
0000
0010
0100
0001
1000
0010
0000
0000
0000
0110
0000
0000
0000
0000
0000
0000
0000
0000
0000
0000
0000
0101
0000
0000
0000
,
0000
0000
0000
0011
0000
0000
1010
0000
0000
0000
0000
0000
1100
0000
0000
0000
,
0000
0000
0000
0000
1000
0010
0100
0001
1000
0000
0000
0000
0100
0000
0000
0000
0010
0000
0000
0000
0100
0000
0000
0000
1000
0000
0000
0000
0100
0000
0000
0000
,
0010
0000
0100
0000
1000
0000
0010
0000
0110
0000
0000
0000
0100
0000
0001
0010
,
0001
0010
0100
0010
0001
0010
0100
0010
,
0011
0000
0000
0000
0100
0000
1000
0010
1000
0000
0100
0000
1000
0000
0010
0000
,
1000
0000
0100
0000
1000
0000
0010
0000
0110
0000
0000
0000
0100
0000
0001
0010
,
0001
0000
0100
0000
0001
0000
0010
0000
0001
0000
0100
0000
0010
1000
0010
0000
,
0100
0001
0100
0000
0001
1000
0001
1000
0010
0000
0100
0000
0001
0000
0010
0000
,
0100
0000
0010
0000
0001
0000
0100
0000
0010
0000
1000
0100
1000
0000
0000
0000
,
0010
0000
1000
0100
1000
0000
0010
0000
0100
0000
0001
0000
0010
0000
0001
0000
,
0100
0000
0010
0100
0010
0000
0000
0000
1000
0000
0001
0100
0001
0000
0010
0000
,
0100
0000
1000
0000
0010
0000
1000
0000
0100
0000
0010
0100
0010
0000
0000
0000
,
0001
0000
0100
0010
1000
0000
0010
0000
0100
0000
0001
0000
0100
0000
0010
0000
,
1000
0100
1000
0000
0001
0010
0001
0000
0100
0010
0100
0010
0200
0000
0000
0000
,
0300
0000
0001
0001
0000
1000
1000
0100
,
0010
0001
0200
0000
0320
0000
0230
0000
,
0301
0001
0010
0100
1000
0010
0100
0010
,
0100
0001
0001
1000
0100
0010
0001
0100
,
0110
0000
0010
1000
0001
1000
0010
0000
,
0100
0001
1000
0001
0100
0010
1010
0000
,
1000
1000
0100
0100
0010
0010
0001
0001
,
1000
0010
0100
0000
0001
0100
0010
0000
1000
0100
0010
0000
0001
0010
0100
1000
,
0002
0023
2030
3200
,
0301
1000
0010
0001
,
0100
1000
0001
1001
,
1000
0010
0001
1000
0100
0001
0010
0100
,
1000
0010
1000
0010
0100
0001
0100
0001
0010
0100
0010
0100
1001
0000
0000
0000
,
0001
0000
0100
0010
0100
0000
0001
0000
0010
0000
1000
0000
0010
0000
0001
0000
,
0100
0000
0010
0100
0010
0000
1000
0010
1000
0010
1000
0000
0100
0000
0001
0000
,
0100
1000
0010
0100
0010
1000
1100
0000
,
0010
0000
0001
0100
0001
0000
0010
0000
0100
0000
0001
0000
0100
0000
1000
0000
,
0010
0000
0100
0001
0100
0000
0010
1000
0010
1000
0001
0000
0010
0000
0100
0000
,
1000
0000
0010
0000
0001
0000
0010
0000
1000
0000
0100
0000
0010
0000
0001
0100
,
0001
0100
0010
0000
0100
0000
0001
0010
0100
0000
1000
0000
0100
0000
0001
0000
,
0100
0000
1000
0000
0100
0000
0010
0001
0100
0000
0010
1000
0010
1000
0100
0000
,
1000
0001
0010
1000
0010
0001
1000
0100
,
1100
1010
0011
0101
,
1100
0000
0000
0000
1010
0000
0010
0100
0001
0000
0100
0000
0010
0100
0010
0100
,
0001
0000
0010
0000
1000
0000
0001
0000
0100
0000
1000
0000
0001
0100
0010
0000
,
1000
0010
0100
0000
0001
0010
0001
0010
0100
0000
1000
0100
0010
0000
0001
0000
,
0100
0000
0010
0000
1000
0000
0100
0010
0100
0000
1000
0010
0100
0000
0001
0100
,
0010
0000
1000
0000
0100
0000
0001
0000
0100
0000
1000
0100
0010
0000
0100
0010
,
0001
0000
0100
0010
1000
0000
0010
0000
0100
0001
0100
0001
0100
0001
0100
0001
,
0200
0000
0000
0000
0320
0000
0000
0000
1030
0000
1000
0001
0100
0000
0001
1000
,
0010
0000
0100
0000
0010
0100
0010
0000
0100
0000
0001
0010
0100
1000
0001
0010
,
0200
2300
3002
0203
0320
2030
3001
0000
,
0000
0000
0000
0110
,
0110
0000
1000
1000
,
0010
0000
0010
0000
0001
0100
0001
0000
,
0000
1001
0000
0000
;

//---------------dance-double - ----------------
#NOTES:
     dance-double:
     :
     Hard:
     16:
     0.764029,0.859445,0.316510,0.146081,0.288105,659.000000,620.000000,39.000000,18.000000,0.000000,0.000000,0.764029,0.859445,0.316510,0.146081,0.288105,659.000000,620.000000,39.000000,18.000000,0.000000,0.000000:
// measure 0
00000000
00000000
00000000
00000000
,  // measure 1
00000000
00000000
00000000
00000000
,  // measure 2
00000000
00000000
00000000
00000000
,  // measure 3
00000000
00000000
00000000
00000000
,  // measure 4
00000000
00000000
00000000
00000000
,  // measure 5
00010000
00001000
00010000
00010010
,  // measure 6
00001000
00010000
00001000
01001000
,  // measure 7
00010000
00001000
00010000
00100000
00010000
00001000
00000100
00001000
,  // measure 8
00010000
00000010
00010000
00000000
00001000
01000000
00001000
00000000
00010000
00000100
00010000
00000000
00001000
00100000
00001000
00000000
,  // measure 9
00022000
00000000
00033000
00000000
00010000
00010000
00000000
00001000
,  // measure 10
00001000
00000100
00000001
00000010
00000110
00000000
00001100
00000000
,  // measure 11
00011000
00000000
00010000
00010000
01000000
10000000
00100000
01000000
,  // measure 12
00100000
01000000
00010000
00100000
00100000
01000000
10000000
00100000
,  // measure 13
00010000
00001000
00011000
00000000
00010000
00001000
00000010
00001000
,  // measure 14
00010000
00000000
00001000
00010000
00100000
00010000
00001000
00000100
,  // measure 15
00000101
00000000
00000001
00000001
00000010
00000010
00000100
00000100
,  // measure 16
00001000
00001000
00000010
00000100
00001000
00010000
00100000
01000000
,  // measure 17
00100000
00100000
10000000
01000000
10000000
01000000
10000000
01000000
,  // measure 18
10000000
00000000
01000000
00000000
01000000
00000000
00010000
00000000
00010000
00000000
00001000
00010000
00001000
00000000
00000000
00000000
,  // measure 19
00000100
00000001
00000100
00000001
00000100
00000001
00000100
00000001
,  // measure 20
00000001
00000000
00000010
00000000
00000010
00000000
00001000
00010000
00001000
00000000
00001000
00000000
00010000
00000000
00010000
00000000
,  // measure 21
00100000
10000000
00100000
10000000
00100000
10000000
00100000
10000000
,  // measure 22
10000000
00000000
00100000
00000000
00100000
00000000
10000000
01000000
10000000
00000000
00000000
00000000
01000000
00000000
00010000
00000000
,  // measure 23
01000000
00010000
01000000
00010000
01000000
00010000
01000000
01000000
,  // measure 24
00010000
00000000
00010000
00000000
00001000
00000000
00001000
00000000
00000010
00000000
00000010
00000000
00000001
00000100
00000001
00000000
,  // measure 25
00001000
00000100
00000010
00000001
00001000
00000100
00000010
00000001
,  // measure 26
00000001
00000000
00001000
00000000
00001000
00000000
00000100
00000010
00000100
00000000
00000000
00000000
00010000
00000000
00001000
00000000
,  // measure 27
00000100
00000010
00010000
00001000
00000100
00000010
00000010
00010000
,  // measure 28
00010000
00000000
00001000
00010000
00001000
00000000
00001000
00000000
00010000
00000000
00010000
00000000
00100000
00000000
01000000
00000000
,  // measure 29
00001000
00010000
00100000
01000000
00001000
00010000
00010000
00100000
,  // measure 30
00100000
00000000
10000000
01000000
10000000
00000000
00000000
00000000
00010000
00000000
00100000
00000000
01000000
00000000
10000000
00000000
,  // measure 31
00010000
00100000
01000000
10000000
00100000
00100000
00010000
00010000
,  // measure 32
00001000
00000000
00001000
00000000
00000100
00000000
00000100
00000000
00000001
00000010
00000001
00000010
00000002
00000000
00000000
00000000
,  // measure 33
00000000
00000203
00000000
00000320
,  // measure 34
00000000
00002030
00000000
00023000
,  // measure 35
00000000
00230000
00000000
02300000
,  // measure 36
00000000
00000000
23000000
00000000
00000000
30010000
00000000
00000000
,  // measure 37
01010000
00000000
00000000
00000000
00000000
01001000
00000000
00000000
00010010
00000000
00000000
00000000
00000000
00000000
00001010
00000000
,  // measure 38
00000000
00000000
00000000
00000000
00000000
00000000
00000000
00000000
00001000
00000100
00001000
00000100
00000010
00000000
00000000
00000000
00000011
00000000
00000000
00000000
00000000
00000000
00000000
00000000
00000000
00000000
00000000
00000000
00010100
00000000
00000000
00000000
,  // measure 39
00000000
00000000
00000000
00101000
00000000
00000000
11000000
00000000
00000000
00000000
00000000
00000000
10010000
00000000
00000000
00000000
,  // measure 40
00000000
00000000
00000000
00000000
00010000
01000000
00010000
01000000
00100000
00000000
00000000
00000000
10000000
00000000
00000000
00000000
01000000
00000000
00000000
00000000
00100000
00000000
00000000
00000000
01000000
00000000
00000000
00000000
10000000
00000000
00000000
00000000
,  // measure 41
01000000
00000000
00010000
00000000
00001000
00000000
00000010
00000000
00000011
00000000
00000000
00000000
00000001
00000000
00000100
00000010
,  // measure 42
00000100
00000001
00000010
00000100
00000010
00000001
00000010
00001000
,  // measure 43
00011000
00000000
00000000
00000000
00010000
00000000
01000000
00100000
01000000
00000000
10000000
00000000
01000000
00000000
00100000
00000000
,  // measure 44
01000000
00000000
10000000
00000000
00100000
00000000
00010000
00000000
00011000
00000000
00000000
00000000
00001000
00000000
00000100
00000010
,  // measure 45
00000100
00000001
00000010
00001000
00000010
00000001
00000100
00000100
,  // measure 46
00001000
00000000
00001000
00000000
00010000
00001000
00010000
00001000
00100000
00000000
00010000
00000000
01000000
00000000
00100000
00000000
,  // measure 47
00010000
00000000
00100000
00000000
01000000
00000000
00010000
00000000
00100000
00000000
01000000
10000000
01000000
00000000
00000000
00000000
,  // measure 48
10000000
00000000
00100000
01000000
00100000
00000000
00010000
00000000
00001000
00000000
00100000
00000000
00001000
00000000
00010000
00000000
,  // measure 49
00100000
00000000
01000000
00100000
01000000
00000000
00000000
00000000
00010000
00000000
00100000
01000000
00100000
00000000
00010000
00000000
,  // measure 50
01000000
00000000
00100000
00000000
00010000
00000000
00001000
00000000
00000100
00000000
00000010
00000100
00000010
00000000
00000000
00000000
,  // measure 51
00000100
00000000
00000001
00000010
00000001
00000000
00000100
00000000
00001000
00000000
00010000
00000000
00100000
00000000
10000000
00000000
,  // measure 52
01000000
00000000
01000000
00000000
00010000
00000000
00010000
00000000
00001000
00010000
00001000
00020000
00002000
00000000
00000000
00000000
,  // measure 53
00033000
00000000
00001000
00001000
00000000
00010000
00010000
01000000
,  // measure 54
10000000
00100000
01100000
00000000
01010000
00000000
00011000
00000000
,  // measure 55
00001000
00001000
00000100
00000001
00000010
00000100
00000010
00000100
,  // measure 56
00001000
00000010
00000010
00000100
00000001
00000010
00001000
00010000
,  // measure 57
00011000
00000000
00001000
00010000
00100000
00010000
00001000
00000000
,  // measure 58
00010000
00001000
00000010
00001000
00010000
01000000
11000000
00000000
,  // measure 59
10000000
10000000
00100000
00100000
01000000
01000000
00010000
00010000
,  // measure 60
00100000
01000000
00010000
00001000
00000010
00000100
00001000
00000001
,  // measure 61
00000021
00002030
00023000
02030000
,  // measure 62
13000000
00100000
00010000
00001000
,  // measure 63
00000100
00000001
00000010
00000110
,  // measure 64
00000001
00000100
00001000
00010000
00100000
10000000
01000000
00100000
,  // measure 65
00010000
01000000
00010000
01000000
00001000
00010000
00001000
00010000
00000100
00001000
00000100
00001000
00001001
00000000
00000000
00000000
,  // measure 66
00000001
00000000
00000100
00000010
00001000
00000000
00000010
00000000
00000100
00000000
00000001
00000000
00000010
00000000
00000100
00000000
,  // measure 67
00001000
00000000
00000100
00010000
00001000
00000000
00010000
00001000
00100000
00001000
00010000
00000000
00001000
00000000
00100000
00000000
,  // measure 68
00010000
01000000
00100000
10000000
01000000
00100000
00110000
00000000
,  // measure 69
00010000
00000000
01000000
00100000
10000000
00000000
00100000
00000000
01000000
00000000
00010000
00000000
00100000
00000000
00001000
00000000
,  // measure 70
00010000
00000000
00000100
00001000
00000010
00000000
00001000
00000100
00000010
00000100
00001000
00000000
00000010
00000000
00000100
00000000
,  // measure 71
00000001
00000000
00001000
00000000
00000100
00000000
00000010
00000000
00000001
00000000
00000100
00000000
00001000
00000000
00010000
00001000
,  // measure 72
00010000
00001000
00010000
00000000
01000000
00000000
10000000
00100000
01000000
00000000
00100000
00000000
10000000
00000000
01000000
00000000
,  // measure 73
00100000
00000000
00010000
00000000
10000000
00000000
00100000
01000000
00010000
00000000
00100000
00010000
01000000
00010000
00100000
00000000
,  // measure 74
00001000
00010000
00100000
00010000
00001000
00000100
00000010
00000100
,  // measure 75
00000101
00001100
00011000
00110000
,  // measure 76
10100000
00000000
00000000
00000000
10010000
00000000
00010000
00000000
01000000
00000000
00100000
00000000
10000000
01000000
10000000
01000000
,  // measure 77
00010000
00000000
00001000
00000000
00010000
00000000
00100000
00000000
00010000
00000000
00001000
00000000
00010000
00001000
00010000
00000000
,  // measure 78
00000100
00000000
00000100
00000000
00000010
00000100
00000010
00000000
00000010
00000000
00000001
00000100
00000001
00000000
00000010
00000000
,  // measure 79
00000100
00000000
00001000
00000000
00000100
00000000
00010000
00001000
00010000
00000000
01000000
00000000
01000000
00000000
10000000
00100000
,  // measure 80
01000000
00000000
10000000
00000000
01000000
00000000
00010000
00000000
00100000
00000000
01000000
00100000
01000000
00000000
00100000
00000000
,  // measure 81
00001000
00000000
00010000
00001000
00010000
00000000
00000100
00000000
00000010
00000000
00000010
00000000
00000001
00000100
00000001
00000100
,  // measure 82
00000020
00000000
00000000
00000000
00002030
00000000
00000000
00000000
00003100
00000000
00000100
00010000
00001000
00000000
01000000
00001000
,  // measure 83
00010000
00000000
00001000
00000000
00100000
00010000
01000000
00000000
00100000
00000000
10000000
01000000
10000000
01000000
00100000
00010000
,  // measure 84
00100000
00001000
00010000
00000100
00000010
00000001
00001001
00000000
,  // measure 85
00000000
00000000
00000000
00000110
,  // measure 86
00000110
00000000
00000010
00001000
,  // measure 87
00010000
00000000
01000000
00000000
10000000
00010000
10000000
00000000
,  // measure 88
00000000
10010000
00000000
00000000
;

//---------------dance-single - ----------------
#NOTES:
     dance-single:
     :
     Easy:
     11:
     0.424332,0.572964,0.389550,0.032463,0.008116,366.000000,318.000000,48.000000,4.000000,0.000000,0.000000,0.424332,0.572964,0.389550,0.032463,0.008116,366.000000,318.000000,48.000000,4.000000,0.000000,0.000000:
0000
0000
0000
0000
,
0000
0000
0000
0000
,
0000
0000
0000
0000
,
0000
0000
0000
0000
,
0000
0000
0000
0000
,
1000
0100
0010
0001
,
1000
0100
0010
0001
,
1000
1000
1000
0000
0001
0001
0001
0000
,
0100
0100
0010
0010
0100
0100
0010
0010
,
1001
0000
0000
0000
1000
1000
0000
0001
,
0000
1000
0000
0100
0000
0000
1000
0000
,
0001
0000
0010
0010
0000
0001
0000
0001
,
0000
0100
0000
0100
0000
0010
0000
0010
,
0000
1000
0000
0000
0001
0000
0001
0000
,
0001
0100
0100
0010
,
0010
2000
0000
0000
,
0000
3001
0010
0100
,
1000
0001
0100
0001
,
0010
0001
0100
0001
,
1000
0010
1000
0100
,
1000
0010
1000
1000
,
0001
0010
0001
0100
,
0001
0010
0001
1000
,
0100
1000
0010
1000
,
0100
1000
1000
0001
,
0100
1000
0100
0001
,
0100
1000
0100
0010
,
0001
0010
1000
0010
,
0001
0010
0010
0100
,
0001
0100
1000
0100
,
0001
0100
0010
0001
,
0010
1000
0010
0001
,
0010
0010
0100
0110
,
0000
1000
0000
0010
,
0000
0001
0000
0100
,
0000
1000
0000
0010
,
0000
0000
0110
0000
0000
0100
0000
0000
,
0001
0000
0000
0000
0000
1000
0000
0000
1000
0000
0000
0000
0000
0000
0010
0000
,
0000
0000
0100
0100
0110
0000
0000
0010
,
0000
0000
0000
1000
0000
0000
1000
0000
0000
0000
0000
0000
0001
0000
0000
0000
,
0000
0100
0100
0000
0001
0000
0010
0000
,
0001
0100
0110
0110
,
0010
1000
0001
0100
,
0110
0110
1001
0001
,
0010
0100
1100
1100
,
1000
0100
0010
0011
,
0011
1001
1000
0010
,
0100
0001
0010
0110
,
0110
0100
1000
0001
,
0010
0110
1001
1001
,
0001
0100
0010
1010
,
0101
0100
0001
0010
,
0011
0011
1100
1001
,
0000
0000
0001
0001
0000
1000
0000
0001
,
0000
0100
0000
0000
0001
0000
1000
0000
,
0010
0010
0000
1000
0000
1000
0000
0100
,
0000
0100
0000
0010
0000
0010
0000
0001
,
0000
1000
1000
1000
,
0100
0100
0010
0010
,
0002
0000
0000
0000
,
0003
1000
0010
0100
,
0001
0010
1000
0100
,
0220
0000
0000
0000
,
0000
0000
0000
0330
,
1000
0010
0001
0100
,
1000
0010
0100
0001
1000
0010
0110
0000
,
0001
0100
1000
0100
,
0001
0011
1100
1000
,
0010
0100
0001
0101
,
1010
0110
0100
0001
,
0010
0110
1100
1000
,
0010
0100
0101
1010
,
1100
0100
0001
0100
,
1000
0010
0110
0101
,
0001
0010
0100
1000
,
1010
0101
0011
0010
,
0100
1000
1010
0101
,
0100
0001
0010
0011
,
1100
0000
0110
0000
0010
0001
0100
0000
,
1000
0100
0001
0010
,
0010
0000
0100
1000
0010
0000
0001
0000
,
0010
0000
1000
0000
0100
0000
0010
0001
,
1000
0100
0001
0100
,
1000
0000
0010
0100
0001
0000
0100
0010
,
1000
0000
0010
0100
0001
1000
0010
0000
,
0000
0000
0000
0100
,
0100
0000
0001
0000
,
1000
0000
0001
0001
,
0000
1001
0000
0000
;

//---------------dance-single - ----------------
#NOTES:
     dance-single:
     :
     Medium:
     14:
     0.655047,0.787825,0.754754,0.186660,0.052752,565.000000,472.000000,93.000000,23.000000,0.000000,0.000000,0.655047,0.787825,0.754754,0.186660,0.052752,565.000000,472.000000,93.000000,23.000000,0.000000,0.000000:
0000
0000
0000
0000
,
0000
0000
0000
0000
,
0000
0000
0000
0000
,
0000
0000
0000
0000
,
0000
0000
0000
0000
,
1000
0010
0100
0101
,
0001
0100
0010
1010
,
1000
0100
1000
0100
0010
0001
0010
0001
,
0100
0001
0100
0000
0010
1000
0010
0000
0100
0010
0100
0000
0001
1000
0001
1000
,
0002
0000
0000
0000
0103
0100
0000
0010
,
1000
0010
1000
0010
1000
0000
0200
0000
,
0320
0000
0031
0100
0001
0100
0010
0100
,
0001
0010
0001
0100
0010
1000
0100
1000
,
0010
0100
0010
0000
1000
0100
0010
0001
,
0010
0000
0001
0010
0100
1000
0100
1000
,
0001
0000
1000
0010
0100
0001
0100
0010
,
1000
0100
0020
0000
0032
0000
2003
0000
,
3200
0000
1300
1010
0000
0011
0000
1010
,
0000
1100
0000
0101
0000
0001
1000
0000
,
0001
0101
0000
1100
0000
0101
0000
0011
,
0000
1010
0000
0001
0100
0100
0010
0010
,
1000
1100
0000
0101
0000
1100
0000
1010
,
0000
0011
0000
0001
1000
0000
0001
0011
,
0000
1010
0000
0011
0000
0101
0000
1100
,
0000
0001
0010
0010
0100
0100
2000
0000
,
3001
0101
0000
0110
0000
1100
0000
0011
,
0000
0110
0000
1000
0001
0000
1000
1010
,
0000
0110
0000
0011
0000
1100
0000
0110
,
0000
0001
0100
0100
0010
0010
1000
1100
,
0000
0110
0000
0101
0000
1010
0000
0110
,
0000
0001
1000
0000
0001
0101
0000
0110
,
0000
1100
0000
0011
0000
0110
0000
1000
,
0100
0100
0010
0010
0002
0000
2003
0000
,
0000
0010
0000
3002
,
0000
0100
0000
2003
,
0000
0100
0000
3002
,
0000
0000
0010
0000
0000
1003
0000
0000
,
1100
0000
0000
0000
0000
0100
0000
0000
0110
0000
0000
0000
0000
0000
0010
0000
,
0000
0000
0000
0000
0001
0100
0010
0000
0110
0000
0000
0000
0000
0000
0100
0000
,
0000
0000
0000
0101
0000
0000
0001
0000
0000
0000
0000
0000
1001
0000
0000
0000
,
0000
0000
1000
0010
0100
0000
0001
0000
0100
0000
0001
0000
0010
0000
0100
0000
,
0010
0100
1000
0000
1010
0000
0101
0000
,
0001
0010
0001
0010
0100
1000
0100
0000
,
1100
0000
0011
0000
0101
0000
0100
0010
,
1000
0001
0010
0000
0110
0000
1100
0000
,
1000
0010
0100
0001
1000
0000
1100
0000
,
0110
0000
0011
0000
0010
0001
0010
0001
,
0100
0010
0100
0010
1000
0000
1100
0000
,
0011
0000
0001
0100
0001
0100
0010
1000
,
0010
1010
0101
0011
,
0010
0100
1000
0001
0100
0000
0110
0000
,
1010
0000
1000
0100
0010
0001
1000
0000
,
1010
0110
0101
2001
,
0000
0000
3100
0100
0000
0010
0001
0010
,
0001
0010
0001
0000
0200
0000
0320
0000
,
1030
0100
1000
0100
0010
0100
1000
0010
,
1000
0100
0010
0001
0100
0001
0010
0100
,
0010
0000
0001
0100
0010
1000
0010
0000
,
1000
0010
0100
0001
0100
0001
1000
0000
,
0001
0010
0100
1000
0100
0010
0001
0100
,
0020
2030
3002
0203
,
0310
1010
1100
0101
,
0022
0000
0000
0000
,
0000
0000
0000
0033
,
0001
0100
0010
1000
0001
0010
0100
1000
,
0010
0100
0010
0100
0010
0000
1000
0001
1000
0001
1000
0000
1001
0000
0000
0000
,
0001
0100
0010
1000
0010
0100
0001
0010
,
0100
1000
1100
0000
0011
0000
0001
0100
,
0010
1000
0010
0100
0001
0010
0011
0000
,
1100
0000
1010
0000
0010
0100
0001
1000
,
0010
0100
0101
0000
1010
0000
1100
0000
,
0100
0010
0001
1000
0100
0010
0011
0000
,
1100
0000
1000
0010
0001
0010
1000
0100
,
0001
0100
1000
0010
0010
0000
1001
0000
,
0001
0100
1000
0100
0001
0010
0100
1000
,
1010
0011
0101
1100
,
1001
0000
0110
0010
1000
0100
0010
0001
,
0100
1000
0100
0001
0010
1000
0010
0001
,
0100
0010
2000
0000
3001
0100
0001
0100
,
1000
0100
0001
0010
0100
0010
0001
0100
,
0100
0010
1000
0100
1000
0100
0001
0100
,
1000
0010
0100
0001
0001
0010
0100
1000
,
0010
1000
0010
0001
0010
1000
0100
0010
,
0010
0100
1000
0001
0010
0001
0010
1000
,
0010
0001
0100
0010
1000
0001
1001
0000
,
0000
0000
0000
0100
,
0110
0000
0010
1000
,
0001
0100
0100
0100
,
0000
1001
0000
0000
;

//---------------dance-double - ----------------
#NOTES:
     dance-double:
     :
     Medium:
     14:
     0.608672,0.680394,0.495054,0.219122,0.024347,525.000000,464.000000,61.000000,27.000000,0.000000,0.000000,0.608672,0.680394,0.495054,0.219122,0.024347,525.000000,464.000000,61.000000,27.000000,0.000000,0.000000:
00000000
00000000
00000000
00000000
,
00000000
00000000
00000000
00000000
,
00000000
00000000
00000000
00000000
,
00000000
00000000
00000000
00000000
,
00000000
00000000
00000000
00000000
,
01000000
00001000
00010000
00011000
,
00000010
00010000
00001000
00011000
,
00100000
00010000
01000000
00001000
00010000
00000100
00001000
00000010
,
00010000
00000000
00001000
00000000
00100000
00000000
01000000
00000000
00010000
00000000
00001000
00000000
00000010
00000100
00000010
00000100
,
00000020
00000000
00000000
00000000
00000031
00000001
00000000
00001000
,
00000010
00001000
00000010
00001000
00000010
00000000
00020000
00000000
,
00032000
00000000
01003000
00010000
01000000
00010000
00100000
01000000
,
00100000
00010000
10000000
01000000
00100000
01000000
10000000
00100000
,
01000000
00010000
01000000
00000000
00100000
10000000
00100000
01000000
,
00010000
00000000
00100000
00010000
00100000
00001000
00010000
00001000
,
00100000
00000000
00010000
01000000
00100000
00010000
00001000
00000100
,
00000010
00001000
00000002
00000000
00000203
00000000
00002300
00000000
,
00023000
00000000
00030100
00000100
00000000
00000110
00000000
00000010
,
00000000
00000011
00000000
00000001
00000000
00000100
00001000
00000000
,
00010000
00010000
00000000
00011000
00000000
00001000
00000000
00101000
,
00000000
00100000
00000000
01000000
10000000
00100000
01000000
00010000
,
00100000
00100000
00000000
00101000
00000000
00001000
00000000
00011000
,
00000000
00010000
00000000
00000100
00001000
00000000
00000010
00000010
,
00000000
00000110
00000000
00000100
00000000
00000101
00000000
00000001
,
00000000
00001000
00000010
00010000
00001000
00100000
00020000
00000000
,
10030000
10000000
00000000
11000000
00000000
01000000
00000000
01010000
,
00000000
00010000
00000000
00001000
00010000
00000000
00000100
00001100
,
00000000
00001000
00000000
00001001
00000000
00000001
00000000
00000100
,
00000000
00000010
00001000
00000100
00010000
00001000
00100000
00100000
,
00000000
00110000
00000000
00010000
00000000
01010000
00000000
01000000
,
00000000
00100000
10000000
00000000
01000000
01000000
00000000
01100000
,
00000000
00100000
00000000
00101000
00000000
00001000
00000000
00010000
,
00001000
00000100
00000010
00000100
00000002
00000000
00000023
00000000
,
00000000
00002030
00000000
00023000
,
00000000
02030000
00000000
23000000
,
00000000
30200000
00000000
00320000
,
00000000
00000000
00032000
00000000
00000000
00003010
00000000
00000000
,
00000011
00000000
00000000
00000000
00000000
00000001
00000000
00000000
00000101
00000000
00000000
00000000
00000000
00000000
00000100
00000000
,
00000000
00000000
00000000
00000000
00000100
00001000
00010000
00000000
00011000
00000000
00000000
00000000
00000000
00000000
00001000
00000000
,
00000000
00000000
00000000
01001000
00000000
00000000
01000000
00000000
00000000
00000000
00000000
00000000
01100000
00000000
00000000
00000000
,
00000000
00000000
00100000
10000000
01000000
00000000
00100000
00000000
01000000
00000000
00100000
00000000
00010000
00000000
01000000
00000000
,
00001000
00010000
00000010
00000000
00001010
00000000
00000101
00000000
,
00000001
00000010
00000001
00000010
00000100
00001000
00000100
00000000
,
00010100
00000000
00011000
00000000
01001000
00000000
01000000
00010000
,
01000000
00100000
10000000
00000000
10100000
00000000
01010000
00000000
,
00010000
00100000
00010000
00100000
00001000
00000000
00011000
00000000
,
00010010
00000000
00101000
00000000
00100000
00010000
00100000
00010000
,
01000000
00001000
00010000
00000100
00001000
00000000
00001001
00000000
,
00000110
00000000
00000010
00010000
00000010
00010000
00001000
00100000
,
00001000
00011000
00010100
01001000
,
01000000
00010000
01000000
00010000
00100000
00000000
01100000
00000000
,
11000000
00000000
10000000
00100000
10000000
00100000
01000000
00000000
,
01010000
10010000
10100000
00200000
,
00000000
00000000
10300000
10000000
00000000
00010000
00100000
00010000
,
00100000
00010000
00100000
00000000
00002000
00000000
00023000
00000000
,
00030100
00001000
00000100
00001000
00000010
00000100
00000010
00001000
,
00000001
00000100
00000010
00000100
00000001
00000010
00000100
00001000
,
00000100
00000000
00000010
00000001
00000010
00000100
00001000
00000000
,
00000100
00001000
00000100
00010000
00001000
00010000
00000100
00000000
,
00001000
00000010
00000100
00001000
00010000
00100000
01000000
00010000
,
20000000
30200000
00320000
00032000
,
00103000
00110000
00011000
00001010
,
00000220
00000000
00000000
00000000
,
00000000
00000000
00000000
00000330
,
00001000
00000001
00000100
00001000
00010000
00100000
10000000
01000000
,
00100000
00010000
00001000
00000010
00000100
00000001
00001001
00000000
,
00001000
00000010
00010000
00001000
00010000
00000010
00001000
00000100
,
00000010
00000001
00000100
00000000
00001100
00000000
00001000
00010000
,
00100000
10000000
01000000
00100000
01000000
10000000
00100000
00000000
,
01010000
00000000
10100000
00000000
10000000
01000000
00100000
00010000
,
01000000
00001000
00010000
00000000
00010010
00000000
01001000
00000000
,
01000000
00100000
00010000
00001000
00000100
00000010
00001000
00000000
,
00001100
00000000
00000010
00000001
00000100
00001000
00000100
00000001
,
00000010
00001000
00010000
01000000
10000000
00000000
11000000
00000000
,
00100000
00010000
01000000
00100000
01000000
00010000
00100000
01000000
,
10000000
10100000
00110000
00011000
,
00001100
00000000
00000100
00000001
00000010
00000100
00000010
00000001
,
00001000
00000100
00000010
00001000
00000010
00000100
00001000
00000010
,
00000100
00000001
00002000
00000000
00003010
00010000
00001000
00100000
,
00010000
01000000
00100000
10000000
00100000
01000000
00010000
00100000
,
01000000
00100000
01000000
10000000
00100000
00010000
00001000
00100000
,
00010000
01000000
00001000
00000000
00010000
00001000
00000100
00000010
,
00001000
00000100
00000010
00000100
00000010
00000001
00000100
00001000
,
00010000
01000000
10000000
00010000
01000000
00100000
01000000
00010000
,
00100000
00001000
00010000
00000100
00001000
00000001
00001001
00000000
,
00000000
00000000
00000000
00001000
,
00001000
00000000
00000010
00010000
,
00001000
00100000
00010000
00010000
,
00000000
10010000
00000000
00000000
;

//---------------dance-double - ----------------
#NOTES:
     dance-double:
     :
     Easy:
     10:
     0.399985,0.501343,0.316510,0.048694,0.008116,345.000000,306.000000,39.000000,6.000000,0.000000,0.000000,0.399985,0.501343,0.316510,0.048694,0.008116,345.000000,306.000000,39.000000,6.000000,0.000000,0.000000:
00000000
00000000
00000000
00000000
,
00000000
00000000
00000000
00000000
,
00000000
00000000
00000000
00000000
,
00000000
00000000
00000000
00000000
,
00000000
00000000
00000000
00000000
,
01000000
00100000
00010000
00001000
,
00000100
00000010
00010000
00001000
,
00100000
01000000
00010000
00001000
,
00000010
00000100
00010000
00001000
,
00011000
00000000
00000000
00000000
00100000
00100000
00000000
00010000
,
00000000
10000000
00000000
00100000
00000000
00000000
10000000
00000000
,
00010000
00000000
00100000
00100000
00000000
00001000
00000000
00001000
,
00000000
00010000
00000000
00010000
00000000
00000010
00000000
00000010
,
00000000
00001000
00000000
00000000
00000001
00000000
00000001
00000000
,
00000001
00000100
00000100
00001000
,
00001000
00022000
00000000
00000000
,
00033000
00010000
00001000
00010000
,
00001000
00100000
00010000
01000000
,
00010000
00100000
00010000
01000000
,
00001000
00010000
00001000
00100000
,
00001000
00010000
00001000
00010000
,
00000100
00001000
00000010
00001000
,
00000100
00001000
00000010
00010000
,
00001000
00010000
00000100
00010000
,
00001000
00010000
00001000
00100000
,
01000000
10000000
01000000
00100000
,
01000000
10000000
01000000
00100000
,
00001000
00010000
00001000
00100000
,
00001000
00010000
00000100
00000010
,
00000001
00000010
00000100
00000010
,
00000001
00000100
00001000
00010000
,
00001000
00000100
00001000
00010000
,
00100000
10000000
00010000
10010000
,
00000000
10000000
00000000
01000000
,
00000000
00010000
00000000
00001000
,
00000000
00000010
00000000
00000001
,
00000000
00000000
00001001
00000000
00000000
00001000
00000000
00000000
,
00000010
00000000
00000000
00000000
00000000
00010000
00000000
00000000
00010000
00000000
00000000
00000000
00000000
00000000
00001000
00000000
,
00000000
00000000
00100000
00100000
01000000
00000000
00000000
10000000
,
00000000
00000000
00000000
00010000
00000000
00000000
00010000
00000000
00000000
00000000
00000000
00000000
01000000
00000000
00000000
00000000
,
00000000
00001000
00001000
00000000
00010000
00000000
00000100
00000000
,
00010000
00001000
00100000
00101000
,
00001000
00010000
00000100
00001000
,
00001100
00000001
00000101
00000100
,
00001000
00010000
00001000
00011000
,
00010000
00100000
10000000
11000000
,
00010000
00110000
00100000
01000000
,
10000000
00100000
00010000
00001000
,
00011000
00010000
00001000
00000100
,
00000001
00000011
00000100
00001100
,
00001000
00000010
00010000
00001000
,
00011000
00010000
01000000
10000000
,
10100000
00100000
00010000
00011000
,
00000000
00000000
00000010
00000010
00000000
00001000
00000000
00000001
,
00000000
00000010
00000000
00000000
00000001
00000000
00001000
00000000
,
00000010
00000010
00000000
00010000
00000000
00010000
00000000
00001000
,
00000000
00001000
00000000
00100000
00000000
00100000
00000000
00010000
,
00000000
10000000
10000000
10000000
,
01000000
01000000
00010000
00010000
,
00022000
00000000
00000000
00033000
,
00001000
00000100
00000001
00000010
,
00001000
00010000
00100000
01000000
,
20020000
00000000
00000000
00000000
,
00000000
00000000
00000000
30030000
,
10000000
01000000
00100000
00010000
,
00001000
00000100
00000010
00001001
,
00000001
00000100
00001000
00010000
,
00100000
10000000
11000000
01000000
,
00100000
00010000
01000000
01001000
,
00010000
00010010
00000010
00001000
,
00000100
00000010
00000011
00000001
,
00000100
00000010
00001010
00010000
,
00011000
00001000
00100000
01000000
,
10000000
00100000
01000000
01010000
,
00010000
00100000
00001000
00010000
,
00010100
00001000
00101000
00100000
,
01000000
00010000
00001000
00011000
,
00010000
00001000
00000100
00000101
,
00000010
00001010
00001000
00000100
,
00000010
00000001
00000100
00000110
,
00001001
00000001
00000100
00001000
,
00010000
00011000
01001000
01010000
,
00010000
00100000
01000000
11000000
,
10100000
00100000
00010000
00001000
,
00000100
00000001
00000100
00000001
00000100
00000001
00000100
00000000
,
00000000
00000000
00000000
00000010
,
00000010
00000000
00010000
00000000
,
00001000
00000000
00010000
00010000
,
00000000
00011000
00000000
00000000
;
