#VERSION:0.83;
#TITLE:KUGUTSU;
#SUBTITLE:;
#ARTIST:onoken;
#TITLETRANSLIT:;
#SUBTITLETRANSLIT:;
#ARTISTTRANSLIT:;
#GENRE:VARIETY;
#ORIGIN:;
#CREDIT:MUINELIM;
#BANNER:KUGUTSU.png;
#BACKGROUND:KUGUTSU-bg.png;
#PREVIEWVID:;
#JACKET:KUGUTSU-jacket.png;
#CDIMAGE:;
#DISCIMAGE:;
#LYRICSPATH:;
#CDTITLE:;
#MUSIC:KUGUTSU.mp3;
#OFFSET:-0.122000;
#SAMPLESTART:62.308273;
#SAMPLELENGTH:12.129425;
#SELECTABLE:YES;
#DISPLAYBPM:110.000000:440.000000;
#BPMS:0.000=110.000,
10.000=220.000,
114.000=110.000,
130.000=440.000,
260.000=220.000,
264.500=440.000,
268.500=220.000,
273.000=440.000,
277.000=220.000,
281.500=440.000,
285.500=220.000,
290.000=440.000,
316.000=880.000,
317.000=440.000,
320.000=880.000,
321.000=440.000,
324.000=880.000,
325.000=440.000,
328.000=880.000,
329.000=440.000,
340.000=880.000,
342.000=440.000,
343.000=220.000,
344.000=110.000,
345.000=220.000,
358.500=110.000,
359.000=220.000,
371.000=110.000,
373.000=220.000,
386.500=110.000,
387.000=220.000,
399.000=110.000,
401.000=880.000,
409.000=440.000,
560.000=220.000;
#STOPS:32.000=0.273,
55.750=0.273,
62.000=0.273,
71.500=0.136,
72.500=0.136,
73.500=0.136,
84.500=0.136,
88.250=0.136,
89.750=0.136,
91.250=0.136,
98.500=0.136,
102.000=0.136,
106.000=0.136,
160.000=0.136,
191.000=0.136,
257.000=0.136,
258.000=0.136,
259.000=0.136,
265.500=0.136,
266.500=0.136,
267.500=0.136,
274.000=0.136,
275.000=0.136,
276.000=0.136,
282.500=0.136,
283.500=0.136,
284.500=0.136,
291.000=0.136,
292.000=0.136,
293.000=0.136,
304.000=0.136,
305.000=0.136,
306.000=0.136,
316.000=0.068,
320.000=0.068,
324.000=0.068,
328.000=0.068,
357.000=0.136,
357.500=0.136,
358.000=0.136,
385.000=0.136,
385.500=0.136,
386.000=0.136,
467.000=0.068,
469.500=0.068;
#DELAYS:;
#WARPS:;
#TIMESIGNATURES:0.000=4=4;
#TICKCOUNTS:0.000=4;
#COMBOS:0.000=1;
#SPEEDS:0.000=1.000=0.000=0;
#SCROLLS:0.000=1.000;
#FAKES:;
#LABELS:0.000=Song Start;
#BGCHANGES:-0.100=KUGUTSU.avi=1.000=0=0=0=StretchNoLoop====,
0.000=KUGUTSU-bg.png=1.000=0=0=1====#000000=#000000,
2.000=KUGUTSU.avi=1.000=1=0=0=StretchNoLoop==CrossFade==,
99999=-nosongbg-=1.000=0=0=0 // don't automatically add -songbackground-
;
#KEYSOUNDS:;
#ATTACKS:
;

//---------------dance-single - ----------------
#NOTEDATA:;
#CHARTNAME:;
#STEPSTYPE:dance-single;
#DESCRIPTION:;
#CHARTSTYLE:;
#DIFFICULTY:Beginner;
#METER:8;
#RADARVALUES:0.240650,0.627914,0.095804,0.207575,0.000000,211.000000,199.000000,12.000000,26.000000,0.000000,0.000000,0.000000,0.000000,0.000000,0.240650,0.627914,0.095804,0.207575,0.000000,211.000000,199.000000,12.000000,26.000000,0.000000,0.000000,0.000000,0.000000,0.000000;
#CREDIT:MILEN;
#DISPLAYBPM:220.000000;
#NOTES:
0000
0000
0000
0000
,
0000
0000
0000
0000
,
0000
0000
1000
0000
,
0000
0000
0001
0000
,
0000
0000
1000
0000
,
0001
0000
1000
0001
,
2000
3000
0010
0000
,
0010
0000
0010
0000
,
0010
0000
0000
0100
,
0000
0100
0000
0100
,
0000
0001
0000
0001
,
0000
0001
0000
0001
,
0000
1000
0000
1000
,
0000
1000
0000
1000
,
0000
0000
0010
0000
,
0010
0000
0010
0000
,
0000
0100
0000
0100
,
0000
0100
0000
0020
,
0000
0000
0000
0030
0000
0000
0000
0010
,
0000
0010
0000
0010
0000
0000
0000
1000
,
0000
0000
0000
0001
0000
0000
0000
0100
,
0000
0000
0000
1001
,
0000
0000
0000
0000
,
0000
0000
0000
0010
0000
0000
0000
0100
,
0000
0000
0000
0010
0000
0010
0000
0000
,
0000
2000
3000
0000
,
0000
0002
0003
0000
,
1000
0000
0001
0000
,
0100
0100
0200
0000
,
0000
0000
0300
0000
,
0000
0000
0110
1000
,
0001
1000
0010
0100
,
0010
0010
0010
0000
1000
0000
0000
0000
,
0000
0000
0001
0000
,
0000
0000
1000
0000
,
0000
0000
0001
0000
,
0000
0000
1000
0000
,
0000
0000
1000
0000
,
0000
0000
0001
0000
,
0000
0000
0001
0000
,
0001
0000
0000
0000
,
0000
0100
0000
0000
,
0000
0010
0000
0000
,
0000
0100
0000
0000
,
0000
0010
0000
0000
,
0000
0010
0000
0000
,
0000
0100
0000
0000
,
0000
0100
0000
0100
,
0000
0000
0000
0000
,
0010
0000
0000
0000
,
1000
0000
0000
0000
,
0001
0000
0000
0000
,
0100
0000
0000
0000
,
0010
0000
0000
0000
,
1000
0000
0000
0000
,
0001
0000
0000
0000
,
1000
0000
0000
0000
,
0100
0000
0000
0000
,
0010
0000
0000
0000
,
0001
0000
0000
0000
,
1000
0000
0000
0000
,
0100
0000
0000
0000
,
0010
0000
0000
0000
,
0001
0000
0000
0000
,
2000
0000
0000
0000
,
3000
0000
0000
0000
,
0000
0002
0000
0000
0000
0000
0000
0000
,
0000
0003
0000
0000
0000
0000
0000
0000
,
0000
0200
0000
0000
,
0000
0300
0000
0000
,
0000
0000
0000
0020
0000
0000
0000
0000
,
0000
0000
0000
0030
0000
0000
0000
0000
,
0000
0000
0220
0000
,
0000
0000
0000
0330
,
0000
0000
0000
0000
,
0000
0000
0000
2002
,
0000
0000
0000
0000
,
3003
0000
0000
0000
,
0000
0000
0000
0000
,
2000
3000
0000
0000
,
0200
0300
0000
0000
,
0020
0030
0000
0000
,
0002
0003
0000
0000
,
0100
0000
0010
0000
,
1000
0000
0001
0000
,
1001
0000
0000
0000
,
0000
1000
1000
1000
,
0000
0001
0001
0001
,
0000
1000
0001
1000
,
0010
0200
0000
0310
,
0010
0010
0000
0100
,
0100
0100
0000
0010
,
1000
0001
0100
0220
,
0330
1000
0001
0100
,
0000
0001
1000
0010
,
0000
1000
0100
0010
,
0001
2000
0000
3001
,
0001
0010
0000
1000
,
1000
0100
0000
0001
,
0010
0100
1000
2002
,
3003
0110
0000
0000
,
0000
0000
0000
0000
,
0000
0010
0000
0000
,
0000
1000
0000
0000
,
0000
0001
0000
0000
,
0000
0100
0000
0000
,
0000
0010
0000
0000
,
0000
1000
0000
0000
,
0000
0001
0000
0100
,
0000
0010
0000
0010
,
0000
1000
0000
0000
,
0000
0100
0000
0000
,
0000
0010
0000
0000
,
0000
0001
0000
0000
,
0000
1000
0000
0000
,
0000
0100
0000
0000
,
0000
0020
0000
0000
,
0000
0000
0030
0000
,
0010
0000
0000
0000
,
0001
0000
0000
0000
,
0100
0000
0000
0000
,
0010
0000
0000
0000
,
1000
0000
0000
0000
,
0100
0000
0000
0000
,
0010
0000
0000
0000
,
0001
0000
0000
0000
,
1000
0000
1000
0000
,
0010
0000
0010
0000
,
0100
0000
0100
0000
,
0001
0000
0001
0000
,
0010
0000
0010
0000
,
1000
0000
1000
0000
,
0100
0000
0100
0000
,
0010
0000
0010
0000
,
1001
0000
0000
0000
,
1000
0000
1000
0000
,
1001
0000
0000
0000
,
0001
0000
0001
0000
,
1001
0000
0000
0000
,
0100
0000
0100
0000
,
2002
0000
0000
0000
,
0000
0000
0000
0000
,
0000
0000
0000
0000
,
3003
0000
0000
0000
;

//---------------dance-single - ----------------
#NOTEDATA:;
#CHARTNAME:;
#STEPSTYPE:dance-single;
#DESCRIPTION:;
#CHARTSTYLE:;
#DIFFICULTY:Easy;
#METER:11;
#RADARVALUES:0.458490,0.913329,0.279428,0.534905,0.000000,402.000000,367.000000,35.000000,67.000000,0.000000,0.000000,0.000000,0.000000,0.000000,0.458490,0.913329,0.279428,0.534905,0.000000,402.000000,367.000000,35.000000,67.000000,0.000000,0.000000,0.000000,0.000000,0.000000;
#CREDIT:MILEN;
#DISPLAYBPM:220.000000;
#NOTES:
0000
0000
0000
0000
,
0000
0000
0000
0000
,
0000
0000
1000
0100
,
0020
0030
0001
0010
,
0200
0300
1000
0010
,
0100
0001
0100
0010
,
1000
0001
1001
0000
,
1000
0100
0010
0001
,
0200
0310
0100
0001
,
0001
0100
0010
1000
,
1000
0001
0010
0100
,
1000
0100
0010
0001
,
0001
1000
0010
0100
,
0100
0000
0001
0000
0100
0000
0010
0020
,
0030
1000
0100
0010
,
0001
1000
0020
0130
,
0001
0010
0010
0100
,
1000
0010
0010
2000
,
3002
0000
2003
0000
3002
0000
0000
0103
,
0000
0100
0000
0110
0000
1000
0000
1010
,
0000
0001
0000
0101
0000
1000
0000
0002
,
0000
2003
0000
0000
3001
0000
0100
0000
,
0020
0000
0000
0230
0000
0000
0320
0000
,
0000
1030
0000
0100
0000
0010
0000
0001
,
0000
0010
0000
0100
0000
2000
0000
0000
,
3001
0000
0001
0000
0202
0303
0000
1000
,
0000
1000
0000
2020
3030
0000
0001
0000
,
0100
1000
0100
0001
,
0010
0100
2002
0000
,
0000
0000
3003
0000
,
0000
1000
0010
0100
0101
0000
0001
0000
,
1000
0000
1100
0000
0100
0010
0001
0010
,
0100
1000
0100
0010
1001
0000
0000
0000
,
0001
0000
0100
0000
,
0001
0000
0010
0000
,
0001
0000
0100
0000
,
0001
0000
0010
0000
,
0001
0000
0100
0000
,
1000
0000
0100
0000
,
0001
0000
1000
0000
,
2002
3003
0000
1000
,
0000
0010
0000
1000
,
0000
0100
0000
1000
,
0000
0010
0000
1000
,
0000
0100
0000
1000
,
0000
0010
0000
0001
,
0000
0010
0000
1000
,
0000
0001
0000
2002
,
3003
0000
1000
0000
,
0100
0000
0001
0000
,
0100
0000
1000
0000
,
0010
0000
0001
0000
,
0010
0000
1000
0000
,
0001
0000
0100
0000
,
1000
0000
0100
0000
,
0001
0000
0010
0000
,
1000
0000
0010
0000
,
0001
0000
0100
0000
,
0010
0000
1000
0000
,
0100
0000
0001
0000
,
0100
0000
1000
0000
,
0010
0000
0100
0000
,
0001
0000
1000
0000
,
0100
0010
0100
0010
,
0200
0000
0000
0000
,
0000
1300
0000
0010
0000
0100
0000
0001
,
0000
2000
0000
0000
0000
0000
0000
0000
,
0000
3001
0010
0100
,
1000
0002
0000
0000
,
0000
0000
0000
0103
0000
0010
0000
1000
,
0000
0001
0000
0020
0000
0000
0000
0000
,
0000
0000
0130
1000
,
0001
0100
0120
0000
,
0000
0000
0000
2030
,
0000
3002
0000
0103
,
0100
0110
0000
1002
,
0000
0000
0000
0000
,
0203
0000
0320
0000
,
1030
1000
1001
0000
,
2020
3030
0000
0000
,
0202
0303
0000
0000
,
0022
0033
0000
0000
,
2200
3300
0000
0000
,
0101
0000
1010
0000
,
1100
0000
0011
0000
,
1001
0000
0000
0000
,
0000
1000
1000
0010
,
0010
0001
0001
0100
,
0100
1000
0010
0100
,
0001
0000
1000
1000
1000
2000
3001
0000
,
0001
0100
0100
1000
,
1000
0010
0010
0001
,
0100
0000
0010
0000
1000
0000
0001
1000
,
0002
0103
0100
0010
,
0010
1000
0100
0001
,
0010
1000
0001
0100
,
0010
0000
0100
0100
0100
0200
0310
0000
,
0010
0100
0100
0001
,
0010
1000
0100
0001
,
1000
0000
0010
0000
0100
0000
0001
1000
,
0002
1003
0000
0000
,
0000
0000
0000
0000
,
0000
1000
0000
0010
,
0000
0001
0000
0010
,
0000
1000
0000
0010
,
0000
0001
0000
0010
,
0000
1000
0000
0100
,
0000
0001
0000
0100
,
0000
2200
3300
0000
,
0022
0033
0000
2002
,
3003
0001
0000
0010
,
0000
1000
0000
0010
,
0000
0001
0000
0010
,
0000
1000
0000
0010
,
0000
0001
0000
0100
,
0000
1000
0000
0100
,
0000
0000
0202
0000
0303
0000
0000
2020
,
0000
3030
0000
0000
2002
0000
3003
0000
,
1000
0000
0100
0000
,
0001
0000
1000
0000
,
0010
0000
0001
0000
,
0100
0000
1000
0000
,
0001
0000
0010
0000
,
1000
0000
0100
0000
,
0001
0000
1000
0000
,
0010
0000
0001
0000
,
1000
0010
0100
0000
,
1000
0000
0100
0000
,
0001
0100
0010
0000
,
0001
0000
0010
0000
,
1000
0100
0010
0000
,
0001
0010
0100
0000
,
1000
0010
0100
0001
,
1000
0100
0010
0001
,
2002
0000
0000
3003
,
1000
0010
0100
0001
,
2002
0000
0000
3003
,
0001
0100
1000
0100
,
2002
0000
0000
3003
,
1000
0010
0001
0010
,
2002
0000
0000
0000
,
0000
0000
0000
0000
,
0000
0000
0000
0000
,
3003
0000
0000
0000
;

//---------------dance-single - ----------------
#NOTEDATA:;
#CHARTNAME:;
#STEPSTYPE:dance-single;
#DESCRIPTION:;
#CHARTSTYLE:;
#DIFFICULTY:Medium;
#METER:15;
#RADARVALUES:0.810911,1.655410,0.431117,0.654659,0.067861,711.000000,657.000000,54.000000,82.000000,0.000000,0.000000,0.000000,0.000000,0.000000,0.810911,1.655410,0.431117,0.654659,0.067861,711.000000,657.000000,54.000000,82.000000,0.000000,0.000000,0.000000,0.000000,0.000000;
#CREDIT:MILEN;
#DISPLAYBPM:220.000000;
#NOTES:
0000
0000
0000
0000
,
0000
0000
0000
0000
,
0000
0000
0000
0000
0000
0000
0000
0000
1000
0000
0000
1000
0000
0000
2000
0000
,
0000
0000
0000
0000
3010
0000
0000
0000
0001
0000
0000
0001
0000
0000
0002
0000
,
0000
0103
1000
1100
,
0001
0000
0011
0000
1000
0100
0010
0001
,
0010
0100
1001
0000
1000
0010
0100
0001
,
0100
0010
1000
0100
0010
0001
0010
0100
,
2000
0000
3001
0100
0010
1000
0010
0100
,
0001
0010
0011
0000
1100
0000
1000
0010
,
0200
0000
0301
1000
0100
0010
0100
0010
,
0001
0100
0020
0000
0001
0000
0100
0000
,
1030
0000
1000
0010
0100
0001
0100
0010
,
1000
0001
0010
0100
1000
0010
0100
0002
,
0000
1003
0100
0010
0100
1000
0100
0001
,
0100
1000
0100
0010
0002
0000
1003
0010
,
0001
0010
0100
0010
0001
0010
0100
0001
,
0010
0100
1000
0010
0100
0001
1000
2000
,
3001
0002
1003
2000
3010
0010
0000
1010
,
0000
0101
0000
0011
0000
1100
0000
1000
,
0100
0020
0000
0031
0010
0100
1000
0001
,
0100
0020
0000
1030
0100
0001
0100
1000
,
0020
0130
0010
0200
0310
0100
0020
0230
,
0000
0302
0000
0010
0000
2003
0000
0100
,
0000
3001
0000
0001
0100
2000
0000
3100
,
0001
0010
0100
0010
0002
0000
0013
0100
,
1000
0010
0001
0010
2000
0000
3001
0100
,
1000
0100
0001
0010
0100
0001
0100
1000
,
0100
0010
0001
1000
2002
0000
0000
0000
,
0000
0000
3003
0000
,
0000
0000
1000
0010
0100
0001
1000
0100
0110
0000
0010
0001
0100
0000
0010
1000
,
0100
0000
0010
0001
1000
0000
0100
1000
0001
0000
0100
0010
0100
0010
1000
0001
,
0010
0100
0010
0100
1000
0001
0100
0000
0220
0000
0000
0000
0330
0000
0000
0000
,
0001
0010
0100
1000
,
1010
0000
0001
0010
,
0100
1000
0010
0100
,
0101
0000
0001
0010
,
0100
1000
0000
0000
1000
0010
0000
0000
,
0010
0100
0010
0000
0100
0000
0001
0000
,
0010
0100
1000
0001
,
1001
2002
3003
1000
,
0010
0100
0001
0011
,
0000
1000
0010
0100
,
0001
0010
0100
1100
,
0000
0000
1000
0000
0010
0000
0100
0001
,
0000
0000
0001
0010
0000
0000
0010
0100
,
0010
0001
0100
0010
,
1000
0100
0010
0110
,
0220
0330
1000
0010
,
0001
0010
1010
0000
,
0001
0100
1000
0100
,
0010
0100
0101
0000
,
1000
0100
0001
0100
,
0010
0100
1100
0000
,
0001
0010
1000
0010
,
0100
0010
0011
0000
,
0001
0100
0000
0000
0100
0000
0010
0000
,
1000
0100
0000
0000
0100
0000
0010
0000
,
0001
1000
0000
0000
1000
0000
0010
0000
,
0100
0001
0000
0000
0001
0000
0010
0000
,
0100
1000
0100
0000
0010
0000
0100
0000
,
0010
0001
0010
0000
0100
0000
0010
0000
,
0001
0100
1000
0001
,
0010
1000
0100
0010
,
0002
1000
1000
1003
,
1000
0010
0100
1000
0100
0010
1000
0100
,
0010
0200
0000
0010
0000
0010
0000
0310
,
0000
0010
0012
0000
2003
0000
3020
0000
,
0001
2030
0001
0001
,
3001
0000
0001
0100
0010
0001
0010
0100
,
0001
0010
0100
0020
0000
0100
0000
0100
,
0000
0130
0000
0100
2100
0000
3002
0000
,
0203
1000
0302
0010
,
0100
1003
2020
3030
,
0202
0303
0001
0010
,
1000
0200
0000
0320
,
1000
0001
0130
0101
,
0001
1000
0010
1010
,
1000
0100
0010
0001
,
0022
0033
0010
0100
,
2200
3300
1000
0001
,
0202
0303
0100
0010
,
2020
3030
1000
0001
,
0022
0033
2020
3030
,
2200
3300
0202
0303
,
2002
0000
0000
0000
,
3003
0000
1000
0010
0001
0010
1000
0100
,
0010
0000
0001
0100
1000
0100
0001
0010
,
0100
0000
1000
0010
0001
1000
0100
0001
,
0010
0100
1000
0001
1000
0002
0103
0010
,
0001
0100
0001
0010
0100
0000
0010
0100
,
1000
0010
1000
0100
0010
0000
1000
0100
,
0001
0000
0010
0000
0001
0000
0100
0000
1000
0000
0000
0000
1010
0000
0010
0100
,
0002
0013
0110
1000
,
1100
0001
0011
1000
,
1001
0000
0001
0100
1000
0010
1000
0100
,
0001
0010
0100
0010
0100
0020
0031
0100
,
1000
0001
0010
1000
0100
0000
1000
0010
,
0001
1000
0100
0001
0010
0000
1000
0010
,
0001
0000
1000
0000
0001
0000
0100
0000
1000
0000
0001
0000
0011
0000
0010
1000
,
0002
2000
0000
0000
,
0000
0000
0000
0000
,
3003
0001
0100
0001
,
0100
1000
0100
1000
,
0100
0001
0010
0001
,
0010
1000
0010
1000
,
0010
0001
0100
1000
,
0100
0001
0020
0100
,
0030
0000
0001
0100
0010
0000
1000
0000
,
0001
0100
0010
0000
1000
0000
0010
0000
,
0110
1000
0100
1000
,
0100
0001
0100
0001
,
0100
1000
0010
1000
,
0010
0001
0010
0001
,
0010
1000
0100
0001
,
0100
1000
0020
0100
,
0030
0000
0100
0010
2000
0000
0000
3010
,
0100
0002
0000
0000
0103
0010
2000
0000
,
3001
0010
0100
1000
,
0001
0000
0010
0000
0100
0001
0100
0000
,
1000
0100
0010
0001
,
1000
0000
0100
0000
0010
1000
0010
0000
,
0001
0100
0010
1000
,
0001
0000
0100
0000
0010
0001
0010
0000
,
1000
0010
0100
0001
,
1000
0000
0010
0000
0100
1000
0100
0000
,
0001
0001
0010
0010
,
0100
0000
0100
0000
1000
0010
0100
0000
,
0001
0001
1000
1000
,
0100
0000
0100
0000
0010
0001
0100
0000
,
0010
0000
0010
0000
1000
0100
0010
0000
,
0001
0000
0001
0000
1000
0010
0100
0000
,
0001
0010
0100
0000
1000
0001
0100
0000
,
0001
1000
0010
0000
0100
0001
0010
0000
,
0220
0000
0000
0330
,
0100
0000
0000
1100
0000
0000
1000
0000
,
2020
0000
0000
3030
,
0010
0000
0000
0110
0000
0000
0100
0000
,
0202
0000
0000
0303
,
0001
0000
0000
0011
0000
0000
1010
0000
,
2002
0000
0000
0000
,
0000
0000
0000
0000
,
0000
0000
0000
0000
,
3003
0000
0000
0000
;

//---------------dance-single - ----------------
#NOTEDATA:;
#CHARTNAME:;
#STEPSTYPE:dance-single;
#DESCRIPTION:;
#CHARTSTYLE:;
#DIFFICULTY:Hard;
#METER:18;
#RADARVALUES:1.043577,1.769576,0.423133,0.566839,0.842275,915.000000,862.000000,53.000000,71.000000,0.000000,0.000000,0.000000,0.000000,0.000000,1.043577,1.769576,0.423133,0.566839,0.842275,915.000000,862.000000,53.000000,71.000000,0.000000,0.000000,0.000000,0.000000,0.000000;
#CREDIT:MILEN;
#DISPLAYBPM:220.000000;
#NOTES:
0000
0000
2002
0000
,
0000
0000
3003
0000
,
0000
0000
0000
0000
0000
0000
0000
0000
1000
0000
0000
1000
0000
0000
2000
0000
,
0000
0000
0000
0000
3100
0000
0010
0000
0001
0000
0000
0001
0000
0000
0002
0000
,
0000
0000
0013
0100
1000
1000
0010
0100
,
0001
0001
0100
0010
1000
0100
0010
0001
,
0100
0100
0010
0010
1000
0001
0010
0100
,
1000
0000
0000
1000
0000
0000
1000
0000
0010
0000
0100
0000
0001
0000
1000
0000
,
0002
0003
1000
0000
0100
0000
0010
0000
0001
0000
0100
0000
0010
0000
0000
0010
,
0000
0000
0010
0000
0100
0001
0000
0000
1000
0001
0000
0000
0100
0001
0100
0000
,
0010
1000
0010
0000
1000
0000
0100
0000
0010
0000
0001
0000
0100
0000
0000
0100
,
0000
0000
0000
0100
0000
0000
0010
0000
0000
0000
0010
0000
1000
0000
0000
0000
1000
0000
0100
0000
0000
0000
0100
0000
,
0010
0000
0000
0000
0100
0000
0000
0000
0010
0000
0000
0000
0001
0000
0000
0000
0000
0000
0100
0000
0000
0000
0000
0000
0010
0000
0000
0000
0000
0000
1000
0000
0000
0000
0000
0000
0001
0000
0000
0000
0000
0000
0000
0000
0000
0001
0000
0000
,
0000
0000
0001
0000
0010
0001
0100
0000
0010
0000
1000
0000
0001
0010
0200
0300
,
0010
0000
0010
0000
0100
0000
1000
0000
0010
0000
0000
0110
0000
0000
0101
0000
,
0001
0000
1000
0000
0100
0000
0010
0000
0002
0003
1000
0000
0010
0000
0100
0000
,
0001
0000
0010
0000
0100
0000
0000
1100
0000
0000
1001
0000
0001
0100
0010
0000
,
1000
0010
0100
0000
0001
0000
0010
0000
0100
0000
1000
0000
0010
0000
0020
0030
,
0100
0000
0200
0300
0010
0000
0020
0030
1000
0000
0001
0000
0100
0000
1000
0000
,
0000
1000
0000
0100
0000
0000
0000
0100
0000
0001
0000
0010
0000
0001
0000
0010
0000
0001
0000
0010
0000
0100
0000
0000
,
1000
0010
0000
0010
1000
0000
0001
0000
0010
0000
0100
0000
1000
0000
0010
0000
,
0100
0000
0020
0030
1000
0000
0100
0000
0001
0000
0100
0000
1000
0010
1000
0000
,
0002
0003
0100
0010
0100
0000
0020
0030
1000
0100
1000
0000
0002
0003
0010
0000
,
0100
0000
0000
1000
0000
0010
0000
0100
0000
0001
0000
0000
0000
0001
0000
0010
0000
0000
0000
0010
0000
1000
0000
0000
,
0010
0001
0010
0000
0100
0000
1000
0010
0000
0010
2000
3000
0001
0010
0100
0000
,
1000
0000
0000
0100
0000
0000
0010
0000
0000
0000
0000
0000
0001
0000
0000
0000
0000
0000
0100
0000
0000
0010
0000
0000
0200
0000
0000
0300
0000
0000
0001
0000
0000
0000
0000
0000
1000
0000
0000
0000
0100
0000
0000
0000
0010
0000
0000
0000
,
0001
0000
0000
0000
0010
0000
0000
0000
0100
0000
0000
0000
1000
0000
0000
0000
0000
0000
0010
0000
0000
0000
0000
0000
0200
0000
0000
0300
0000
0000
0001
0000
0000
0000
0000
0000
0001
0000
0000
0000
0000
0000
1000
0000
0000
0000
0000
0000
,
1000
0000
0010
0000
0100
0001
0000
0001
0100
0000
0010
0000
1000
0100
1000
0000
,
0001
0010
0001
0000
1000
0010
1000
0001
0200
0000
0000
0000
0000
0000
0000
0000
,
0000
0000
0310
0000
,
0000
0000
0000
0000
0010
1000
0010
0000
0100
0001
0100
0000
0001
1000
0001
0000
0020
0000
0000
0000
0130
0000
0001
0000
0010
0000
0000
0000
0100
0000
1000
0000
,
0010
0000
0100
0001
1000
0000
0010
1000
0001
0000
1000
0100
0010
0100
0010
0001
,
0100
0010
1000
0001
0010
0100
1000
0001
1001
0000
0000
0000
1000
0000
0000
0000
,
0010
1000
0100
1000
,
0010
1000
0001
1000
,
0010
1000
0100
1000
,
0010
1000
0001
1000
,
0100
1000
0100
0000
0010
0001
0010
0000
,
0100
1000
0010
1000
,
0001
0100
0001
0010
,
0110
2002
3003
1000
,
0001
0100
0001
0010
,
0001
1000
0001
0010
,
0001
0100
0001
0010
,
0001
0000
1000
0000
0001
0000
0100
0001
,
0100
0000
0010
1000
0010
0000
0100
0000
,
0001
0010
0001
1000
,
0100
1000
0010
0110
,
2002
3003
1000
0020
,
0130
0001
0020
0130
,
1000
0200
0310
0001
,
0200
0310
1000
0002
,
0103
0001
2000
3010
,
1000
0002
0013
0001
,
2000
3100
1000
0020
,
0130
0001
0020
0130
,
1000
0010
0100
0000
0001
0000
1000
0000
,
0001
0100
0010
0000
1000
0000
0001
0000
,
0010
0100
1000
0000
0001
0000
1000
0000
,
0100
0010
0001
0000
1000
0000
0001
0000
,
1000
0010
1000
0000
0001
0100
0001
0000
,
1000
0100
1000
0000
0001
0010
0001
0000
,
1000
0010
0100
0010
0100
0001
0010
0100
,
1000
0001
1000
0001
0010
0100
1000
0010
,
0100
0101
0011
0101
,
0100
0000
0001
0010
0001
0000
1000
0100
1000
0000
0010
0100
0010
0000
1000
0001
,
1000
0100
0000
1100
0000
1010
0000
1100
,
0000
0000
0000
0000
0000
0000
0100
0000
0000
0000
0000
0000
0010
0000
0000
0001
0000
0000
0010
0000
0000
0000
0000
0000
0001
0000
0000
0000
0100
0000
0000
0000
0010
0000
0000
0000
1000
0000
0000
0000
0010
0000
0000
0000
0100
0000
0000
0000
,
0001
0010
0100
1000
0000
0000
1100
0000
0000
0101
0000
0000
,
1100
0000
0000
0000
1000
0000
0010
0100
0010
0000
0100
0001
0100
0000
0010
1000
,
0010
0000
1000
0001
1000
0000
0001
0000
0000
0000
0011
0000
0000
0000
1010
0000
,
0000
0000
0000
0011
0000
0000
0000
0000
0000
0001
0000
0100
0000
0001
0000
1000
0000
0100
0000
1000
0000
0001
0000
0000
,
0010
0100
0010
0000
0100
0010
0100
0000
1000
0000
0000
0000
1010
0000
0000
0000
,
0011
0101
2100
0000
,
3002
0000
0013
0100
,
0010
0220
0330
0001
,
0011
1010
1100
0200
,
0310
0000
0000
0002
0000
0000
1003
0000
0000
1000
0000
0010
,
0000
1000
0000
0001
0000
0100
0000
0001
0000
1000
0000
0000
,
2020
3030
0000
0000
0010
0000
0000
0000
0100
0000
0000
0000
0001
0000
0000
0000
,
0202
0303
0000
0000
0100
0000
0000
0000
0010
0000
0000
0000
1000
0000
0000
0000
,
2200
3300
0000
0000
0100
0000
0000
0000
0010
0000
0000
0000
0001
0000
0000
0000
,
0022
0033
0000
0000
0010
0000
0000
0000
0100
0000
0000
0000
1000
0000
0000
0000
,
0002
0103
2000
3100
,
0002
0013
2000
3010
,
0220
0000
0000
0000
,
0000
0330
0110
0010
1000
0100
1000
0001
,
0010
0000
0001
0000
0100
0000
0010
1000
0010
0000
0100
0000
0010
0000
0100
0001
,
0100
0000
0000
0001
0000
0000
0100
0000
0000
0000
0000
0000
0010
0000
0000
0000
0000
0000
1000
0000
0000
0000
0000
0000
0001
0000
0000
0000
0000
0000
0100
0000
0000
0000
0000
0000
0001
0000
0000
0000
0010
0000
0000
0000
0100
0000
0000
0000
,
1000
0000
0100
0000
0010
0000
0001
0000
0000
0100
0000
0000
1000
0000
0000
0020
0000
0000
0031
0000
0000
0100
0000
0000
,
0010
1000
1010
0000
0101
0001
1000
0100
,
0010
0000
0000
0100
0000
0000
0010
0000
0000
0000
0000
0000
0001
0000
0000
0000
0000
0000
0100
0000
0000
0000
0000
0000
0010
0000
0000
1000
0000
0000
0010
0000
0000
1000
0000
0000
0010
0000
0000
0000
1000
0000
0000
0000
0100
0000
0000
0000
,
0010
0000
0000
0000
0001
0000
0000
0000
1000
0000
0000
0000
0100
0000
0000
0000
0010
0000
0000
0000
0001
0000
0000
0000
0100
0000
0000
0010
0000
0000
1000
0000
0000
0000
0000
0000
1010
0000
0000
0000
0000
0000
0010
0000
0000
0100
0000
0000
,
0002
0000
0000
2003
0000
0000
3010
0000
0000
0000
0000
0000
0001
0000
0010
0000
0100
0000
2000
0000
0000
0000
0000
0000
,
3001
0000
0000
0000
0010
0000
0000
0000
0100
0000
0000
0000
1000
0000
0000
0100
0000
0000
1000
0000
0000
0000
0000
0000
0001
0000
0000
0000
0000
0000
0100
0000
0000
0000
0000
0000
0010
0000
0000
0000
1000
0000
0000
0000
0001
0000
0000
0000
,
0100
0010
1000
0000
0010
0100
0001
0100
0001
0000
0010
0000
0100
0000
1000
0000
,
0001
0000
0100
0000
0010
0000
1000
0000
0100
0000
0002
0000
0013
0000
1000
0100
,
1000
0000
0000
0001
0000
0000
0010
0000
0000
0001
0000
0000
0100
0000
0010
0000
0100
0000
0010
0000
0000
0000
0010
0000
,
1000
0000
0000
0000
0000
0000
0000
0000
1000
0000
0000
0000
0100
0000
0000
0000
0000
0000
0000
0000
0100
0000
0000
0000
0001
0000
0000
0010
0000
0000
0001
0000
0000
0000
0000
0000
0100
0000
0000
0000
0000
0000
0010
0000
0000
0000
0000
0000
,
1000
0100
1000
0000
0001
0000
0001
0000
0100
0000
0100
0000
1010
0000
0001
0100
,
0020
0030
2002
0000
0000
0000
0000
0000
,
0000
0000
0000
0000
,
3003
0000
0000
1000
0000
0010
0000
1000
0000
0010
0000
1000
,
0000
0010
0000
1000
0000
0100
0000
1000
0000
0100
0000
1000
,
0000
0100
0000
0010
0000
0001
0000
0010
0000
0001
0000
0010
,
0000
0001
0000
0100
0000
0001
0000
0100
0000
0001
0000
0100
,
0000
0010
0000
0100
0000
0010
0000
0100
0000
0010
0000
1000
,
0000
0000
0100
0000
0000
0000
0010
0000
0000
0000
0001
0000
0000
0000
0100
0000
0000
0000
0010
0000
0000
0100
0000
0000
,
0010
0000
0000
1000
0000
0100
0000
0010
0000
0001
0000
0010
,
0000
0100
0000
2000
0000
0000
3010
0000
0000
0200
0000
0000
,
0301
0000
0000
0001
0000
0010
0000
0001
0000
0010
0000
0001
,
0000
0010
0000
0001
0000
0100
0000
0001
0000
0100
0000
0001
,
0000
0100
0000
0010
0000
1000
0000
0010
0000
1000
0000
0010
,
0000
1000
0000
0100
0000
1000
0000
0100
0000
1000
0000
0100
,
0000
0010
0000
0100
0000
0010
0000
0100
0000
0010
0000
0001
,
0000
0000
0100
0000
0000
0000
0010
0000
0000
0000
1000
0000
0000
0000
0100
0000
0000
0000
0010
0000
0000
0100
0000
0000
,
0010
0000
0001
0100
0001
0100
0001
1000
,
0100
1000
0100
1000
0010
0100
0010
0100
,
0010
0000
1000
0000
0100
0000
0010
0000
0001
0000
0100
0000
,
0010
0000
1000
0000
0010
0000
1000
0000
0100
0000
0010
0000
,
0001
0000
0010
0000
0100
0000
1000
0000
0010
0000
0100
0000
,
0001
0000
0100
0000
0001
0000
0010
0000
0100
0000
1000
0000
,
0010
0000
0100
0000
0001
0000
0010
0000
0001
0000
0010
0000
,
0100
0000
0010
0000
0001
0000
0100
0000
0010
0000
1000
0000
,
0100
0000
1000
0000
0100
0000
0010
0000
0100
0000
1000
0000
,
0010
0000
0100
0000
0001
0000
1000
0000
0100
0000
0010
0000
,
0001
1000
0010
0000
0100
0000
0010
0000
,
1000
0001
0100
0000
0010
0000
0100
0000
,
0001
0010
0100
0000
0001
0000
0100
0000
,
1000
0100
0010
0000
1000
0000
0010
0000
,
0001
0100
0010
0000
1000
0100
0010
0000
,
0001
0010
0100
0000
1000
0010
0100
0000
,
0001
1000
0001
1000
0010
0100
0010
0100
,
0001
1000
0010
0100
0001
1000
0100
0020
,
0002
0000
0000
0033
,
0011
0000
0000
0101
0000
0000
1010
0000
,
2200
0000
0000
3300
,
1100
0000
0000
1010
0000
0000
0101
0000
,
0022
0000
0000
0033
,
0011
0000
0000
1010
0000
0000
1100
0000
,
2002
0000
0000
0000
,
0000
0000
0000
0000
,
0000
0000
0000
0000
,
3003
0000
0000
0000
;

//---------------dance-single - ----------------
#NOTEDATA:;
#CHARTNAME:;
#STEPSTYPE:dance-single;
#DESCRIPTION:;
#CHARTSTYLE:;
#DIFFICULTY:Challenge;
#METER:19;
#RADARVALUES:1.327567,2.112074,0.934087,0.766430,1.049850,1164.000000,1047.000000,117.000000,96.000000,0.000000,0.000000,0.000000,0.000000,0.000000,1.327567,2.112074,0.934087,0.766430,1.049850,1164.000000,1047.000000,117.000000,96.000000,0.000000,0.000000,0.000000,0.000000,0.000000;
#CREDIT:MILEN;
#DISPLAYBPM:220.000000;
#NOTES:
// measure 0
0000
0000
0220
0000
,  // measure 1
0000
0000
0330
0000
,  // measure 2
0000
0000
0000
0000
0000
0000
0000
0000
1100
0000
0000
0101
0000
0000
2200
0000
,  // measure 3
0000
0000
3300
0000
1000
0100
0010
0000
0011
0000
0000
1010
0000
0000
0022
0000
,  // measure 4
0000
0000
0033
0000
0001
0010
0100
1000
0010
0000
1010
0000
1000
0100
0010
0001
,  // measure 5
0100
0000
0101
0000
0001
1000
0010
0000
1000
0001
0100
0000
0001
0010
0100
0010
,  // measure 6
0100
0000
0000
1000
0000
0000
0010
0000
0000
0100
0000
0000
0001
0000
0000
1000
0000
0000
0100
0000
0000
0010
0000
0000
0001
0000
0000
0000
0100
0000
0000
0000
0010
0000
0000
0000
1000
0000
0000
0000
0010
0000
0000
0000
0100
0000
0000
0000
,  // measure 7
0001
0000
0000
0010
0000
0000
0100
0000
0000
0010
0000
0000
0001
0000
0000
0000
1000
0000
0000
0000
0010
0000
0000
0000
0100
0000
0000
0000
0010
0000
0000
0000
1000
0000
0000
0000
0100
0000
0000
0000
0010
0000
0000
0000
0001
0000
0000
0000
,  // measure 8
0100
0000
0000
0000
0000
0000
0110
0000
0000
0000
0000
0000
1000
0000
0000
0000
0001
0000
0000
0000
0010
0000
0000
0000
0100
0000
0000
0000
1000
0000
0000
0000
0010
0000
0000
0000
0100
0000
0000
0001
0000
0000
1000
0000
0000
0001
0000
0000
,  // measure 9
0100
0000
0010
0000
1010
0000
0001
0010
0200
0000
0000
0000
1300
0010
0100
0000
,  // measure 10
0001
0000
0000
0100
0000
0000
0000
0000
0000
1000
0000
0000
0100
0000
0000
0000
0001
0000
0000
0000
0010
0000
0000
0000
0100
0000
0000
0000
0010
0000
0000
0000
0001
0000
0000
0000
0100
0000
0000
0010
0000
0000
1000
0000
0000
0010
0000
0000
,  // measure 11
0100
0000
0000
0101
0000
0000
1000
0000
0001
0000
0010
0000
0100
0000
0001
0000
0100
0000
1000
0000
0100
0000
0010
0000
,  // measure 12
1000
0000
0000
0000
0010
0000
0000
0000
0001
0000
0000
0000
0010
0000
0000
0100
0000
0000
1000
0000
0000
0100
0000
0000
0010
0000
0000
0000
0001
0000
0000
0000
0100
0000
0000
0000
0010
0000
0000
1000
0000
0000
0001
0000
0000
1000
0000
0000
,  // measure 13
0010
0000
0000
0000
0100
0000
0000
0000
0001
0000
0000
0000
0010
0000
0000
0100
0000
0000
1000
0000
0000
0000
0000
0000
0100
0000
0000
0010
0000
0000
0001
0000
0000
0000
0000
0000
0100
0000
0000
0010
0000
0000
1000
0000
0000
0001
0000
0000
,  // measure 14
0100
1000
0010
0000
0100
0001
0010
0000
0100
0010
0100
1000
0100
0000
0110
0000
,  // measure 15
0001
0000
0010
0000
0100
0000
1000
0000
0100
0000
0010
0000
0100
0000
0000
1100
0000
0000
0001
0000
0100
0000
0010
0000
,  // measure 16
0100
0000
0000
0000
0001
0000
0000
0000
0100
0000
0000
0000
0010
0000
0000
1000
0000
0000
0100
0000
0000
1000
0000
0000
0001
0000
0000
0000
0000
0000
0011
0000
0000
0000
0000
0000
0100
0000
0000
1000
0000
0000
0100
0000
0000
1000
0000
0000
,  // measure 17
0010
0000
0000
0100
0000
0000
0010
0000
0000
0100
0000
0000
0001
0000
0000
0010
0000
0000
0001
0000
0000
0010
0000
0000
0100
0000
0000
0000
1000
0000
0000
0000
0001
0000
0000
0000
0010
0000
0000
0001
0000
0000
0100
0000
0000
0000
0000
0000
,  // measure 18
0100
0000
0000
1000
0000
0000
0010
0000
0000
0000
0000
0000
0010
0000
0000
0001
0000
0000
1000
0000
0000
0000
0000
0000
1000
0000
0000
0001
0000
0000
0100
0000
0000
0000
1000
0000
0000
0000
0100
0000
0000
0000
0001
0000
0000
0000
0010
0000
,  // measure 19
0000
0000
1000
0000
0000
0000
0020
0000
0000
0000
0000
0000
0000
0000
0031
0000
0000
0000
0100
0000
0000
0000
0010
0000
0000
0000
0001
0000
0000
0000
0010
0000
0000
0000
1000
0000
0000
0000
0100
0000
0000
0000
0001
0000
0000
0100
0000
0000
,  // measure 20
0000
1000
0010
0100
0000
0101
0000
1000
0000
1010
0000
0001
0010
0100
1000
0010
,  // measure 21
0100
0000
0000
0001
0000
0000
1000
0000
0000
0000
0000
0000
1010
0000
0000
0000
0100
0000
0000
0000
0001
0000
0000
0000
0010
0000
0000
0000
0100
0000
0000
0000
1000
0000
0000
0000
0010
0000
0000
0100
0000
0000
0010
0000
0000
0100
0000
0000
,  // measure 22
0010
0100
0001
1000
0001
1000
0001
1000
0100
0010
0100
0010
0100
0010
2002
0000
,  // measure 23
3003
0000
0000
0000
0000
0000
1000
0000
0000
0000
0010
0000
0000
0000
0001
0000
0000
0000
0010
0000
0000
0000
0100
0000
0000
0000
1000
0000
0000
0000
0100
0000
0000
0000
0001
0000
0000
0000
0010
0000
0000
0000
0100
0000
0000
1000
0000
0000
,  // measure 24
0100
0010
0100
0010
0001
0010
0100
1000
0010
0100
0001
0000
1000
0010
0100
0000
,  // measure 25
1000
0000
0000
0100
0000
0000
0010
0000
0000
0000
0000
0000
1000
0000
0000
0010
0000
0000
0100
0000
0000
0001
0000
0000
1000
0000
0000
0000
0000
0000
0001
0000
0000
0100
0000
0000
0010
0000
0000
0000
0001
0000
0000
0000
0010
0000
0000
0000
,  // measure 26
0100
0000
0001
0000
0010
0000
0100
0000
1000
0000
0010
0000
0100
0000
0000
0101
0000
0000
0101
0000
0000
1010
0000
0000
,  // measure 27
1010
0000
1100
0000
0010
0001
0100
0000
0010
1000
0100
0000
0010
0100
1000
0010
,  // measure 28
0001
0010
1000
0100
0001
0100
1000
0002
2000
0000
0000
0000
0000
0000
0000
0000
,  // measure 29
0000
0000
3003
0000
,  // measure 30
0000
0000
0000
0000
0001
0100
0010
0100
0001
0100
0010
0100
0001
0100
0010
0100
0002
0000
0000
0000
0013
0000
0100
0000
1100
0000
0020
0000
0000
0000
0130
0000
,  // measure 31
0001
0000
1000
0100
0110
0002
0000
1003
0010
0000
0100
0001
0011
0200
0000
1300
,  // measure 32
1000
0010
0100
0000
0001
0010
0100
0000
1100
0000
1010
0000
0001
0010
0100
1000
0020
0000
0000
0000
0000
0000
0000
0000
0130
0000
0000
0000
0000
0000
0000
0000
,  // measure 33
0001
0010
0100
0000
0020
0000
0130
0000
,  // measure 34
1000
0100
0010
0000
0200
0000
0310
0000
,  // measure 35
0002
0010
0003
1000
0100
0000
0101
0000
,  // measure 36
1100
1000
0010
0001
,  // measure 37
0010
0100
0001
0000
0010
0100
0001
0000
,  // measure 38
0100
1000
1020
0031
,  // measure 39
0010
0000
1000
0100
0010
0001
0100
0000
,  // measure 40
0110
0000
0002
0000
1003
0000
0100
0010
,  // measure 41
0001
0000
2000
0000
3001
0000
0010
0100
,  // measure 42
1000
0000
0002
0000
1003
0000
0020
1000
,  // measure 43
0030
0100
0001
0000
0011
0000
1010
0000
,  // measure 44
1000
0000
0100
0000
0010
0000
1000
0010
,  // measure 45
0001
0000
1000
0010
0001
0000
0010
0000
,  // measure 46
1000
0000
0100
0010
0001
0100
0001
1000
,  // measure 47
0010
1000
0100
0010
0001
0000
1001
0000
,  // measure 48
2000
3010
0020
0130
,  // measure 49
0200
0301
0002
0013
,  // measure 50
0020
1030
2000
3001
,  // measure 51
0002
0103
0200
1300
,  // measure 52
2000
0000
3001
0000
0001
0010
0100
0000
,  // measure 53
0001
0100
1000
0000
0010
0000
0001
0000
,  // measure 54
0021
1030
0010
1000
,  // measure 55
0100
1100
0010
0011
,  // measure 56
0001
1000
0100
1000
0100
1000
0100
1000
,  // measure 57
0010
1000
0100
1000
0100
1000
0100
1000
,  // measure 58
0001
1000
0100
1000
0100
1000
0100
1000
,  // measure 59
0010
1000
0100
1000
0100
1000
0100
1000
,  // measure 60
0001
0100
0001
0100
0010
1000
0010
1000
,  // measure 61
0100
0010
0100
0010
0001
0100
0010
1000
,  // measure 62
0010
0100
0001
0010
0100
1000
0010
0100
,  // measure 63
0001
0000
1000
0000
0100
0000
0001
0000
1000
0000
0010
0000
,  // measure 64
0001
0000
0000
0000
0202
0303
0000
0000
2200
3300
0000
0000
2020
3030
0000
0000
,  // measure 65
0110
0000
0100
0000
0001
0010
1000
0010
0001
0000
0100
0000
0010
0000
1000
0100
,  // measure 66
0001
0100
1000
0000
0000
0000
2020
3030
0000
0000
0022
0033
0000
0000
0202
0303
,  // measure 67
0000
0000
0000
0000
0000
0000
0110
0000
0000
0000
0000
0000
0010
0000
0000
1000
0000
0000
0100
0000
0000
0000
0000
0000
0010
0000
0000
0000
0100
0000
0000
0000
1000
0000
0000
0000
0100
0000
0000
0000
0010
0000
0000
0000
0001
0000
0000
0000
,  // measure 68
1000
0010
0200
0000
0301
0000
0000
0000
0022
0033
0000
0000
2020
3030
0000
0000
,  // measure 69
2200
0000
0000
3300
0000
0000
0000
0000
0000
0000
0000
0000
0110
0000
0000
0000
0000
0000
0010
0000
0000
0000
0000
0000
1000
0000
0000
0000
0100
0000
0000
0000
0001
0000
0000
0000
1000
0000
0000
0000
0010
0000
0000
0000
0001
0000
0000
0000
,  // measure 70
0100
0010
0100
0000
0001
0000
1000
0000
0000
0000
2200
3300
0000
0000
2020
3030
,  // measure 71
0000
0000
0000
0000
0000
0000
0022
0000
0000
0033
0000
0000
0000
0000
0000
0000
0000
0000
0110
0000
0000
0000
0100
0000
0000
0000
0001
0000
0000
0000
0010
0000
0000
0000
1000
0000
0000
0000
0001
0000
0000
0000
0100
0000
0000
1000
0000
0000
,  // measure 72
0010
0100
0010
0100
0002
0000
0000
0000
1003
0000
0000
0000
2020
3030
0000
0000
,  // measure 73
0022
0033
0000
0000
0202
0303
0000
0000
2200
0000
0000
0000
3000
0000
0000
0000
,  // measure 74
0020
0000
0300
0000
0031
0100
0010
0000
,  // measure 75
1010
0202
0303
0001
,  // measure 76
0022
0033
0000
0000
2020
3030
0000
0000
2200
3300
0000
0000
0101
0000
0000
0000
,  // measure 77
1010
0000
0110
0000
0001
0010
0100
0000
,  // measure 78
1100
0000
1000
0000
0010
0000
0001
0000
0010
0000
0100
0000
,  // measure 79
0101
0011
0010
0100
,  // measure 80
1100
1010
0010
0100
,  // measure 81
0101
1001
1000
0100
,  // measure 82
1100
1001
0001
0010
,  // measure 83
0100
1000
0100
0010
0100
1000
0100
0001
,  // measure 84
0100
1000
0100
0001
0100
1000
0100
0010
,  // measure 85
2002
0000
0000
0000
,  // measure 86
0000
3003
1001
0010
0010
1000
1000
0100
,  // measure 87
0100
0000
0001
0000
0001
0000
0100
0010
0001
0000
0100
0000
0100
0000
1000
0100
,  // measure 88
0010
0000
0000
0100
0000
0000
1000
0000
0000
0100
0000
0000
0001
0000
0000
0000
0000
0000
0010
0000
0000
0000
0000
0000
0100
0000
0000
0000
0000
0000
1000
0000
0000
0000
0000
0000
0010
0000
0000
0000
0100
0000
0000
0000
0001
0000
0000
0000
,  // measure 89
1000
0000
0100
0000
0010
0000
0011
0000
0000
0101
0000
0000
1100
0000
0000
1020
0000
0000
0031
0000
0000
0101
0000
0000
,  // measure 90
1000
1100
0010
0110
1000
0001
0010
0100
,  // measure 91
1000
0000
0000
0010
0000
0000
0001
0000
0000
0010
0000
0000
0100
0000
0000
0000
0000
0000
0010
0000
0000
0000
0000
0000
0001
0000
0000
0100
0000
0000
1000
0000
0000
0100
0000
0000
0010
0000
0000
0000
1000
0000
0000
0000
0100
0000
0000
0000
,  // measure 92
0001
0000
0000
0000
0100
0000
0000
0000
0010
0000
0000
0000
0001
0000
0000
0000
0100
0000
0000
0000
1000
0000
0000
0000
0100
0000
0000
0010
0000
0000
1000
0000
0000
0001
0000
0000
0020
0000
0000
0000
0000
0000
0130
0000
0000
1000
0000
0000
,  // measure 93
0010
0000
0000
0101
0000
0000
1001
0000
0000
0000
0000
0000
1000
0000
0100
0000
0010
0000
0002
0000
0000
0000
0000
0000
,  // measure 94
1003
0000
0010
0000
0100
0000
0001
0000
0000
0011
0000
0000
1000
0000
0000
1010
0000
0000
0001
0000
0010
0000
0100
0000
,  // measure 95
1000
0010
0001
0010
0100
0010
1000
0000
0010
0100
0001
0000
1000
0010
0001
0000
,  // measure 96
0010
1000
0100
0000
1100
0000
1010
0000
0011
0000
0201
0000
1300
0000
0100
0001
,  // measure 97
0010
0000
0000
0000
0000
0000
0100
0000
0000
1000
0000
0000
0010
0000
0000
0000
0000
0000
0001
0000
0000
0010
0000
0000
1000
0000
0000
0000
0100
0000
0000
0000
0001
0000
0000
0000
1000
0000
0000
0000
0010
0000
0000
0000
0100
0000
0000
0000
,  // measure 98
1000
0000
0010
0100
1000
0000
0100
0001
0010
0100
0010
0100
1000
0000
0010
0000
,  // measure 99
0110
0000
0001
0000
1001
0000
0100
0000
0110
0000
0001
0000
1001
0000
1000
0010
,  // measure 100
0001
0220
0000
0000
,  // measure 101
0000
0000
0000
0000
,  // measure 102
0330
0000
0010
1000
0100
1000
0010
0000
,  // measure 103
0100
0000
0001
0010
0100
0010
0001
0000
,  // measure 104
1000
0000
0010
0100
0001
0100
0010
0000
,  // measure 105
0100
0000
0001
0010
1000
0010
0001
0000
,  // measure 106
1000
0000
0010
0100
1000
0100
0010
0000
,  // measure 107
1000
0000
0001
0100
1000
0100
0001
0000
,  // measure 108
0010
0000
0000
1001
0000
0100
0000
0010
0000
1001
0000
0010
,  // measure 109
0000
0100
0000
1001
0000
0000
0110
0000
0000
1001
0000
0000
,  // measure 110
0110
0000
0010
1000
0100
0010
0001
0000
,  // measure 111
0100
0000
0010
1000
0001
0010
0100
0000
,  // measure 112
0001
0000
0100
1000
0010
0100
1000
0000
,  // measure 113
0100
0000
0001
0010
0100
0001
0100
0000
,  // measure 114
1000
0000
0010
0001
0010
0100
0010
0000
,  // measure 115
1000
0000
0001
0100
0010
2000
0002
0000
,  // measure 116
3003
0000
1000
0100
0010
0001
0100
1000
,  // measure 117
0100
0010
0001
0100
1000
0100
0010
0001
,  // measure 118
0100
0010
0100
0010
1000
0100
1000
0100
,  // measure 119
0010
0001
0010
0001
1000
0010
1000
0010
,  // measure 120
0100
0001
0100
0001
0010
0100
0010
0100
,  // measure 121
1000
0001
1000
0001
0100
0010
0100
0010
,  // measure 122
1000
0100
1000
0010
1000
0001
0100
0001
,  // measure 123
0010
0001
1000
0010
0100
0010
0001
0010
,  // measure 124
0100
0001
0100
0010
0100
1000
0100
0010
,  // measure 125
1000
0100
0010
0001
0100
0010
0001
0010
,  // measure 126
0100
0001
0100
1000
0100
0001
0100
1000
,  // measure 127
0100
0001
0010
1000
0010
0001
0010
1000
,  // measure 128
0010
0001
0100
0010
1000
0001
0100
1000
,  // measure 129
0100
0010
1000
0010
0001
0010
0100
0001
,  // measure 130
0010
0100
0001
0100
1000
0010
0001
0010
,  // measure 131
0100
0001
0010
1000
0010
0001
0100
1000
,  // measure 132
0100
0001
0010
1000
0001
0100
1000
0010
,  // measure 133
0001
0010
1000
0100
0001
0100
1000
0010
,  // measure 134
0220
0000
0000
0330
0000
0000
0001
0000
0010
0000
0100
0000
,  // measure 135
1100
0000
0000
1010
0000
0000
0011
0000
,  // measure 136
0202
0000
0000
0303
0000
0000
1000
0000
0010
0000
0001
0000
,  // measure 137
0011
0000
0000
1010
0000
0000
0101
0000
,  // measure 138
2200
0000
0000
3300
0000
0000
0001
0000
0100
0000
1000
0000
,  // measure 139
1100
0000
0000
0101
0000
0000
1010
0000
,  // measure 140
0022
0000
0000
0000
,  // measure 141
0000
0000
0000
0000
,  // measure 142
0000
0000
0000
0000
,  // measure 143
0033
0000
0000
0000
;

//---------------dance-double - ----------------
#NOTEDATA:;
#CHARTNAME:;
#STEPSTYPE:dance-double;
#DESCRIPTION:;
#CHARTSTYLE:;
#DIFFICULTY:Hard;
#METER:18;
#RADARVALUES:1.025329,1.655410,0.415150,0.407166,0.411158,899.000000,847.000000,52.000000,51.000000,0.000000,0.000000,0.000000,0.000000,0.000000,1.025329,1.655410,0.415150,0.407166,0.411158,899.000000,847.000000,52.000000,51.000000,0.000000,0.000000,0.000000,0.000000,0.000000;
#CREDIT:MILEN;
#DISPLAYBPM:110.000000:440.000000;
#NOTES:
00000000
00000000
00022000
00000000
,
00000000
00000000
00033000
00000000
,
00000000
00000000
00000000
00000000
00000000
00000000
00000000
00000000
01000000
00000000
00000000
01000000
00000000
00000000
02000000
00000000
,
00000000
00000000
00000000
00000000
03001000
00000000
00010000
00000000
00000010
00000000
00000000
00000010
00000000
00000000
00000020
00000000
,
00000000
00000000
00010030
00001000
00100000
00100000
00001000
00010000
,
00000100
00000100
00010000
00001000
00100000
00010000
01000000
00001000
,
00010000
00000100
00001000
00000010
00010000
00001000
00000100
00000001
,
00000010
00001000
00010000
00001000
00010000
01000000
10000000
00100000
,
02000000
03000000
00100000
00000000
10000000
00000000
01000000
00000000
00010000
00000000
00001000
00000000
00100000
00000000
01000000
00000000
,
00100000
01000000
00010000
00001000
00000010
00001000
00010000
00100000
,
00010000
00001000
00000100
00000001
00000010
00001000
00010000
00001000
,
00010000
01000000
10000000
00100000
01000000
10000000
01000000
00100000
,
10000000
01000000
00010000
00001000
00000010
00000001
00000100
00000010
,
00000001
00000000
00000010
00000000
00000100
00000000
00000001
00000000
00000010
00000000
00001000
00000000
00010000
00000000
00002000
00003000
,
00100000
01000000
10000000
00100000
00010000
00001000
00100000
01000000
,
00010000
00000000
00001000
00000000
00000010
00000000
00000100
00000000
00002000
00003000
00000100
00000000
00000010
00000000
00000001
00000000
,
00000100
00001000
00010000
00001000
00000010
00001000
00010000
01000000
,
00010000
00000000
00001000
00000000
00010000
00000000
00100000
00000000
10000000
00000000
01000000
00000000
00010000
00000000
00020000
00030000
,
00001000
00000000
00002000
00003000
00010000
00000000
00020000
00030000
00001000
00000000
00000100
00000000
00000001
00000000
00000010
00000000
,
00000100
00000010
00001000
00010000
01000000
00100000
01000000
10000000
,
00100000
00010000
00001000
00100000
01000000
00010000
00001000
00000010
,
00000001
00000000
00000200
00000300
00000001
00000000
00000010
00000000
00000100
00000000
00000001
00000000
00000100
00000000
00000010
00000000
,
00000002
00000003
00000100
00000000
00001000
00000000
00020000
00030000
00100000
00000000
10000000
00000000
02000000
03000000
00100000
00000000
,
01000000
10000000
00100000
00010000
00100000
01000000
00100000
00010000
,
00001000
00000000
00000100
00000000
00000010
00000000
00000100
00000000
00001000
00000000
00000200
00000300
00000001
00000000
00000010
00000000
,
00000100
00000000
00001000
00000000
00010000
00000000
01000000
00000000
00200000
00300000
10000000
00000000
01000000
00000000
00100000
00000000
,
00010000
00000000
00001000
00000000
00000010
00000000
00000100
00000000
00000002
00000003
00000010
00000000
00001000
00000000
00010000
00000000
,
00100000
00001000
00000010
00010000
00001000
00000100
00010000
01000000
,
00100000
10000000
01000000
00010000
00022000
00000000
00000000
00000000
,
00000000
00000000
00033000
00000000
,
00000000
00000000
00010000
00001000
00000100
00000010
00001000
00000100
00000020
00000000
00000031
00000100
00001000
00000000
00000100
00001000
,
00010000
00000000
00001000
00010000
00100000
00000000
00010000
00100000
10000000
00000000
01000000
00100000
00010000
01000000
00100000
00010000
,
00001000
00000100
00000010
00001000
00000100
00000010
00001000
00010000
00011000
00000000
00000000
00000000
00001000
00000000
00000000
00000000
,
00100000
00001000
00010000
00001000
,
01000000
00001000
00010000
00001000
,
00100000
00001000
00010000
00001000
,
01000000
00001000
00010000
00001000
,
00100000
00010000
01000000
00000000
00100000
01000000
00010000
00000000
,
00100000
00000000
01000000
00000000
10000000
00100000
01000000
00000000
,
10000000
01000000
00100000
00010000
,
00011000
00022000
00033000
00000010
,
00010000
00001000
00010000
00000100
,
00010000
00001000
00010000
00000010
,
00010000
00001000
00010000
00000100
,
00010000
00000000
00001000
00000000
00010000
00000000
00000010
00001000
,
00000100
00000000
00000010
00000100
00001000
00000000
00000010
00000000
,
00000100
00000000
00000001
00000010
00000100
00000000
00000001
00000000
,
00000100
00000010
00001000
00011000
,
00022000
00033000
00010000
01000000
,
10000000
01000000
00010000
00001000
,
00000010
00000001
00000010
00001000
,
00010000
00100000
10000000
00100000
,
00010000
00001000
00000100
00000001
,
00000100
00001000
00010000
00100000
,
10000000
01000000
00010000
00001000
,
00000010
00000001
00000100
00001000
,
00010000
00001000
00010000
00000000
00000100
00000000
00010000
00000000
,
00001000
00010000
00001000
00000000
00100000
00000000
00001000
00000000
,
00010000
00001000
00010000
00000000
00000010
00000000
00010000
00000000
,
00001000
00010000
00001000
00000000
01000000
00000000
00001000
00000000
,
00010000
00000100
00010000
00000000
00001000
01000000
00001000
00000000
,
00010000
00000010
00010000
00000000
00001000
00100000
00001000
00000000
,
00010000
00001000
00100000
00001000
00010000
00000010
00010000
00001000
,
01000000
00001000
00010000
00000100
00010000
00001000
00100000
00000000
,
00010000
01010000
11000000
01010000
,
00010000
00100000
01000000
00010000
00001000
00000010
00000100
00000010
,
00000001
00001000
00000000
00001010
00000000
00001100
00000000
00001010
,
00000000
00000000
00000000
00001000
00000000
00000000
00000100
00000000
00000000
00000010
00000000
00000000
00001000
00000000
00010000
00000000
00001000
00000000
00010000
00000000
00001000
00000000
00010000
00000000
,
00100000
00000000
00100000
10000000
00000000
00000000
11000000
00000000
00000000
01010000
00000000
00000000
,
11000000
00000000
10000000
00100000
00010000
00001000
00100000
01000000
,
00010000
00001000
00000010
00000001
00000000
00000101
00000000
00001100
,
00000000
00000000
00000000
00000101
00000000
00000000
00000000
00000000
00000000
00000001
00000000
00000010
00000000
00000001
00000000
00000010
00000000
00000001
00000000
00000010
00000000
00000100
00000000
00000000
,
00001000
00000010
00010000
00001000
01000000
00000000
01010000
00000000
,
00101000
01010000
20100000
00000000
,
32000000
00000000
03010000
00001000
,
00000010
00000022
00000033
00001000
,
00001100
00010010
00001100
00000011
,
00000001
00000000
00000000
00000100
00000000
00000000
00001000
00000000
00000000
00010000
00000000
00001000
,
00000000
00010000
00000000
00001000
00000000
00010000
00000000
00001000
00000000
01000000
00000000
00000000
,
01001000
00001000
00010000
00000010
,
00010010
00010000
00001000
00100000
,
00101000
00001000
00010000
00000100
,
00010100
00010000
00001000
00100000
,
00020000
01030000
00002000
00013000
,
00000200
00001300
00000020
00010030
,
00022000
00000000
00000000
00000000
,
00000000
00033000
00011000
00010000
00100000
10000000
01000000
10000000
,
00100000
00010000
00001000
00100000
00010000
00001000
00000100
00010000
,
00001000
00000000
00000000
00000100
00000000
00000000
00000001
00000000
00000000
00000010
00000000
00000000
00000001
00000000
00000000
00000100
00000000
00000000
00001000
00000000
00010000
00000000
00000010
00000000
,
00010000
00000000
00001000
00000000
01000000
00000000
00001000
00000000
00000000
00010000
00000000
00000000
00100000
00000000
00000000
20000000
00000000
00000000
31000000
00000000
00000000
01000000
00000000
00000000
,
00010000
00001000
00101000
00000000
00010010
00010000
00001000
00000100
,
00000001
00000000
00000010
00000000
00000100
00000000
00001000
00000000
00010000
00001000
00010000
00000000
00100000
00000000
01000000
00000000
,
10000000
00000000
00000000
00000000
00100000
00000000
00000000
00000000
10000000
00000000
00000000
00000000
00100000
00000000
00000000
00000000
10000000
00000000
00000000
00000000
00100000
00000000
00000000
00000000
10000000
00000000
00000000
01000000
00000000
00000000
00100000
00000000
00000000
00000000
00000000
00000000
00110000
00000000
00000000
00000000
00000000
00000000
00010000
00000000
00000000
01000000
00000000
00000000
,
00002000
00000000
00000000
00023000
00000000
00000000
00030010
00000000
00000000
00000000
00000000
00000000
00010000
00000000
00001000
00000000
00000100
00000000
00000020
00000000
00000000
00000000
00000000
00000000
,
00001030
00000000
00000000
00000000
00000100
00000000
00000000
00000000
00000010
00000000
00000000
00000000
00000001
00000000
00000000
00000100
00000000
00000000
00000001
00000000
00000000
00000000
00000000
00000000
00001000
00000000
00000000
00000000
00000000
00000000
00000010
00000000
00000000
00000000
00000000
00000000
00010000
00000000
00000000
00000000
00001000
00000000
00000000
00000000
00010000
00000000
00000000
00000000
,
00001000
00000010
00001000
00010000
00100000
00010000
00001000
00010000
,
01000000
10000000
00100000
00010000
00001000
00000200
00000301
00000001
,
00001000
00000000
00000000
00000100
00000000
00000000
00000010
00000000
00000000
00001000
00000000
00000000
00010000
00000000
00001000
00000000
00010000
00000000
00001000
00000000
00000000
00000000
00001000
00000000
,
00100000
00000000
00000000
00000000
00000000
00000000
00000000
00000000
00100000
00000000
00000000
00000000
00010000
00000000
00000000
00000000
00000000
00000000
00000000
00000000
00010000
00000000
00000000
00000000
10000000
00000000
00000000
01000000
00000000
00000000
10000000
00000000
00000000
00000000
00000000
00000000
01000000
00000000
00000000
00000000
00000000
00000000
00100000
00000000
00000000
00000000
00000000
00000000
,
00010000
00001000
00010000
00000000
00001000
00000000
00000100
00000000
00000010
00000000
00000001
00000000
00000101
00000000
00000100
00001000
,
00020000
00002000
00000000
00000000
,
00000000
00000000
00000000
00000000
,
00033000
00000000
00000000
00001000
00000000
00010000
00000000
00001000
00000000
00010000
00000000
00001000
,
00000000
00010000
00000000
00000010
00000000
00010000
00000000
00000010
00000000
00010000
00000000
00000010
,
00000000
00001000
00000000
00000010
00000000
00001000
00000000
00000010
00000000
00001000
00000000
00000010
,
00000000
00001000
00000000
00000100
00000000
00001000
00000000
00000100
00000000
00001000
00000000
00000100
,
00000000
00000010
00000000
00000001
00000000
00000010
00000000
00000001
00000000
00000010
00000000
00000001
,
00000000
00000100
00000000
00000010
00000000
00010000
00000000
00001000
00000000
02000000
00000000
00000000
,
03010000
00000000
00000000
00010000
00000000
00100000
00000000
00001000
00000000
00010000
00000000
00000100
,
00000000
00001000
00000000
00000010
00000000
00000000
00011000
00000000
00000000
01000000
00000000
00000000
,
00011000
00000000
00000000
00010000
00000000
00001000
00000000
00010000
00000000
00001000
00000000
00010000
,
00000000
00001000
00000000
00100000
00000000
00001000
00000000
00100000
00000000
00001000
00000000
00100000
,
00000000
00010000
00000000
00100000
00000000
00010000
00000000
00100000
00000000
00010000
00000000
00100000
,
00000000
00010000
00000000
01000000
00000000
00010000
00000000
01000000
00000000
00010000
00000000
01000000
,
00000000
00100000
00000000
10000000
00000000
00100000
00000000
10000000
00000000
00100000
00000000
10000000
,
00000000
00010000
00000000
01000000
00000000
00001000
00000000
00010000
00000000
00000020
00000000
00000000
,
00001030
00000000
00001000
00000100
00001000
00000100
00001000
00000010
,
00010000
00000010
00010000
00000010
00100000
00001000
00100000
00001000
,
00100000
00001000
00010000
00001000
00010000
00001000
00010000
00001000
,
00010000
00001000
00010000
00001000
00010000
00001000
00010000
00001000
,
00010000
00001000
00010000
00001000
00010000
00001000
00010000
00001000
,
00010000
00001000
00010000
00001000
00010000
00001000
00010000
00001000
,
00010000
00001000
00010000
00001000
00010000
00001000
00010000
00001000
,
00010000
00001000
00010000
00001000
00010000
00001000
00010000
00001000
,
00010000
00001000
00010000
00001000
00010000
00001000
00010000
00001000
,
00010000
00001000
00010000
00001000
00010000
00001000
00010000
00001000
,
00010000
00001000
00010000
00001000
00010000
00001000
00010000
00001000
,
00010000
00001000
00010000
00001000
00010000
00001000
00010000
00001000
,
00010000
00001000
00010000
00001000
00010000
00001000
00010000
00001000
,
00010000
00001000
00010000
00001000
00010000
00001000
00010000
00001000
,
00010000
00001000
00010000
00001000
00010000
00001000
00010000
00001000
,
00010000
00001000
00010000
00001000
00010000
00001000
00010000
00001000
,
00010000
00001000
00010000
00001000
00010000
00001000
00010000
00001000
,
00010000
00001000
00010000
00001000
00010000
00001000
00010000
00002000
,
00020000
00000000
00000000
00033000
,
01001000
00000000
00000000
00010010
00000000
00000000
00011000
00000000
,
00022000
00000000
00000000
00033000
,
00010100
00000000
00000000
00101000
00000000
00000000
00011000
00000000
,
00022000
00000000
00000000
00033000
,
01001000
00000000
00000000
00010100
00000000
00000000
00101000
00000000
,
00020020
00000000
00000000
00000000
,
00000000
00000000
00000000
00000000
,
00000000
00000000
00000000
00000000
,
00030030
00000000
00000000
00000000
;

//---------------dance-double - ----------------
#NOTEDATA:;
#CHARTNAME:;
#STEPSTYPE:dance-double;
#DESCRIPTION:;
#CHARTSTYLE:;
#DIFFICULTY:Easy;
#METER:12;
#RADARVALUES:0.444803,0.856246,0.311362,0.566839,0.000000,390.000000,351.000000,39.000000,71.000000,0.000000,0.000000,0.000000,0.000000,0.000000,0.444803,0.856246,0.311362,0.566839,0.000000,390.000000,351.000000,39.000000,71.000000,0.000000,0.000000,0.000000,0.000000,0.000000;
#CREDIT:MILEN;
#DISPLAYBPM:110.000000:440.000000;
#NOTES:
00000000
00000000
00000000
00000000
,
00000000
00000000
00000000
00000000
,
00000000
00000000
00001000
00010000
,
02000000
03000000
00010000
00001000
,
00000200
00000300
00001000
00010000
,
00100000
00010000
00001000
00000010
,
00001000
00010000
00011000
00000000
,
00001000
00010000
00100000
01000000
,
00200000
10300000
01000000
00010000
,
00000000
01000000
00010000
00001000
,
00000000
00010000
00001000
00000010
,
00000001
00000100
00001000
00010000
,
00000000
00001000
00000100
00000001
,
00000000
00000000
00000010
00000000
00001000
00000000
00010000
00020000
,
00030000
00001000
00010000
00001000
,
00000100
00000001
00000020
00000130
,
00000010
00000001
00000000
00001000
,
00000100
00000010
00000000
00002000
,
00023000
00000000
00032000
00000000
00023000
00000000
00000000
00031000
,
00000000
00001000
00000000
01001000
00000000
00000000
00000000
00010010
,
00000000
00000000
00000000
00011000
00000000
00000000
00000000
00020000
,
00000000
00032000
00000000
00000000
00103000
00000000
01000000
00000000
,
20000000
00000000
00000000
30020000
00000000
00000000
20030000
00000000
,
00000000
30100000
00000000
00010000
00000000
00001000
00000000
00010000
,
00000000
00100000
00000000
00010000
00000000
00002000
00000000
00000000
,
00013000
00000000
00010000
00000000
00020200
00030300
00000000
00001000
,
00000000
00001000
00000000
00202000
00303000
00000000
00100000
00000000
,
00010000
01000000
00001000
00010000
,
00000100
00001000
00002002
00000000
,
00000000
00000000
00003003
00000000
,
00000000
00000001
00000100
00001000
00011000
00000000
00010000
00000000
,
00001000
00000000
00011000
00000000
00010000
00100000
10000000
00000000
,
01000000
00100000
00001000
00010000
00011000
00000000
00000000
00000000
,
00001000
00000000
00010000
00000000
,
01000000
00000000
00010000
00000000
,
00001000
00000000
00010000
00000000
,
00100000
00000000
00010000
00000000
,
00001000
00000000
00010000
00000000
,
01000000
00000000
10000000
00000000
,
00100000
00000000
00010000
00000000
,
00022000
00033000
00000000
00010000
,
00000000
00001000
00000000
00000100
,
00000000
00001000
00000000
00010000
,
00000000
00001000
00000000
00000010
,
00000000
00001000
00000000
00010000
,
00000000
00001000
00000000
00000100
,
00000000
00000001
00000000
00000010
,
00000000
00001000
00000000
00022000
,
00033000
00000000
00001000
00000000
,
00010000
00000000
01000000
00000000
,
10000000
00000000
00100000
00000000
,
00010000
00000000
00001000
00000000
,
00000100
00000000
00000001
00000000
,
00000010
00000000
00001000
00000000
,
00010000
00000000
00100000
00000000
,
10000000
00000000
01000000
00000000
,
00010000
00000000
00001000
00000000
,
00000010
00000000
00000001
00000000
,
00000100
00000000
00001000
00000000
,
00010000
00000000
01000000
00000000
,
00010000
00000000
00001000
00000000
,
00000100
00000000
00001000
00000000
,
00010000
00000000
00100000
00000000
,
10000000
00000000
00010000
00000000
,
20020000
00000000
00000000
30030000
,
00000000
10000000
00000000
01000000
00000000
00100000
00000000
00010000
,
00000000
00022000
00000000
00000000
00000000
00000000
00000000
00033000
,
00000000
00001000
00000100
00000010
,
00000001
00002002
00000000
00000000
,
00003003
00000000
00000000
00000001
00000000
00000010
00000000
00000100
,
00000000
00001000
00000000
00022000
00000000
00000000
00000000
00000000
,
00000000
00033000
00000000
00000000
00010000
00000000
00100000
00000000
,
01000000
10000000
10200000
00000000
,
00000000
00000000
00000000
00320000
,
00000000
00032000
00000000
00003100
,
00000001
00001001
00000000
00000021
,
00000000
00000000
00000000
00000000
,
00002030
00000000
00023000
00000000
,
01030000
10000000
10010000
00000000
,
02002000
03003000
00000000
00000000
,
00020200
00030300
00000000
00000000
,
00202000
00303000
00000000
00000000
,
00020020
00030030
00000000
00000000
,
00101000
00000000
00010010
00000000
,
01001000
00000000
00010100
00000000
,
00011000
00000000
00000000
00000000
,
00000000
00001000
00001000
00100000
,
00100000
01000000
01000000
00010000
,
00010000
00001000
00000010
00000100
,
00000010
00000000
00000001
00000100
00001000
00020000
01030000
00000000
,
01000000
00100000
00100000
00001000
,
00001000
00010000
00010000
00100000
,
00001000
00000000
00000010
00000000
00000100
00000000
00000001
00001000
,
00000002
00000013
00000010
00001000
,
00001000
00100000
00010000
01000000
,
00100000
00010000
00001000
00100000
,
01000000
00000000
10000000
00100000
00010000
00002000
00003010
00000000
,
00000010
00000001
00000001
00000100
,
00010000
01000000
00100000
10000000
,
01000000
00000000
00001000
00000000
00000100
00000000
00010000
00001000
,
00020000
00031000
00000000
00000000
,
00000000
00000000
00000000
00000000
,
00000000
00001000
00000000
00010000
,
00000000
00100000
00000000
10000000
,
00000000
01000000
00000000
00010000
,
00000000
00001000
00000000
00010000
,
00000000
00100000
00000000
10000000
,
00000000
01000000
00000000
00010000
,
00000000
00020020
00030030
00000000
,
00202000
00303000
00000000
00022000
,
00033000
00010000
00000000
00001000
,
00000000
00000100
00000000
00000001
,
00000000
00000010
00000000
00001000
,
00000000
00010000
00000000
00001000
,
00000000
00000100
00000000
00000001
,
00000000
00000010
00000000
00001000
,
00000000
00000000
02002000
00000000
03003000
00000000
00000000
00020200
,
00000000
00030300
00000000
00000000
00022000
00000000
00033000
00000000
,
00001000
00000000
00010000
00000000
,
00100000
00000000
01000000
00000000
,
10000000
00000000
01000000
00000000
,
00100000
00000000
00010000
00000000
,
00001000
00000000
00000100
00000000
,
00000010
00000000
00000001
00000000
,
00000010
00000000
00000100
00000000
,
00001000
00000000
00010000
00000000
,
01000000
00000000
00100000
00000000
,
10000000
00000000
00100000
00000000
,
01000000
00000000
00010000
00000000
,
00001000
00000000
00000010
00000000
,
00000100
00000000
00000001
00000000
,
00000100
00000000
00000010
00000000
,
00001000
00010000
00100000
00010000
,
00001000
00000010
00001000
00010000
,
00022000
00000000
00000000
00033000
,
00010000
01000000
00010000
00001000
,
00022000
00000000
00000000
00033000
,
00001000
00000010
00000001
00000100
,
00022000
00000000
00000000
00033000
,
00010000
01000000
10000000
00100000
,
00022000
00000000
00000000
00000000
,
00000000
00000000
00000000
00000000
,
00000000
00000000
00000000
00000000
,
00033000
00000000
00000000
00000000
;

//---------------dance-double - ----------------
#NOTEDATA:;
#CHARTNAME:;
#STEPSTYPE:dance-double;
#DESCRIPTION:;
#CHARTSTYLE:;
#DIFFICULTY:Medium;
#METER:15;
#RADARVALUES:0.780117,1.369994,0.367248,0.758447,0.051894,684.000000,638.000000,46.000000,95.000000,0.000000,0.000000,0.000000,0.000000,0.000000,0.780117,1.369994,0.367248,0.758447,0.051894,684.000000,638.000000,46.000000,95.000000,0.000000,0.000000,0.000000,0.000000,0.000000;
#CREDIT:MILEN;
#DISPLAYBPM:110.000000:440.000000;
#NOTES:
00000000
00000000
00000000
00000000
,
00000000
00000000
00000000
00000000
,
00000000
00000000
00000000
00000000
00000000
00000000
00000000
00000000
00001000
00000000
00000000
00001000
00000000
00000000
00002000
00000000
,
00000000
00000000
00000000
00000000
01003000
00000000
00000000
00000000
00010000
00000000
00000000
00010000
00000000
00000000
00020000
00000000
,
00000000
00030100
00001000
00101000
,
00010000
00000000
00010010
00000000
00001000
00010000
00001000
00010000
,
00001000
00010000
00011000
00000000
00001000
00100000
00010000
01000000
,
00010000
00100000
00001000
00010000
00001000
00100000
00010000
01000000
,
00002000
00000000
00013000
00000100
00001000
00000010
00001000
00000100
,
00010000
00001000
01001000
00000000
00010100
00000000
00000100
00001000
,
00000002
00000000
00001003
00000100
00010000
00001000
00010000
00000100
,
00001000
00000010
00020000
00000000
00032000
00000000
00203000
00000000
,
01300000
00000000
01000000
10000000
00100000
01000000
00100000
10000000
,
01000000
00010000
00001000
00000010
00000001
00000100
00000010
00002000
,
00000000
00003010
00000100
00000001
00000100
00000010
00001000
00000100
,
00000010
00000001
00000100
00001000
00020000
00000000
01030000
10000000
,
00010000
00100000
00010000
10000000
01000000
00010000
00001000
00100000
,
01000000
00010000
00001000
00000010
00000001
00000100
00001000
00002000
,
00013000
00020000
00031000
00002000
00013000
00010000
00000000
00010100
,
00000000
00101000
00000000
00010010
00000000
01001000
00000000
00001000
,
00010000
00200000
00000000
10300000
01000000
00100000
00010000
01000000
,
00100000
00020000
00000000
00031000
00100000
00001000
00010000
00000010
,
00020000
00031000
00010000
00002000
00013000
00001000
00020000
00032000
,
00000000
00003200
00000000
00000001
00000000
00000320
00000000
00001000
,
00000000
00010030
00000000
00010000
00001000
00200000
00000000
01300000
,
10000000
00100000
00010000
00001000
00000200
00000000
00000301
00000010
,
00000100
00001000
00000100
00010000
00002000
00000000
00103000
00010000
,
00100000
01000000
10000000
00100000
00010000
00001000
00010000
00001000
,
00000100
00000001
00000010
00001000
00022000
00000000
00000000
00000000
,
00000000
00000000
00033000
00000000
,
00000000
00000000
00001000
00010000
00100000
01000000
00010000
00100000
02000000
00000000
13000000
00100000
00010000
00000000
00001000
00000000
,
00010000
00000000
00001000
00000100
00000001
00000000
00000010
00000000
00000100
00000000
00000010
00000001
00000100
00000000
00001000
00010000
,
01000000
00000000
10000000
00100000
00010000
00001000
00010000
00000000
00022000
00000000
00000000
00000000
00033000
00000000
00000000
00000000
,
00001000
00010000
00100000
01000000
,
00200000
00300000
00010000
00100000
,
01000000
10000000
01000000
00100000
,
02000000
03000000
10000000
01000000
,
00100000
00010000
00001000
01000000
,
00100000
00010000
00001000
00010000
,
00100000
00010000
00001000
00010000
,
00011000
00022000
00033000
00010000
,
00001000
00000010
00000100
00000020
,
00000030
00001000
00000010
00000100
,
00000001
00000100
00000010
00000200
,
00000300
00000001
00000100
00000010
,
00001000
00010000
00000100
00000010
,
00001000
00010000
00001000
00000010
,
00001000
00010000
00001000
00011000
,
00022000
00033000
00010000
01000000
,
10000000
00100000
00020000
00030000
,
00100000
00010000
00001000
00000100
,
00000001
00000010
00002000
00003000
,
00000010
00001000
00010000
00100000
,
10000000
01000000
00020000
00030000
,
01000000
00010000
00001000
00000010
,
00000001
00000100
00002000
00003000
,
00000100
00001000
00000100
00000000
00001000
00000000
00010000
00000000
,
00001000
00010000
00001000
00000000
00010000
00000000
01000000
00000000
,
00010000
01000000
00010000
00000000
01000000
00000000
10000000
00000000
,
01000000
10000000
01000000
00000000
10000000
00000000
00100000
00000000
,
00010000
00100000
00010000
00000000
00001000
00000000
00010000
00000000
,
00001000
00010000
00001000
00000000
00000100
00000000
00000001
00000000
,
00000010
00001000
00010000
01000000
,
10000000
00100000
00010000
00001000
,
00200000
01000000
01000000
01300000
,
01000000
10000000
00100000
00000000
00100000
00010000
00001000
00000100
,
00000001
00000020
00000000
00000100
00000000
00000100
00000000
00000130
,
00000000
00000100
00001200
00000000
00020300
00000000
00032000
00000000
,
00203000
00320000
10000000
10000000
,
10030000
00000000
10000000
00100000
00010000
00000000
00010000
00001000
,
00000100
00000010
00000100
00000002
00000000
00001000
00000000
00001000
,
00000000
00001003
00000000
00001000
00002010
00000000
00003200
00000000
,
00020300
00032000
00203000
01000000
,
00010000
00301000
00022000
00033000
,
00020020
00030030
00000010
00001000
,
00000100
00000020
00000000
00002030
,
00100000
01000000
00013000
00010100
,
00000100
00010000
00001000
01001000
,
01000000
00001000
00010000
00000010
,
00002020
00003030
00001000
00000100
,
00020200
00030300
00010000
00001000
,
02002000
03003000
01000000
00010000
,
00220000
00330000
00100000
01000000
,
22000000
33000000
20020000
30030000
,
02020000
03030000
02002000
03003000
,
00022000
00000000
00000000
00000000
,
00033000
00000000
00001000
00010000
00100000
10000000
01000000
00010000
,
00001000
00000000
00010000
00001000
00000100
00000001
00000010
00001000
,
00010000
00000000
00001000
00010000
01000000
10000000
00100000
00010000
,
00001000
00000100
00000001
00001000
00000001
00002000
00003010
00010000
,
00001000
00100000
01000000
10000000
00010000
00000000
01000000
00001000
,
00010000
00000100
00000010
00000001
00001000
00000000
00000010
00010000
,
00001000
00000000
00000100
00000000
00010000
00000000
01000000
00000000
00100000
00000000
00000000
00000000
10100000
00000000
10000000
01000000
,
00020000
00031000
00101000
00010000
,
00010010
00001000
01001000
00010000
,
00010100
00000000
00000100
00000010
00000001
00000100
00001000
00010000
,
00100000
10000000
01000000
00100000
01000000
00200000
00310000
10000000
,
01000000
00100000
00010000
00001000
00000010
00000000
00001000
00000001
,
00000010
00000100
00001000
00010000
01000000
00000000
00010000
00100000
,
01000000
00000000
10000000
00000000
00100000
00000000
00010000
00000000
00001000
00000000
00000100
00000000
00000101
00000000
00000001
00000010
,
00002000
00020000
00000000
00000000
,
00000000
00000000
00000000
00000000
,
00033000
00001000
00010000
00001000
,
00010000
01000000
00010000
01000000
,
00010000
00001000
00010000
00001000
,
00000100
00001000
00000100
00001000
,
00010000
00100000
01000000
00100000
,
00010000
00001000
00010000
00200000
,
00300000
10100000
10000000
01000000
,
01010000
00010000
00001000
00001000
,
00011000
00010000
00001000
00010000
,
00001000
00000100
00001000
00000100
,
00001000
00010000
00001000
00010000
,
01000000
00010000
01000000
00010000
,
00001000
00000010
00000100
00000010
,
00001000
00010000
00001000
00000020
,
00000030
00000000
00000001
00000000
00000200
00000000
00000000
00001300
,
00000000
00020000
00000000
00000000
00130000
00000000
20000000
00000000
,
31000000
01000000
00010000
00001000
,
00010000
00100000
00010000
00001000
,
00000100
00001000
00010000
00001000
,
00000010
00000001
00000100
00001000
,
00010000
00100000
10000000
01000000
,
00010000
00001000
00100000
01000000
,
00010000
00001000
00000010
00000100
,
00010000
00001000
00000100
00000001
,
00000010
00000010
00001000
00001000
,
00010000
00010000
01000000
01000000
,
10000000
10000000
00100000
00100000
,
00010000
00010000
00000010
00000010
,
00001000
00001000
01000000
01000000
,
00010000
00010000
00000100
00000100
,
00000010
00000001
00000010
00000000
00000100
00000000
00001000
00000000
,
00010000
00000000
00100000
00000000
01000000
10000000
01000000
00000000
,
02200000
00000000
00000000
03300000
,
00100000
00000000
00000000
00101000
00000000
00000000
00001000
00000000
,
00022000
00000000
00000000
00033000
,
00010000
00000000
00000000
00010010
00000000
00000000
00000010
00000000
,
00000220
00000000
00000000
00000330
,
00000100
00000000
00000000
00001100
00000000
00000000
00001000
00000000
,
00022000
00000000
00000000
00000000
,
00000000
00000000
00000000
00000000
,
00000000
00000000
00000000
00000000
,
00033000
00000000
00000000
00000000
;

//---------------dance-double - ----------------
#NOTEDATA:;
#CHARTNAME:;
#STEPSTYPE:dance-double;
#DESCRIPTION:;
#CHARTSTYLE:;
#DIFFICULTY:Challenge;
#METER:19;
#RADARVALUES:1.260276,2.112074,0.918120,0.463052,1.017915,1105.000000,990.000000,115.000000,58.000000,0.000000,0.000000,0.000000,0.000000,0.000000,1.260276,2.112074,0.918120,0.463052,1.017915,1105.000000,990.000000,115.000000,58.000000,0.000000,0.000000,0.000000,0.000000,0.000000;
#CREDIT:MILEN;
#DISPLAYBPM:110.000000:440.000000;
#NOTES:
00000000
00000000
00022000
00000000
,
00000000
00000000
00033000
00000000
,
00000000
00000000
00000000
00000000
00000000
00000000
00000000
00000000
01001000
00000000
00000000
00011000
00000000
00000000
00020200
00000000
,
00000000
00000000
00030300
00000000
00000100
00001000
00000010
00000000
00010010
00000000
00000000
00011000
00000000
00000000
00202000
00000000
,
00000000
00000000
00303000
00000000
00100000
00010000
01000000
00000000
00100000
00000000
10100000
00000000
10000000
01000000
00100000
00000000
,
00010000
00000000
01010000
00000000
01000000
00001000
00010000
00000000
00000100
00010000
00001000
00000000
00100000
00010000
01000000
00010000
,
01000000
00000000
00000000
00001000
00000000
00000000
00010000
00000000
00000000
00000100
00000000
00000000
00001000
00000000
00000000
00000100
00000000
00000000
00001000
00000000
00000000
00000001
00000000
00000000
00000100
00000000
00000000
00000000
00000010
00000000
00000000
00000000
00001000
00000000
00000000
00000000
00000010
00000000
00000000
00000000
00000100
00000000
00000000
00000000
00000001
00000000
00000000
00000000
,
00000010
00000000
00000000
00000100
00000000
00000000
00000000
00000000
00000000
00000010
00000000
00000000
00000100
00000000
00000000
00000000
00001000
00000000
00000000
00000000
00000100
00000000
00000000
00000000
00010000
00000000
00000000
00000000
00001000
00000000
00000000
00000000
00100000
00000000
00000000
00000000
00010000
00000000
00000000
00000000
00100000
00000000
00000000
00000000
01000000
00000000
00000000
00000000
,
10000000
00000000
00000000
00000000
00000000
00000000
10010000
00000000
00000000
00000000
00000000
00000000
00010000
00000000
00000000
00000000
01000000
00000000
00000000
00000000
00001000
00000000
00000000
00000000
00010000
00000000
00000000
00000000
00001000
00000000
00000000
00000000
01000000
00000000
00000000
00000000
00010000
00000000
00000000
00100000
00000000
00000000
00000000
00000000
00000000
00010000
00000000
00000000
,
00100000
00000000
00001000
00000000
00011000
00000000
00010000
00000100
00002000
00000000
00000000
00000000
00003010
00000100
00000001
00000000
,
00000100
00000000
00000000
00001000
00000000
00000000
00000000
00000000
00000000
00000100
00000000
00000000
00000001
00000000
00000000
00000000
00000010
00000000
00000000
00000000
00000100
00000000
00000000
00000000
00001000
00000000
00000000
00000000
00000010
00000000
00000000
00000000
00010000
00000000
00000000
00000000
00001000
00000000
00000000
00100000
00000000
00000000
00000000
00000000
00000000
00001000
00000000
00000000
,
00100000
00000000
00000000
00110000
00000000
00000000
10000000
00000000
01000000
00000000
00100000
00000000
01000000
00000000
00010000
00000000
00001000
00000000
00010000
00000000
00000010
00000000
00000100
00000000
,
00000010
00000000
00000000
00000000
00001000
00000000
00000000
00000000
00000100
00000000
00000000
00000000
00000010
00000000
00000000
00000001
00000000
00000000
00000000
00000000
00000000
00000010
00000000
00000000
00000001
00000000
00000000
00000000
00000100
00000000
00000000
00000000
00001000
00000000
00000000
00000000
00010000
00000000
00000000
00000100
00000000
00000000
00000000
00000000
00000000
00010000
00000000
00000000
,
00000100
00000000
00000000
00000000
00001000
00000000
00000000
00000000
00000010
00000000
00000000
00000000
00010000
00000000
00000000
00001000
00000000
00000000
00100000
00000000
00000000
00000000
00000000
00000000
00001000
00000000
00000000
00010000
00000000
00000000
00000010
00000000
00000000
00000000
00000000
00000000
00010000
00000000
00000000
00001000
00000000
00000000
01000000
00000000
00000000
00010000
00000000
00000000
,
00001000
00010000
01000000
00000000
00010000
01000000
10000000
00000000
00100000
00010000
00100000
01000000
00100000
00000000
01100000
00000000
,
10000000
00000000
01000000
00000000
00100000
00000000
00010000
00000000
01000000
00000000
00001000
00000000
00010000
00000000
00000000
00011000
00000000
00000000
00000100
00000000
00001000
00000000
00000010
00000000
,
00010000
00000000
00000000
00000000
00001000
00000000
00000000
00000000
00000100
00000000
00000000
00000000
00000001
00000000
00000000
00000010
00000000
00000000
00000000
00000000
00000000
00000001
00000000
00000000
00000010
00000000
00000000
00000000
00000000
00000000
00000110
00000000
00000000
00000000
00000000
00000000
00001000
00000000
00000000
00000100
00000000
00000000
00001000
00000000
00000000
00000100
00000000
00000000
,
00010000
00000000
00000000
00001000
00000000
00000000
00010000
00000000
00000000
00001000
00000000
00000000
01000000
00000000
00000000
00010000
00000000
00000000
01000000
00000000
00000000
00010000
00000000
00000000
10000000
00000000
00000000
00000000
01000000
00000000
00000000
00000000
00100000
00000000
00000000
00000000
00010000
00000000
00000000
01000000
00000000
00000000
00001000
00000000
00000000
00000000
00000000
00000000
,
00010000
00000000
00000000
00100000
00000000
00000000
00001000
00000000
00000000
00000000
00000000
00000000
00010000
00000000
00000000
01000000
00000000
00000000
00001000
00000000
00000000
00000000
00000000
00000000
00010000
00000000
00000000
00100000
00000000
00000000
00001000
00000000
00000000
00000000
00010000
00000000
00000000
00000000
00100000
00000000
00000000
00000000
00010000
00000000
00000000
00000000
00001000
00000000
,
00000000
00000000
00000010
00000000
00000000
00000000
00000002
00000000
00000000
00000000
00000000
00000000
00000000
00000000
00000103
00000000
00000000
00000000
00000010
00000000
00000000
00000000
00001000
00000000
00000000
00000000
00000100
00000000
00000000
00000000
00000010
00000000
00000000
00000000
00001000
00000000
00000000
00000000
00010000
00000000
00000000
00000000
01000000
00000000
00000000
10000000
00000000
00000000
,
00000000
01000000
00100000
00010000
00000000
00110000
00000000
00001000
00000000
00011000
00000000
00010000
00000100
00001000
00000100
00001000
,
00000100
00000000
00000000
00000010
00000000
00000000
00000001
00000000
00000000
00000000
00000000
00000000
00000101
00000000
00000000
00000000
00000100
00000000
00000000
00000000
00001000
00000000
00000000
00000000
00010000
00000000
00000000
00000000
00001000
00000000
00000000
00000000
00000100
00000000
00000000
00000000
00001000
00000000
00000000
00010000
00000000
00000000
00001000
00000000
00000000
00010000
00000000
00000000
,
00001000
00010000
01000000
00100000
01000000
00100000
01000000
00100000
00010000
10000000
00010000
10000000
00010000
10000000
20020000
00000000
,
30030000
00000000
00000000
00000000
00000000
00000000
00010000
00000000
00000000
00000000
01000000
00000000
00000000
00000000
00100000
00000000
00000000
00000000
00010000
00000000
00000000
00000000
00001000
00000000
00000000
00000000
00100000
00000000
00000000
00000000
01000000
00000000
00000000
00000000
00010000
00000000
00000000
00000000
00001000
00000000
00000000
00000000
00000010
00000000
00000000
00000001
00000000
00000000
,
00000100
00000001
00000100
00000001
00001000
00000010
00000100
00000001
00000010
00000100
00001000
00000000
00000100
00010000
00001000
00000000
,
01000000
00000000
00000000
00001000
00000000
00000000
00010000
00000000
00000000
00000000
00000000
00000000
00000010
00000000
00000000
00010000
00000000
00000000
00001000
00000000
00000000
00100000
00000000
00000000
01000000
00000000
00000000
00000000
00000000
00000000
10000000
00000000
00000000
00100000
00000000
00000000
00010000
00000000
00000000
00000000
00100000
00000000
00000000
00000000
01000000
00000000
00000000
00000000
,
00100000
00000000
00010000
00000000
00001000
00000000
00000100
00000000
00000010
00000000
00000100
00000000
00000001
00000000
00000000
00000011
00000000
00000000
00001000
00000000
00000000
00011000
00000000
00000000
,
00100000
00000000
10100000
00000000
10000000
01000000
00010000
00000000
01000000
00010000
00001000
00000000
00010000
00001000
00000100
00000001
,
00000010
00000100
00001000
00000010
00000100
00001000
00010000
00000000
00022000
00000000
00000000
00000000
00000000
00000000
00000000
00000000
,
00000000
00000000
00033000
00000000
,
00000000
00000000
00000000
00000000
00001000
01000000
00010000
01000000
00001000
01000000
00010000
01000000
00001000
01000000
00010000
01000000
00200000
00000000
00000000
00000000
10300000
00000000
01000000
00000000
01010000
00000000
00002000
00000000
00000000
00000000
00003100
00000000
,
00000001
00000000
00000001
00000010
00001010
00020000
00000000
01030000
10000000
00000000
10000000
00100000
00110000
00002000
00000000
00003100
,
00000001
00000010
00000100
00000000
00000010
00001000
00010000
00000000
00011000
00000000
00100000
00000000
01000000
10000000
00100000
00010000
00002000
00000000
00000000
00000000
00000000
00000000
00000000
00000000
00103000
00000000
00000000
00000000
00000000
00000000
00000000
00000000
,
00010000
01000000
00200000
10300000
,
01000000
00010000
00002000
00003010
,
00000002
00000100
00000003
00001000
00000010
00000000
00010010
00000000
,
00011000
00001000
00100000
01000000
,
10000000
00100000
00010000
00000000
00001000
00000100
00000001
00000000
,
00000010
00000100
00010100
01001000
,
01000000
00000000
00100000
10000000
01000000
00100000
00010000
00000000
,
00011000
00020000
00030010
00001000
,
00000100
00000020
00000031
00000100
,
00001000
00000000
00020000
00000000
00130000
00000000
20000000
01000000
,
30000000
00010000
00100000
00000000
00101000
00000000
00011000
00000000
,
00010000
00000000
00000010
00000000
00000100
00000000
00000001
00000010
,
00001000
00000000
00010000
01000000
10000000
00000000
00100000
00000000
,
01000000
00000000
00010000
00100000
00010000
00100000
00001000
00010000
,
00000100
00001000
00000100
00001000
00000001
00000000
00001001
00000000
,
00000002
00000103
00000200
00000310
,
00000020
00010030
00020000
00031000
,
00002000
00103000
00200000
01300000
,
02000000
13000000
20000000
30100000
,
00200000
00000000
00310000
00000000
00010000
00001000
00000010
00000000
,
00001000
00010000
00100000
00000000
00010000
00000000
00001000
00000000
,
00001020
00000031
00000100
00001000
,
00010000
00010010
00001000
00101000
,
00010000
00001000
00000100
00000000
00001000
00000000
00010000
00000000
,
00001000
00010000
01000000
00000000
00010000
00000000
00001000
00000000
,
00010000
00001000
00000010
00000000
00001000
00000000
00010000
00000000
,
00001000
00010000
00100000
00000000
00010000
00000000
00001000
00000000
,
00000010
00000001
00000010
00000001
00000100
00000010
00000100
00000010
,
00001000
00000100
00001000
00000100
00010000
00001000
00010000
00001000
,
00100000
00010000
00100000
00010000
01000000
00100000
01000000
00100000
,
10000000
00000000
01000000
00000000
00010000
00000000
00001000
00000000
00000010
00000000
00000001
00000000
,
00000100
00000110
00010010
00011000
,
01001000
00000000
01000000
00000000
00010000
00100000
01000000
00000000
00010000
00000000
00001000
00000000
00000010
00000000
00000100
00000010
,
00000001
00000100
00000000
00001100
00000000
00011000
00000000
01010000
,
00000000
00000000
00000000
00000000
00000000
00000000
11000000
00000000
00000000
00000000
00000000
00000000
10000000
00000000
00000000
00100000
00000000
00000000
01000000
00000000
00000000
00000000
00000000
00000000
00010000
00000000
00000000
00000000
10000000
00000000
00000000
00000000
01000000
00000000
00000000
00000000
00100000
00000000
00000000
00000000
00010000
00000000
00000000
00000000
00100000
00000000
00000000
00000000
,
00001000
00010000
00000200
00000000
00001300
00000000
00000000
00000000
00001010
00000000
00000000
00000000
00011000
00000000
00000000
00000000
,
00110000
00000000
00000000
00000000
00000000
00000000
10010000
00000000
00000000
00010000
00000000
00000000
01000000
00000000
00001000
00000000
00010000
00000000
00000100
00000000
00000010
00000000
00000001
00000000
,
00000100
00000010
00000100
00000000
00000001
00000000
00000010
00000000
00000000
00000000
00000110
00000000
00000000
00000000
00010100
00000000
,
00000000
00000000
00000000
00000000
00000000
00000000
01001000
00000000
00000000
00000000
00000000
00000000
00000000
00000000
00000000
00000000
00000000
00000000
01100000
00000000
00000000
00000000
00100000
00000000
00000000
00000000
10000000
00000000
00000000
00000000
01000000
00000000
00000000
00000000
00100000
00000000
00000000
00000000
00010000
00000000
00000000
00000000
01000000
00000000
00000000
00001000
00000000
00000000
,
00010000
00001000
00010000
00001000
00020000
00000000
00000000
00000000
00030010
00000000
00000000
00000000
00000110
00000000
00000000
00000000
,
00000101
00001010
00020200
00030300
,
02002000
00000000
03003000
00000000
01000000
00010000
00100000
00000000
,
00110000
22000000
33000000
10000000
,
10010000
01001000
00010100
00001001
,
00000110
00000000
00000110
00000000
00000001
00000100
00001000
00000000
,
00010000
00000000
00001000
00000000
00000010
00000000
00001000
00000000
00010000
00000000
00100000
00000000
,
10100000
11000000
01000000
00010000
,
00011000
00011000
00001000
00000010
,
00000011
00000101
00000100
00001000
,
00011000
00011000
00010000
00100000
,
10000000
01000000
00010000
00000000
00001000
00000010
00000001
00000000
,
00000100
00001000
00010000
00000000
01000000
00010000
00001000
00000000
,
00022000
00000000
00000000
00000000
,
00000000
00033000
00011000
00010000
00100000
10000000
01000000
00100000
,
01000000
00000000
10000000
00000000
00100000
00000000
00010000
00001000
00010000
00000000
00001000
00000000
00000100
00000000
00000001
00000010
,
00000100
00000000
00000000
00000010
00000000
00000000
00000001
00000000
00000000
00000010
00000000
00000000
00000100
00000000
00000000
00000000
00000000
00000000
00010000
00000000
00000000
00000000
00000000
00000000
00001000
00000000
00000000
00000000
00000000
00000000
00100000
00000000
00000000
00000000
00000000
00000000
01000000
00000000
00000000
00000000
10000000
00000000
00000000
00000000
00010000
00000000
00000000
00000000
,
01000000
00000000
00100000
00000000
00010000
00000000
00011000
00000000
00000000
01001000
00000000
00000000
00011000
00000000
00000000
00010200
00000000
00000000
00000310
00000000
00000000
00000011
00000000
00000000
,
00001000
00001100
00010000
00011000
00001000
00100000
01000000
10000000
,
00100000
00000000
00000000
00010000
00000000
00000000
00100000
00000000
00000000
00000000
00000000
00000000
00010000
00000000
00000000
00000000
00000000
00000000
00001000
00000000
00000000
00000000
00000000
00000000
00000100
00000000
00000000
00001000
00000000
00000000
00000100
00000000
00000000
00000000
00000000
00000000
00000001
00000000
00000000
00000000
00000010
00000000
00000000
00000000
00000100
00000000
00000000
00000000
,
00001000
00000000
00000000
00000000
00000010
00000000
00000000
00000000
00010000
00000000
00000000
00000000
00001000
00000000
00000000
00000000
00100000
00000000
00000000
00000000
01000000
00000000
00000000
00000000
10000000
00000000
00000000
00100000
00000000
00000000
00010000
00000000
00000000
00000000
00000000
00000000
00012000
00000000
00000000
00000000
00000000
00000000
00103000
00000000
00000000
00010000
00000000
00000000
,
00001000
00000000
00000000
00001010
00000000
00000000
00000101
00000000
00000000
00000000
00000000
00000000
00000001
00000000
00000010
00000000
00000100
00000000
00002000
00000000
00000000
00000000
00000000
00000000
,
00013000
00000000
01000000
00000000
00100000
00000000
10000000
00000000
00000000
11000000
00000000
00000000
00010000
00000000
00000000
01010000
00000000
00000000
10000000
00000000
00100000
00000000
01000000
00000000
,
00010000
00100000
00010000
00100000
00001000
00010000
00000100
00000000
00010000
00001000
00000100
00000000
00001000
00000100
00000001
00000000
,
00000010
00000100
00000010
00000000
00000101
00000000
00001100
00000000
00011000
00000000
00210000
00000000
10300000
00000000
10000000
01000000
,
00100000
00000000
00000000
00000000
00000000
00000000
01000000
00000000
00000000
00100000
00000000
00000000
00010000
00000000
00000000
00000000
00000000
00000000
00100000
00000000
00000000
00010000
00000000
00000000
00001000
00000000
00000000
00000000
00000100
00000000
00000000
00000000
00001000
00000000
00000000
00000000
00000010
00000000
00000000
00000000
00001000
00000000
00000000
00000000
00000100
00000000
00000000
00000000
,
00000001
00000000
00000100
00000010
00000001
00000000
00000100
00001000
00010000
00001000
00010000
00100000
10000000
00000000
01000000
00000000
,
01100000
00000000
00010000
00000000
00011000
00000000
00000100
00000000
00000110
00000000
00000001
00000000
00001001
00000000
00000100
00001000
,
00010000
00022000
00000000
00000000
,
00000000
00000000
00000000
00000000
,
00033000
00001000
00010000
00100000
,
10000000
01000000
00010000
00001000
,
00100000
00010000
00000010
00001000
,
01000000
00100000
00010000
00001000
,
00000100
00010000
01000000
00001000
,
00000010
00000001
00000100
00001000
,
00010000
00000000
00000000
00001000
00000000
00000010
00000000
00001000
00000000
00010000
00000000
00100000
,
00000000
00010000
00000000
00011000
00000000
00000000
01001000
00000000
00000000
00010100
00000000
00000000
,
00011000
00010000
00001000
00000010
,
00000001
00000100
00001000
00010000
,
00000010
00001000
00100000
00010000
,
00000100
00000010
00001000
00010000
,
01000000
00001000
00000100
00010000
,
00100000
10000000
01000000
00010000
,
00001000
00000000
01000000
00100000
00010000
00001000
00010000
00100000
,
00010000
00001000
00000100
00001000
00010000
00001000
00000100
00000010
,
00000100
00000001
00000010
00000001
00000010
00000100
00001000
00000100
,
00001000
00000010
00010000
00001000
00010000
00001000
01000000
00010000
,
00100000
01000000
00100000
01000000
10000000
00100000
10000000
00100000
,
01000000
00010000
01000000
00010000
00100000
00001000
00010000
00000100
,
00001000
00000010
00000100
00000001
00000100
00000001
00001000
00000010
,
00001000
00000100
00001000
00000010
00010000
00001000
00010000
00000100
,
00010000
00001000
01000000
00001000
00010000
00001000
00100000
00010000
,
01000000
00010000
00100000
00010000
10000000
01000000
00100000
00010000
,
01000000
00010000
00100000
00001000
00010000
00000010
00001000
00000010
,
00000100
00000001
00000010
00000100
00001000
00000100
00000010
00000100
,
00010000
00001000
00100000
01000000
00100000
00010000
00100000
01000000
,
10000000
00100000
00010000
00100000
00010000
00001000
00000100
00000001
,
00000010
00000001
00000010
00000100
00001000
00000010
00000100
00000001
,
00000010
00001000
00000010
00001000
00010000
01000000
10000000
01000000
,
10000000
00100000
01000000
00010000
00100000
01000000
00010000
00001000
,
00000010
00000100
00001000
00000010
00000100
00000001
00001000
00000100
,
00000220
00000000
00000000
00000330
00000000
00000000
00000001
00000000
00000100
00000000
00001000
00000000
,
00011000
00000000
00000000
00010010
00000000
00000000
00101000
00000000
,
02200000
00000000
00000000
03300000
00000000
00000000
10000000
00000000
01000000
00000000
00010000
00000000
,
00011000
00000000
00000000
00101000
00000000
00000000
00010010
00000000
,
00000220
00000000
00000000
00000330
00000000
00000000
00000001
00000000
00000100
00000000
00001000
00000000
,
01001000
00000000
00000000
00010100
00000000
00000000
00101000
00000000
,
00020020
00000000
00000000
00000000
,
00000000
00000000
00000000
00000000
,
00000000
00000000
00000000
00000000
,
00030030
00000000
00000000
00000000
;
