#VERSION:0.83;
#TITLE:Just Right;
#SUBTITLE:;
#ARTIST:GOT7;
#TITLETRANSLIT:;
#SUBTITLETRANSLIT:;
#ARTISTTRANSLIT:;
#GENRE:K-POP;
#ORIGIN:;
#CREDIT:MUINELIM;
#BANNER:Just Right.png;
#BACKGROUND:Just Right-bg.png;
#PREVIEWVID:;
#JACKET:Just Right-jacket.png;
#CDIMAGE:;
#DISCIMAGE:;
#LYRICSPATH:;
#CDTITLE:;
#MUSIC:Just Right.ogg;
#OFFSET:0.000000;
#SAMPLESTART:49.382999;
#SAMPLELENGTH:15.000004;
#SELECTABLE:YES;
#DISPLAYBPM:96.000000;
#BPMS:0.000=96.000;
#STOPS:;
#DELAYS:;
#WARPS:;
#TIMESIGNATURES:0.000=4=4;
#TICKCOUNTS:0.000=4;
#COMBOS:0.000=1;
#SPEEDS:0.000=1.000=0.000=0;
#SCROLLS:0.000=1.000;
#FAKES:;
#LABELS:0.000=Song Start;
#BGCHANGES:0.000=Just Right.avi=1.000=0=0=0=StretchNoLoop====,
99999=-nosongbg-=1.000=0=0=0 // don't automatically add -songbackground-
;
#KEYSOUNDS:;
#ATTACKS:
;

//---------------dance-single - ----------------
#NOTEDATA:;
#CHARTNAME:;
#STEPSTYPE:dance-single;
#DESCRIPTION:;
#CHARTSTYLE:;
#DIFFICULTY:Beginner;
#METER:2;
#RADARVALUES:0.084391,0.119037,0.021352,0.014235,0.000000,83.000000,80.000000,3.000000,2.000000,0.000000,0.000000,0.000000,0.000000,0.000000,0.084391,0.119037,0.021352,0.014235,0.000000,83.000000,80.000000,3.000000,2.000000,0.000000,0.000000,0.000000,0.000000,0.000000;
#CREDIT:;
#DISPLAYBPM:96.000000;
#NOTES:
0000
0000
0000
0000
,
0000
0000
0000
0000
,
0000
0000
0000
0000
,
0000
0000
0000
0000
,
1000
0000
0001
0000
,
1000
0000
0001
0000
,
0100
0000
0010
0000
,
0100
0000
0010
0000
,
1000
0000
0001
0000
,
0100
0000
0010
0000
,
1000
0000
0001
0000
,
0100
0000
0010
0000
,
1000
0000
0000
0000
,
0000
0000
0000
0000
,
0100
0000
0000
0000
,
0000
0000
0000
0000
,
0010
0000
0000
0000
,
0000
0000
0000
0000
,
0001
0000
0000
0000
,
0000
0000
0000
0000
,
1000
0000
1000
0000
,
1000
0000
1000
0000
,
0001
0000
0001
0000
,
0001
0000
0001
0000
,
1000
0000
1000
0000
,
0001
0000
0001
0000
,
1000
0000
0001
0000
,
1000
0000
0001
0000
,
1001
0000
0000
0000
,
1001
0000
0000
0000
,
1001
0000
0000
0000
,
0100
0000
0100
0000
,
0010
0000
0100
0000
,
0010
0000
0100
0000
,
0010
0000
0100
0000
,
0010
0000
0100
0000
,
0001
0000
0000
0000
,
0010
0000
0000
0000
,
0100
0000
0000
0000
,
1000
0000
0000
0000
,
0010
0000
0100
0000
,
0001
0000
1000
0000
,
0100
0000
0010
0000
,
0001
0000
1000
0000
,
0002
0000
0000
0000
,
0003
0000
0000
0000
,
2000
0000
0000
0000
,
3000
0000
0000
0000
,
0010
0000
0010
0000
,
0100
0000
0100
0000
,
0010
0000
0100
0000
,
0010
0000
0100
0000
,
0001
0000
0010
0000
,
0100
0000
1000
0000
,
0010
0000
0100
0000
,
0001
0000
1000
1000
;

//---------------dance-single - ----------------
#NOTEDATA:;
#CHARTNAME:;
#STEPSTYPE:dance-single;
#DESCRIPTION:;
#CHARTSTYLE:;
#DIFFICULTY:Easy;
#METER:4;
#RADARVALUES:0.147429,0.198839,0.049821,0.035586,0.000000,145.000000,138.000000,7.000000,5.000000,0.000000,0.000000,0.000000,0.000000,0.000000,0.147429,0.198839,0.049821,0.035586,0.000000,145.000000,138.000000,7.000000,5.000000,0.000000,0.000000,0.000000,0.000000,0.000000;
#CREDIT:;
#DISPLAYBPM:96.000000;
#NOTES:
0000
0000
0000
0000
,
0000
0000
0000
0000
,
0000
0000
0000
0000
,
0000
0000
0000
0000
,
0001
1000
0001
1000
,
0010
0100
0010
0000
,
1000
0001
1000
0001
,
0100
0010
0100
0000
,
0001
1000
0010
0100
,
0010
1000
0001
1000
,
0100
0010
0001
1000
,
0001
0010
0100
1000
,
1001
0000
0000
0000
,
0001
0000
0000
0000
,
1001
0000
0000
0000
,
1000
0000
0000
0000
,
0110
0000
0000
0000
,
0010
0000
0000
0000
,
0110
0000
0000
0000
,
0100
0000
0000
0000
,
0010
1000
0010
1000
,
0010
0010
0010
0000
,
0100
0001
0100
0001
,
0100
0100
0100
0000
,
0001
0010
0001
0001
,
1000
0100
1000
1000
,
0001
0010
0100
1000
,
0100
0010
0001
0000
,
1001
0000
0000
0000
1000
1000
0000
0000
,
1001
0000
0000
0000
0001
0001
0000
0000
,
1001
0000
0000
0000
1000
1000
0000
0000
,
0001
1000
0001
0200
,
0310
0000
0000
0010
0000
0000
0000
0000
,
0010
0000
0000
0010
0000
0000
0000
0000
,
0010
0000
0000
0010
0000
0000
0000
0000
,
0010
0000
0000
0010
0000
0000
0000
0000
,
1000
0000
0100
0000
,
0001
0000
0100
0000
,
1000
0000
0100
0000
,
0001
0000
0100
0000
,
1000
0000
0010
0000
,
0001
0000
0010
0000
,
1000
0000
0010
0000
,
0001
0000
0010
0000
,
2000
0000
3000
0000
,
0200
0000
0300
0000
,
0020
0000
0030
0000
,
0002
0000
0003
0000
,
1000
0001
1000
0010
,
0100
0001
0010
0010
,
0001
1000
0001
0100
,
0010
1000
0100
1000
,
1000
0010
0001
0000
,
0001
0010
1000
0000
,
0001
0100
1000
0000
,
1000
0000
0100
0000
0001
0000
1000
1000
;

//---------------dance-single - ----------------
#NOTEDATA:;
#CHARTNAME:;
#STEPSTYPE:dance-single;
#DESCRIPTION:;
#CHARTSTYLE:;
#DIFFICULTY:Medium;
#METER:7;
#RADARVALUES:0.241988,0.298259,0.078290,0.113877,0.000000,238.000000,227.000000,11.000000,16.000000,0.000000,0.000000,0.000000,0.000000,0.000000,0.241988,0.298259,0.078290,0.113877,0.000000,238.000000,227.000000,11.000000,16.000000,0.000000,0.000000,0.000000,0.000000,0.000000;
#CREDIT:;
#DISPLAYBPM:96.000000;
#NOTES:
0000
0000
0000
0000
,
0000
0000
0000
0000
,
0000
0000
0000
0000
,
0000
0000
0000
0000
,
1000
0001
1000
0010
,
0100
0000
0010
0000
1000
1000
1000
0000
,
0001
1000
0001
0100
,
0010
0000
0100
0000
0001
0001
0001
0000
,
1001
0000
1000
0010
1000
0000
0001
0000
,
1001
0000
0001
0010
0001
0000
1000
0000
,
0001
0100
0001
0000
1000
0100
1000
0000
,
0010
0100
0010
0000
1000
0001
1000
0000
,
0002
0100
0000
0010
,
0000
0100
0000
1003
,
2000
0010
0000
0100
,
0000
0010
0000
3001
,
0002
0100
0000
1000
,
0000
0010
0000
0103
,
2000
0010
0000
0100
,
0000
0001
0000
3010
,
0010
0100
0010
0000
1000
0000
0100
0000
,
0010
0100
0010
0000
0001
0000
0100
0000
,
0010
1000
0010
0000
0100
0000
0001
0000
,
0010
0001
0010
0000
0100
0000
1000
0000
,
0010
0010
0010
0000
0100
0000
0001
0000
,
1000
1000
1000
0000
0100
0000
0010
0000
,
0001
0001
0001
0000
1000
0000
0010
0000
,
0100
0100
0100
0000
0001
0000
1000
0000
,
2020
3030
0000
0010
1000
0010
0000
0000
,
0202
0303
0000
0100
0001
0100
0000
0000
,
2002
3003
0000
0001
1000
0001
0000
0000
,
0011
0000
1100
0000
0110
0000
0010
0010
,
0001
0100
0001
0000
0001
0010
0001
0000
,
1000
0100
1000
0000
1000
0010
1000
0000
,
0001
1000
0001
0000
0100
0010
0100
0000
,
0001
1000
0001
0200
0000
0310
0000
0000
,
0000
0010
1000
0100
,
0000
0100
0001
0010
,
0000
0010
1000
0100
,
1001
0000
0010
0000
0001
1000
0001
0000
,
0100
1000
0010
0001
,
0010
1000
0100
0001
,
0100
1000
0010
0001
,
1001
0000
0100
0000
0010
0100
0010
0000
,
2000
0000
0000
3000
,
0200
0000
0000
0300
,
0020
0000
0000
0030
,
0002
0000
0000
0003
,
1000
0010
0100
0000
0010
1000
0100
0000
,
0010
0001
0100
0000
0001
0100
0010
0000
,
1000
0001
0100
0000
0001
1000
0010
0000
,
0100
0001
1000
0000
0010
1000
0001
0000
,
0010
0001
0010
0001
0010
0001
0100
0000
,
0010
1000
0010
1000
0010
1000
0100
0000
,
0010
0100
0010
0100
0010
0100
1000
0000
,
0001
1000
0001
0200
0000
0310
0010
1001
;

//---------------dance-single - ----------------
#NOTEDATA:;
#CHARTNAME:;
#STEPSTYPE:dance-single;
#DESCRIPTION:;
#CHARTSTYLE:;
#DIFFICULTY:Hard;
#METER:10;
#RADARVALUES:0.357898,0.398568,0.163698,0.199284,0.032028,352.000000,329.000000,23.000000,28.000000,0.000000,0.000000,0.000000,0.000000,0.000000,0.357898,0.398568,0.163698,0.199284,0.032028,352.000000,329.000000,23.000000,28.000000,0.000000,0.000000,0.000000,0.000000,0.000000;
#CREDIT:;
#DISPLAYBPM:96.000000;
#NOTES:
0000
0000
0000
0000
,
0000
0000
0000
0000
,
0000
0000
0000
0000
,
0000
0000
0000
0000
0000
0000
0000
0010
,
0020
0000
1030
0100
0010
0100
1000
0000
,
0001
0010
0100
0010
0001
0000
1001
0000
,
1000
0010
0100
0001
0100
0010
1000
0000
,
0001
0010
0100
1000
0100
0010
0001
0000
,
0101
0000
0100
0010
1000
0001
0100
0000
,
1010
0000
0010
0100
0001
1000
0010
0000
,
0001
0010
0010
1000
1000
0100
0010
0000
,
1000
0010
0010
0001
0001
0100
0010
0000
,
2010
0100
0000
3001
,
0102
0010
0000
1003
,
2100
0010
0000
3001
,
0012
0100
0000
1003
,
1020
0001
0000
0130
,
0201
1000
0000
0310
,
0010
1000
0100
0000
0010
0001
0100
0000
,
0010
1000
0001
0100
0020
0000
1030
0001
,
0100
0100
0010
0010
1000
0000
0001
1000
,
0010
0010
0100
0100
0001
0000
1000
0010
,
0100
0100
1000
0100
0001
0000
0001
0100
,
0010
0010
0001
0010
1000
0000
0100
0010
,
0001
0001
0100
0100
0010
0010
1000
0001
,
0010
0010
1000
0010
0001
0000
0010
0100
,
1000
1000
0010
0010
0100
0100
0001
1000
,
0100
0100
0001
0100
1000
0000
0010
0100
,
0220
0300
0000
1000
1000
2000
3030
0000
,
0202
0003
0000
0010
0010
0020
0330
0000
,
2020
0030
0000
0001
0001
0002
3003
0000
,
0011
0000
0000
0000
1100
0000
0000
0000
0110
0000
0000
0000
0001
1000
0001
0000
,
1000
0010
0100
1000
0100
0010
1000
0000
,
0001
0100
0010
0001
0010
0100
0001
0000
,
1000
0100
0001
0100
1000
0001
0010
0000
,
0001
0100
1000
0200
0000
0001
0000
0310
,
0010
1000
0100
0010
0001
1000
0100
0100
,
0000
0001
0010
0100
1000
0001
0010
0010
,
0000
1000
0100
0010
1000
0010
0001
1000
,
2002
3003
0001
0100
0010
0100
0100
0100
,
0000
0001
0010
1000
0001
0100
1000
1000
,
0000
1000
0010
0001
1000
0100
0001
0001
,
0000
0001
0010
1000
0001
0100
1000
0010
,
0220
0000
0330
0000
0100
0000
0001
0000
1000
0000
0010
0000
0100
0001
0100
0000
,
0120
1000
0001
1030
,
0210
0001
1000
0301
,
0021
0100
1000
0031
,
1200
0010
0001
1300
,
1000
0010
0001
0010
1000
0100
0010
0010
,
0001
0100
1000
0100
0001
0010
0100
0100
,
1000
0010
0001
1000
0100
0100
0001
1000
,
0001
0010
1000
0001
0100
0100
1000
0010
,
0100
0001
0100
0000
0010
0000
0100
0001
0100
0000
0010
0000
1000
0000
0000
0000
,
0100
1000
0100
0000
1000
0000
0100
1000
0100
0000
0010
0000
0001
0000
0000
0000
,
0010
0001
0100
0000
0010
0000
0100
0001
0010
0000
0100
0000
1000
0000
0000
0000
,
0010
1000
0001
0000
0100
0000
0110
0000
1000
0000
0100
0000
0010
0000
2002
0000
,
3003
0000
0000
0000
;

//---------------dance-double - ----------------
#NOTEDATA:;
#CHARTNAME:;
#STEPSTYPE:dance-double;
#DESCRIPTION:;
#CHARTSTYLE:;
#DIFFICULTY:Hard;
#METER:10;
#RADARVALUES:0.331462,0.338783,0.113877,0.177932,0.000000,326.000000,310.000000,16.000000,25.000000,0.000000,0.000000,0.000000,0.000000,0.000000,0.331462,0.338783,0.113877,0.177932,0.000000,326.000000,310.000000,16.000000,25.000000,0.000000,0.000000,0.000000,0.000000,0.000000;
#CREDIT:;
#DISPLAYBPM:96.000000;
#NOTES:
00000000
00000000
00000000
00000000
,
00000000
00000000
00000000
00000000
,
00000000
00000000
00000000
00000000
,
00000000
00000000
00000000
00000000
00000000
00000000
00000000
00001000
,
00001000
00000000
00010000
00001000
00000010
00001000
00010000
00000000
,
00001000
00010000
00100000
00010000
00001000
00000000
00011000
00000000
,
00010000
00001000
00100000
00010000
01000000
00001000
00010000
00000000
,
00001000
00010000
00000010
00001000
00000100
00010000
00001000
00000000
,
00101000
00000000
00100000
01000000
10000000
00100000
00010000
00000000
,
00010010
00000000
00000010
00001000
00000100
00000010
00001000
00000000
,
00010000
00100000
10000000
01000000
00100000
01000000
00010000
00000000
,
00001000
00000010
00000100
00000010
00000001
00000100
00001000
00000000
,
00021000
00000100
00000000
01030000
,
00012000
00100000
00000000
00003010
,
00021000
00000100
00000000
00130000
,
00012000
01000000
00000000
00003010
,
00021000
00100000
00000000
00030010
,
00012000
00000100
00000000
01003000
,
01000000
00100000
00010000
00000000
00001000
00000100
00000010
00000000
,
00000100
00000001
00000010
00001000
00020000
00000000
01030000
10000000
,
00100000
00010000
00001000
00010000
00100000
00000000
00100000
10000000
,
01000000
00010000
00001000
00010000
01000000
00000000
01000000
10000000
,
00100000
00010000
00001000
00000100
00000001
00000000
00000010
00000001
,
00000100
00001000
00010000
00100000
10000000
00000000
01000000
10000000
,
00100000
00010000
00001000
00010000
00100000
00010000
00001000
00000100
,
00000001
00000010
00001000
00000010
00000001
00000010
00001000
00010000
,
00100000
10000000
00100000
00010000
00100000
10000000
01000000
00010000
,
00001000
00000010
00001000
00010000
00001000
00000010
00000001
00000100
,
00002000
00000000
00000000
01000000
01000000
02000000
03003000
00000000
,
00020000
00000000
00000000
00000100
00000100
00000200
00030300
00000000
,
00002000
00000000
00000000
00100000
00100000
00200000
00303000
00000000
,
00010010
00000000
00011000
00000000
01001000
00000000
01000000
01000000
,
00100000
00010000
00001000
00010000
00100000
00010000
00001000
00000000
,
00000010
00001000
00010000
00001000
00000010
00001000
00010000
00000000
,
01000000
00010000
00001000
00010000
01000000
00010000
00001000
00000000
,
00000100
00001000
00010000
00002000
00000000
00003200
00000000
00000301
,
00000001
00000010
00000100
00010000
00001000
00100000
01000000
10000000
,
00000000
01000000
00100000
00001000
00010000
00000100
00000010
00000001
,
00000000
00000100
00001000
00010000
00100000
10000000
01000000
00100000
,
20020000
30030000
10000000
00100000
00010000
00001000
00000100
00000001
,
00000000
00000001
00000010
00000100
00001000
00010000
00100000
01000000
,
00000000
10000000
01000000
00100000
00010000
00001000
00000100
00000010
,
00000000
00000001
00000100
00000010
00001000
00010000
01000000
00100000
,
20020000
30030000
10000000
00100000
00010000
00001000
00000100
00000001
,
00000020
00000000
00000000
00000030
,
00002000
00000000
00000000
00003000
,
00020000
00000000
00000000
00030000
,
02000000
00000000
00000000
03000000
,
10000000
00100000
00010000
00001000
00100000
00010000
00001000
00001000
,
00000001
00000010
00001000
00010000
00000010
00001000
00010000
00010000
,
10000000
01000000
00100000
00010000
00001000
00001000
00000001
00000100
,
00000010
00001000
00010000
00010000
10000000
00100000
00010000
00001000
,
00000100
00000001
00000010
00001000
00000010
00000001
00000100
00000000
,
00001000
00010000
01000000
00100000
01000000
00010000
00001000
00000000
,
00100000
00010000
01000000
10000000
01000000
00010000
00100000
00000000
,
01000000
00010000
00001000
00011000
00010000
00001000
00000010
00002002
,
00003003
00000000
00000000
00000000
;

//---------------dance-double - ----------------
#NOTEDATA:;
#CHARTNAME:;
#STEPSTYPE:dance-double;
#DESCRIPTION:;
#CHARTSTYLE:;
#DIFFICULTY:Easy;
#METER:4;
#RADARVALUES:0.144379,0.199284,0.078290,0.056938,0.000000,142.000000,131.000000,11.000000,8.000000,0.000000,0.000000,0.000000,0.000000,0.000000,0.144379,0.199284,0.078290,0.056938,0.000000,142.000000,131.000000,11.000000,8.000000,0.000000,0.000000,0.000000,0.000000,0.000000;
#CREDIT:;
#DISPLAYBPM:96.000000;
#NOTES:
00000000
00000000
00000000
00000000
,
00000000
00000000
00000000
00000000
,
00000000
00000000
00000000
00000000
,
00000000
00000000
00000000
00000000
,
00001000
00010000
00001000
00010000
,
00000100
00001000
00000010
00000000
,
00010000
00001000
00010000
00001000
,
00100000
00010000
01000000
00000000
,
00100000
10000000
01000000
00100000
,
00010000
00100000
00001000
00010000
,
00000100
00001000
00000100
00000010
,
00000001
00000100
00001000
00010000
,
00011000
00000000
00000000
00000000
,
00010000
00000000
00000000
00000000
,
00011000
00000000
00000000
00000000
,
00001000
00000000
00000000
00000000
,
00011000
00000000
00000000
00000000
,
00010000
00000000
00000000
00000000
,
00011000
00000000
00000000
00000000
,
00001000
00000000
00000000
00000000
,
00010000
00000010
00010000
00000010
,
00010000
00010000
00010000
00000000
,
00001000
00100000
00001000
00100000
,
00001000
00001000
00001000
00000000
,
00010000
00000100
00010000
00010000
,
00001000
01000000
00001000
00001000
,
00010000
00100000
01000000
00001000
,
00010000
00000010
00000100
00001000
,
00011000
00000000
00020000
00030000
,
00011000
00000000
00002000
00003000
,
00011000
00000000
00020000
00030000
,
00001000
00010000
00100000
01000000
,
01100000
00000000
00000000
00000000
,
10010000
00000000
00000000
00000000
,
01100000
00000000
00000000
00000000
,
10010000
00000000
00000000
00000000
,
10000000
00000000
01000000
00000000
,
00010000
00000000
00001000
00000000
,
00000100
00000000
00000001
00000000
,
00000010
00000000
00001000
00000000
,
00010000
00000000
00100000
00000000
,
10000000
00000000
01000000
00000000
,
00010000
00000000
00001000
00000000
,
00000010
00000000
00000001
00000000
,
00000200
00000000
00000300
00000000
,
00000020
00000000
00000030
00000000
,
00020000
00000000
00030000
00000000
,
00002000
00000000
00003000
00000000
,
00100000
00010000
01000000
00100000
,
01000000
00010000
00100000
01000000
,
00010000
00001000
00000010
00000100
,
00001000
00000010
00001000
00000100
,
00000010
00000001
00000100
00000000
,
00000100
00001000
00010000
00000000
,
00001000
00010000
01000000
00000000
,
01000000
10000000
00100000
00020000
,
00030000
00000000
00000000
00000000
;

//---------------dance-double - ----------------
#NOTEDATA:;
#CHARTNAME:;
#STEPSTYPE:dance-double;
#DESCRIPTION:;
#CHARTSTYLE:;
#DIFFICULTY:Medium;
#METER:7;
#RADARVALUES:0.233854,0.298259,0.106759,0.113877,0.000000,230.000000,215.000000,15.000000,16.000000,0.000000,0.000000,0.000000,0.000000,0.000000,0.233854,0.298259,0.106759,0.113877,0.000000,230.000000,215.000000,15.000000,16.000000,0.000000,0.000000,0.000000,0.000000,0.000000;
#CREDIT:;
#DISPLAYBPM:96.000000;
#NOTES:
// measure 0
00000000
00000000
00000000
00000000
,  // measure 1
00000000
00000000
00000000
00000000
,  // measure 2
00000000
00000000
00000000
00000000
,  // measure 3
00000000
00000000
00000000
00000000
,  // measure 4
00001000
00010000
00001000
00000100
,  // measure 5
00000001
00000010
00001000
00011000
,  // measure 6
00010000
00001000
00010000
01000000
,  // measure 7
10000000
00100000
00010000
00011000
,  // measure 8
00001000
00000010
00000001
00001001
,  // measure 9
00001000
00000100
00010000
00011000
,  // measure 10
00001000
01000000
00010000
10010000
,  // measure 11
10000000
00100000
00010000
00011000
,  // measure 12
00002000
01000000
00000000
01000000
,  // measure 13
00000000
01000000
00000000
01003000
,  // measure 14
00020000
00000100
00000000
00000100
,  // measure 15
00000000
00000100
00000000
00030100
,  // measure 16
00002000
00100000
00000000
00100000
,  // measure 17
00000000
00100000
00000000
00103000
,  // measure 18
00020000
00000010
00000000
00000010
,  // measure 19
00000000
00000010
00000000
00030010
,  // measure 20
00000010
00001000
00000010
00000000
00010000
00000000
00001000
00000000
,  // measure 21
00100000
00010000
00100000
00000000
00001000
00000000
00010000
00000000
,  // measure 22
00000100
00001000
00000100
00000000
00010000
00000000
00001000
00000000
,  // measure 23
01000000
00010000
01000000
00000000
00001000
00000000
00010000
00000000
,  // measure 24
00000100
00000010
00000100
00000000
00010000
00000000
00001000
00000000
,  // measure 25
00100000
01000000
00100000
00000000
00001000
00000000
00010000
00000000
,  // measure 26
00000010
00000100
00000010
00000000
00010000
00000000
00001000
00000000
,  // measure 27
01000000
00100000
01000000
00000000
00001000
00000000
00010000
00000000
,  // measure 28
00020200
00030300
00000000
00000100
00010000
00001000
00000000
00000000
,  // measure 29
00202000
00303000
00000000
00100000
00001000
00010000
00000000
00000000
,  // measure 30
00022000
00033000
00000000
00000010
00010000
00001000
00000000
00000000
,  // measure 31
00011000
00000000
01001000
00000000
01010000
00000000
00010000
00010000
,  // measure 32
00100000
01000000
10000000
00000000
00010000
00100000
01000000
00000000
,  // measure 33
00001000
00010000
00100000
00000000
00010000
00001000
00000010
00000000
,  // measure 34
00000100
00000010
00000001
00000000
00001000
00000100
00000010
00000000
,  // measure 35
00000001
00000100
00001000
00020000
00000000
01030000
00000000
00000000
,  // measure 36
00000000
01000000
10000000
00100000
,  // measure 37
00000000
00100000
00010000
00001000
,  // measure 38
00000000
00001000
00000100
00000001
,  // measure 39
00001001
00000000
00001000
00000000
00000010
00000100
00000010
00000000
,  // measure 40
00000100
00000001
00000010
00001000
,  // measure 41
00010000
00000100
00001000
00010000
,  // measure 42
01000000
00001000
00010000
00100000
,  // measure 43
10010000
00000000
10000000
00000000
01000000
00100000
01000000
00000000
,  // measure 44
00020000
00000000
00000000
00030000
,  // measure 45
00002000
00000000
00000000
00003000
,  // measure 46
00000020
00000000
00000000
00000030
,  // measure 47
00000002
00000000
00000000
00000003
,  // measure 48
00001000
00000010
00000100
00000000
00000010
00001000
00000100
00000000
,  // measure 49
00000010
00000100
00001000
00000000
00000100
00010000
00001000
00000000
,  // measure 50
00100000
00001000
00010000
00000000
00100000
01000000
00010000
00000000
,  // measure 51
00100000
01000000
10000000
00000000
00010000
00100000
01000000
00000000
,  // measure 52
10000000
00100000
00010000
00000000
00001000
00000100
00000001
00000000
,  // measure 53
00000001
00000010
00001000
00000000
00010000
01000000
10000000
00000000
,  // measure 54
01000000
00100000
00010000
00000000
00001000
00000100
00000010
00000000
,  // measure 55
00000001
00000100
00001000
00020000
00000000
00031000
00000000
00011000
;
