#TITLE:Jupin;
#SUBTITLE:;
#ARTIST:Sobrem;
#TITLETRANSLIT:;
#SUBTITLETRANSLIT:;
#ARTISTTRANSLIT:;
#GENRE:VARIETY;
#CREDIT:MUINELIM;
#BANNER:Jupin.png;
#BACKGROUND:Jupin-bg.png;
#LYRICSPATH:;
#CDTITLE:;
#MUSIC:Jupin.mp3;
#OFFSET:-0.157000;
#SAMPLESTART:7.139000;
#SAMPLELENGTH:11.899998;
#SELECTABLE:YES;
#DISPLAYBPM:173.000000;
#BPMS:0.000000=173.000000
;
#STOPS:
;
#BGCHANGES:-3.460=Title.png=1.000=0=0=1=Centered====,
-0.160=BGA.mp4=1.000=0=0=0=StretchNoLoop====,
0.000=Jupin.avi=1.000=1=0=0=StretchNoLoop==CrossFade==,
99999=-nosongbg-=1.000=0=0=0 // don't automatically add -songbackground-
;
#KEYSOUNDS:;
#ATTACKS:;

//---------------dance-single - ----------------
#NOTES:
     dance-single:
     :
     Hard:
     16:
     0.888231,1.157707,0.457686,0.328152,0.768566,720.000000,667.000000,53.000000,38.000000,0.000000,0.000000,0.888231,1.157707,0.457686,0.328152,0.768566,720.000000,667.000000,53.000000,38.000000,0.000000,0.000000:
0000
0000
0000
0000
,
0000
0000
0000
0000
,
0000
0000
0000
0000
,
2002
0000
0000
0000
,
0000
0000
0000
0000
0000
0000
0000
0000
3003
0000
0000
0000
1001
0000
0000
1000
,
0010
0000
0000
0010
0001
0000
0000
0001
0010
0000
0000
0010
1000
0000
0000
1000
,
0100
1000
0001
0000
0010
0000
0100
0000
1000
0000
0010
0000
0010
0000
0100
0001
,
0100
0000
0000
0100
1000
0000
0000
1000
0100
0000
0000
0100
0001
0000
0000
0001
,
0010
0001
1000
0000
0100
0000
0010
0000
0001
0000
0100
0000
0100
0000
0010
1000
,
0010
0000
0000
0010
0001
0000
0000
0001
0100
0000
0000
0100
1000
0000
0000
1000
,
0010
1000
0001
0000
0100
0000
0010
0000
1000
0000
0001
0000
0001
0000
0100
0001
,
0100
0000
0000
0100
1000
0000
0000
1000
0010
0000
0000
0010
0001
0000
0000
0001
,
0100
0001
1000
0000
0010
0000
0100
0000
0001
0000
1000
0000
1000
0000
0010
0000
,
0100
0001
0010
0000
0100
0000
1000
0000
2100
0000
0000
0000
3001
0000
0000
0000
,
0010
1000
0100
0000
0010
0000
0001
0000
0012
0000
0000
0000
1003
0000
0000
1000
,
0010
0000
0000
0010
0001
0000
0000
0001
0100
0000
0000
0100
1000
0000
0000
1000
,
0100
0000
0000
0100
0001
0000
0000
0001
0010
0000
1000
0000
0100
0000
0010
0000
,
0001
0100
0001
0000
0010
0000
0100
0000
1000
0010
1000
0000
0100
0000
0010
0000
,
0001
0010
0001
0000
0100
0010
0100
0000
0010
1000
0100
0000
0100
0000
0100
0000
,
1000
0100
1000
0000
0010
0000
0100
0000
0001
0010
0001
0000
0100
0000
0010
0000
,
1000
0010
1000
0000
0010
0100
0010
0000
0100
0001
0010
0000
0010
0000
0010
0000
,
0100
1000
0001
0000
0010
0000
0100
0000
0010
0001
1000
0000
0100
0000
0010
0000
,
0100
1000
0100
0000
0010
0001
0010
0000
0100
1000
0001
0000
0001
0000
0001
0000
,
0100
0010
1000
0000
0010
0000
0100
0000
0010
0100
0001
0000
0100
0000
0010
0000
,
1000
0010
1000
0000
0001
0100
0001
0000
0010
0100
1000
0000
1000
0000
1000
0000
,
1010
0010
0100
0001
0012
0000
0103
0001
,
0011
0010
0100
1000
2010
0000
3100
0010
,
0110
0000
0000
0100
1000
0000
0000
1000
0010
0000
0000
0010
0001
0000
0000
0001
,
1000
0000
0000
1000
0100
0000
0000
0100
0001
0000
0010
0000
0100
0000
1000
0000
,
1010
0000
0000
0010
0200
0000
0000
0000
0301
0000
0010
0000
0100
0000
1000
0000
,
1100
0000
0000
0100
0020
0000
0000
0000
0031
0000
0100
0000
1000
0000
0100
0000
,
0101
0001
0010
0100
1100
1000
0010
0100
,
0101
0001
0010
0100
1100
1000
0010
0100
,
0101
0000
0000
0001
0020
0000
0000
0000
0130
0000
1000
0000
0100
0000
0010
0000
,
0011
0000
0000
0001
0200
0000
0000
0000
0310
0000
1000
0000
0010
0000
0001
0000
,
0010
0100
0010
0000
1000
0010
1000
0000
0001
0010
0001
0000
1000
0100
1000
0000
,
0001
0100
0001
0000
1000
0001
1000
0000
0001
0000
0010
0000
0100
0000
1000
0000
,
1010
0000
0000
0010
0002
0000
0000
0000
0103
0000
1000
0000
0100
0000
0001
0000
,
0011
0000
0000
0010
2000
0000
0000
0000
3100
0000
0001
0000
0100
0000
1000
0000
,
1010
0010
0100
0001
0011
0010
0100
1000
,
1100
0100
0010
0001
0101
0100
0010
1000
,
1100
0000
0000
0100
0002
0000
0000
0000
0013
0000
1000
0000
0010
0000
0001
0000
,
0101
0000
0000
0000
1100
0000
0000
0000
1001
0000
0001
1000
0001
1000
0001
1000
,
0010
0100
0010
0100
0001
0000
1000
0000
0100
0010
0100
0010
0001
0000
1000
0000
,
0010
0100
0001
0100
0010
1000
0010
0100
0001
0000
0010
0100
0010
0100
0010
0100
,
1000
0000
0000
1000
0010
0000
0000
0010
0001
0000
0000
0001
0100
0000
0000
0100
,
1000
0000
0010
0000
0100
0000
0001
0000
1000
0000
0100
0010
0100
0010
0100
0010
,
0001
0000
0000
0001
0100
0000
0000
0100
1000
0000
0000
1000
0010
0000
0000
0010
,
0001
0000
0100
0000
0010
0000
1000
0000
0001
0000
0010
0100
0010
0100
0010
0100
,
1000
0010
0001
0010
1000
0100
0001
0100
,
1000
0010
0001
1000
0100
0001
0010
0100
,
1100
0000
0000
0000
0011
0000
0000
0001
0100
0000
0000
0100
1000
0000
0000
1000
,
0001
0000
0000
0001
0010
0000
0000
0010
1000
0000
0000
1000
0100
0000
0000
0100
,
0010
0000
0001
0100
0001
0000
1000
0010
1000
0000
0001
0100
0001
0000
1000
0010
,
1000
0100
0001
0100
0100
0010
0001
0100
,
0010
0000
1000
0100
1000
0000
0001
0010
0001
0000
0100
0010
0100
0000
0001
1000
,
0001
1000
0010
0100
0010
0100
0001
1000
0010
0100
0001
1000
0020
0000
0000
0000
,
0130
0001
0010
0000
1000
0000
0001
0000
0100
0000
1000
0000
0010
0000
0001
0000
,
1000
0100
0001
0010
0110
0000
2002
3003
,
0010
1000
0100
0000
0001
0000
1000
0000
0010
0000
0001
0000
0100
0000
1000
0000
,
0001
0010
1000
0100
0110
0000
2002
3003
,
0202
0000
0000
0000
0303
0000
0220
0000
0000
0330
0000
2020
0000
0000
3030
0000
,
2200
0000
0000
3300
0000
0022
0000
0000
0033
0000
0220
0000
0330
0000
1001
0000
,
2002
0000
0000
0000
,
0000
0000
0000
3003
,
0001
1000
0001
1000
0001
1000
0001
1000
0001
1000
0001
1000
0001
1000
0001
1000
,
0001
0010
0100
1000
0100
0010
0001
0010
0100
0000
0000
0000
2002
0000
3003
0000
,
0220
0000
0000
0000
,
0000
0000
0000
0330
0000
1010
0101
0011
,
1100
0000
1000
0010
0100
0000
0010
1000
0100
0000
1000
0010
0100
0000
0010
1000
,
0100
1000
0010
0000
0001
0000
0010
0000
1000
0000
0100
0000
0100
0000
0010
0000
,
0011
0000
0001
0100
0010
0000
0100
0001
0010
0000
0001
0100
0010
0000
0100
0001
,
0010
0001
0100
0000
1000
0000
0100
0000
0001
0000
0010
0000
0010
0000
0100
0000
,
0110
0000
1000
0010
0100
0000
0001
0010
0100
0000
1000
0010
0100
0000
0001
0010
,
0100
1000
0010
0000
0001
0000
1000
0000
0100
0000
0001
0000
0010
0000
0100
0000
,
1000
0010
0100
0000
0001
0000
0010
0000
0021
0000
0000
0000
0130
0000
0000
0000
,
0001
0100
0010
0000
1000
0000
0100
0000
1200
0000
0000
0000
0310
0000
0000
0000
,
1001
0000
0000
0001
0100
0000
0000
0100
1000
0000
0000
1000
0010
0000
0000
0010
,
0001
0000
0000
0001
0010
0000
0000
0010
1000
0000
0000
1000
0100
0000
0000
0100
,
0001
0010
0001
0010
0001
0010
0001
0010
0100
1000
0100
1000
0100
1000
0100
1000
,
0001
0100
0001
0100
0010
1000
0010
1000
0100
0010
0001
0100
1000
0100
0001
0010
,
0100
1010
0000
0000
;

//---------------dance-single - ----------------
#NOTES:
     dance-single:
     :
     Medium:
     12:
     0.566247,0.631477,0.544041,0.354059,0.038860,459.000000,396.000000,63.000000,41.000000,0.000000,0.000000,0.566247,0.631477,0.544041,0.354059,0.038860,459.000000,396.000000,63.000000,41.000000,0.000000,0.000000:
0000
0000
0000
0000
,
0000
0000
0000
0000
,
0000
0000
0000
0000
,
2002
0000
0000
0000
,
0000
0000
3003
1001
,
0001
0101
1000
1100
,
0001
0100
0001
1000
0100
1000
1000
1000
,
0001
0011
1000
1010
,
0001
0010
0001
1000
0010
0100
0100
0100
,
0001
0011
0100
1100
,
0010
0100
0010
1000
0001
0010
0010
0010
,
0100
1100
0010
0011
,
0100
0010
0100
0001
1000
0001
0001
0001
,
0010
0000
0100
1000
0020
0000
0030
0000
,
0110
0000
0100
0001
0020
0000
0030
0000
,
0001
0101
1000
1100
,
0001
0000
0110
0000
1001
0000
1000
0010
,
0200
0001
1000
0301
,
0001
0010
0100
1000
0001
1000
0001
0100
,
0020
1000
0001
1030
,
1000
0100
0010
0001
1000
0001
1000
0100
,
0020
0001
1000
0031
,
0001
0100
0010
1000
0001
1000
0001
0010
,
0200
1000
0001
1300
,
1000
0010
0100
0001
1000
0001
1000
0010
,
0100
0000
0001
0010
0200
0000
0300
0000
,
0110
0000
1000
0100
0020
0000
0030
0000
,
0001
0101
1000
1100
,
0001
0000
0110
0000
1001
1000
0010
0100
,
0001
0000
0000
0001
0020
0000
0000
0000
0000
0000
0031
0000
0100
0000
0010
0000
,
1000
0000
0000
1000
0200
0000
0000
0000
0000
0000
1300
0000
0010
0000
0100
0000
,
0002
0010
2003
0010
,
3002
0000
0100
0000
1003
0100
0010
0001
,
1000
0000
0000
1000
0200
0000
0000
0000
0000
0000
0310
0000
0100
0000
1000
0000
,
0001
0000
0000
0001
0020
0000
0000
0000
0000
0000
0130
0000
0010
0000
0001
0000
,
2000
0100
3002
0100
,
2003
0000
0100
0000
3001
0010
0100
1000
,
0010
0000
0000
0010
0200
0000
0000
0000
0301
0000
1000
0000
0100
0000
0010
0000
,
0001
0000
0000
0001
2000
0000
0000
0000
3010
0000
0100
0000
0001
0000
1000
0000
,
0100
0000
0010
0100
1100
0000
0001
0000
,
0010
0000
0100
0010
0011
1000
0100
0010
,
0001
0000
0000
0001
0200
0000
0000
0000
0000
0000
0310
0000
1000
0000
0001
0000
,
0010
0110
1100
0011
,
0001
0100
0001
0100
0010
1000
0010
1000
,
0001
0010
0100
1000
0010
0010
0010
0010
,
0200
0301
0020
1030
,
0200
0001
0010
1300
,
0020
0031
0200
1300
,
0020
0001
0100
1030
,
0002
0103
0020
1030
,
0200
0310
0002
1003
,
0200
0010
1000
0010
,
0001
0010
1000
0310
,
0001
0011
0100
1100
,
1000
0010
0100
0001
1000
0000
0110
0000
,
1000
1010
0100
0101
,
0001
0010
0100
1000
0001
0000
0110
0000
,
1000
0010
0100
0001
0100
0010
1000
0010
,
0100
0001
0010
0100
1000
0000
1001
0000
,
0001
0100
0010
1000
0010
0100
0001
0100
,
0010
1000
0100
0010
0001
0000
1001
0000
,
1010
0000
0000
0000
0000
0000
0110
0000
0000
0000
0000
0101
0000
0000
0000
0000
,
1001
0000
0000
0000
0000
0011
0000
0000
0000
0000
1100
0000
0000
0000
0000
0000
,
0220
0000
0000
0000
,
0000
0000
0000
0330
,
2002
0000
0000
0000
,
0000
0000
3003
0020
,
0200
0000
0000
0000
,
0000
0000
0000
0330
0000
0010
0100
0010
,
0110
0011
1100
1001
,
0001
0010
1000
0010
0001
0100
0100
0100
,
0110
1010
0101
1001
,
1000
0010
0001
0010
1000
0100
0100
0100
,
1100
1010
0101
0011
,
0001
0100
1000
0100
0001
0010
0010
0010
,
0100
1000
0001
0010
1000
0000
0110
0000
,
0010
0001
1000
0100
0001
0000
0110
0000
,
1100
1010
0011
0101
,
1010
1100
0101
0011
,
0010
0100
0010
0100
0010
0100
0010
0100
,
1000
0001
0010
0100
1000
0010
0001
1000
,
0200
0310
0000
0000
;

//---------------dance-single - ----------------
#NOTES:
     dance-single:
     :
     Easy:
     8:
     0.334320,0.385902,0.224525,0.155440,0.000000,271.000000,245.000000,26.000000,18.000000,0.000000,0.000000,0.334320,0.385902,0.224525,0.155440,0.000000,271.000000,245.000000,26.000000,18.000000,0.000000,0.000000:
0000
0000
0000
0000
,
0000
0000
0000
0000
,
0000
0000
0000
0000
,
2000
0000
0000
0000
,
0002
0000
3003
1001
,
1000
0001
1000
0001
,
0200
0000
0300
0001
,
0001
1000
0001
1000
,
0020
0000
0030
1000
,
1000
0001
1000
0001
,
0200
0000
0300
0001
,
0001
1000
0001
1000
,
0020
0000
0030
1000
,
1000
0100
0110
0000
,
0001
0010
0110
0000
,
1000
0100
0010
0001
,
0010
0100
1000
0010
,
0100
0001
0100
0001
,
0100
1000
0100
0001
,
1000
0010
1000
0010
,
0001
0010
1000
0100
,
0010
0001
0010
0001
,
0010
1000
0010
0001
,
0100
1000
0100
1000
,
0100
0001
0010
0100
,
1000
0010
0110
0000
,
0001
0100
0110
0000
,
1000
0010
0100
0001
,
1000
0100
0010
0001
,
1000
1100
0000
1000
,
0001
0011
0000
0001
,
1000
1000
0001
0001
,
1000
0001
1000
0100
,
0010
0011
0000
0010
,
0100
1100
0000
0100
,
0010
0010
0100
0100
,
0010
0001
1000
0010
,
0100
0101
0000
0100
,
0010
1010
0000
0010
,
0100
0100
0001
0001
,
0010
0010
0100
1000
,
0001
0101
0000
0001
,
1000
1010
0100
0001
,
0020
0000
0000
0000
,
0200
0000
0330
0000
,
1000
0010
0001
0010
,
2000
0000
3000
0000
,
0001
0100
1000
0100
,
0002
0000
0003
0000
,
1000
0010
0001
0000
,
0001
0100
1000
0000
,
0001
0010
1000
0100
,
0001
1000
0010
0100
,
0001
0010
0001
0010
,
1000
0010
0001
0010
,
0100
1000
0100
1000
,
0100
0001
0100
1000
,
0100
0010
0001
1000
,
0100
0010
0002
1003
,
0010
0100
1000
0001
,
0010
0100
2000
3001
,
1001
0000
0000
0000
,
0000
0000
0000
0000
,
0220
0000
0000
0000
,
0000
0000
0000
0330
,
2002
0000
0000
0000
,
0000
0000
3003
1001
,
1001
0000
0000
0000
,
0000
0000
0110
0110
,
1000
0100
0001
0100
,
1000
0010
0100
0110
,
0001
0010
1000
0010
,
0001
0100
0010
0110
,
1000
0100
0001
0010
,
1000
0001
0100
0110
,
1000
0001
0101
0000
,
0001
1000
1010
0000
,
0001
1000
0100
0001
,
1000
0010
0001
1000
,
0200
0000
0000
0000
,
0320
0000
0000
0000
0000
0000
0031
1000
,
0001
1001
0000
0000
;

//---------------dance-single - ----------------
#NOTES:
     dance-single:
     :
     Beginner:
     4:
     0.152973,0.245574,0.094991,0.077720,0.000000,124.000000,113.000000,11.000000,9.000000,0.000000,0.000000,0.152973,0.245574,0.094991,0.077720,0.000000,124.000000,113.000000,11.000000,9.000000,0.000000,0.000000:
0000
0000
0000
0000
,
0000
0000
0000
0000
,
0000
0000
0000
0000
,
0000
0000
0000
0000
,
0000
0000
0000
0000
,
1000
0000
1000
0000
,
1000
0000
0000
0000
,
0001
0000
0001
0000
,
0001
0000
0000
0000
,
0100
0000
0100
0000
,
0100
0000
0000
0000
,
0010
0000
0010
0000
,
0010
0000
0000
0000
,
1001
0000
0000
0000
,
1001
0000
0000
0000
,
1000
0000
0001
0000
,
0100
0000
0010
0000
,
1000
0000
1000
0000
,
1000
0000
1000
0000
,
0100
0000
0100
0000
,
0100
0000
0100
0000
,
0010
0000
0010
0000
,
0010
0000
0010
0000
,
0001
0000
0001
0000
,
0001
0000
0001
0000
,
1000
0000
1001
0000
,
0001
0000
1001
0000
,
1000
0000
0001
0000
,
0100
0000
0010
0000
,
2000
0000
3000
0000
,
2000
0000
3000
0000
,
1000
0000
0100
0000
,
0010
0000
0010
0000
,
0002
0000
0003
0000
,
0002
0000
0003
0000
,
0001
0000
0010
0000
,
0100
0000
0100
0000
,
1000
0000
0010
0000
,
0100
0000
0001
0000
,
1001
0000
0000
0000
,
1001
0000
0000
0000
,
0001
0000
0010
0000
,
0100
0000
1000
0000
,
0020
0000
0000
0000
,
0000
0000
0030
0000
,
0010
0000
0000
0000
,
0010
0000
0000
0000
,
0100
0000
0000
0000
,
0100
0000
0000
0000
,
0010
0000
0000
0000
,
0100
0000
0000
0000
,
0010
0000
0010
0000
,
0100
0000
0100
0000
,
0001
0000
1000
0000
,
0002
0000
0003
0000
,
1000
0000
0001
0000
,
2000
0000
3000
0000
,
0020
0000
0000
0000
,
0000
0000
0030
0000
,
0200
0000
0000
0000
,
0000
0000
0300
0000
,
0110
0000
0000
0000
,
0000
0000
0000
0000
,
1001
0000
0000
0000
,
0000
0000
0000
0000
,
0000
0000
0000
0000
,
0000
0000
0000
0000
,
1001
0000
0000
0000
,
0000
0000
0000
0000
,
1000
0000
0100
0000
,
0010
0000
0001
0000
,
1000
0000
0010
0000
,
0100
0000
0001
0000
,
1000
0000
0010
0000
,
0001
0000
0100
0000
,
1000
0000
1001
0000
,
0001
0000
1001
0000
,
1000
0000
0010
0000
,
0100
0000
0001
0000
,
0010
0000
1000
0000
,
0100
0000
0001
0010
,
0010
0100
0000
0000
;

//---------------dance-double - ----------------
#NOTES:
     dance-double:
     :
     Hard:
     17:
     0.852455,1.157707,0.302245,0.267703,0.716753,691.000000,656.000000,35.000000,31.000000,0.000000,0.000000,0.852455,1.157707,0.302245,0.267703,0.716753,691.000000,656.000000,35.000000,31.000000,0.000000,0.000000:
00000000
00000000
00000000
00000000
,
00000000
00000000
00000000
00000000
,
00000000
00000000
00000000
00000000
,
00022000
00000000
00000000
00000000
,
00000000
00000000
00000000
00000000
00000000
00000000
00000000
00000000
00033000
00000000
00000000
00000000
00011000
00000000
00000000
00010000
,
00000100
00000000
00000000
00000100
00001000
00000000
00000000
00001000
00000010
00000000
00000000
00000010
00000100
00000000
00000000
00000100
,
00000001
00000100
00000001
00000000
00000010
00000000
00000100
00000000
00001000
00000000
00000010
00000000
00000010
00000000
00010000
00001000
,
00100000
00000000
00000000
00100000
00010000
00000000
00000000
00010000
01000000
00000000
00000000
01000000
00100000
00000000
00000000
00100000
,
10000000
00100000
10000000
00000000
01000000
00000000
00100000
00000000
00010000
00000000
01000000
00000000
01000000
00000000
00001000
00010000
,
00000100
00000000
00000000
00000100
00000010
00000000
00000000
00000010
00000001
00000000
00000000
00000001
00000100
00000000
00000000
00000100
,
00001000
00000100
00001000
00000000
00010000
00000000
00001000
00000000
00000100
00000000
00000010
00000000
00000010
00000000
00010000
00001000
,
00100000
00000000
00000000
00100000
01000000
00000000
00000000
01000000
10000000
00000000
00000000
10000000
00100000
00000000
00000000
00100000
,
00010000
00100000
00010000
00000000
00001000
00000000
00010000
00000000
00100000
00000000
01000000
00000000
01000000
00000000
00010000
00000000
,
10000000
01000000
00100000
00010000
00012000
00000000
00003010
00000000
,
00000001
00000000
00000010
00000000
00000100
00000000
00001000
00000000
00021000
00000000
00000000
00000000
01030000
00000000
00000000
10000000
,
00100000
00000000
00000000
00100000
00010000
00000000
00000000
00010000
00001000
00000000
00000000
00001000
00000100
00000000
00000000
00000100
,
00000001
00000000
00000000
00000001
00000010
00000000
00000000
00000010
00001000
00000000
00010000
00000000
00001000
00000000
00010000
00000000
,
00000100
00001000
00000100
00000000
00000010
00000000
00000100
00000000
00000010
00000001
00000010
00000000
00000100
00000000
00000010
00000000
,
00000100
00001000
00000100
00000000
00010000
00001000
00010000
00000000
00100000
01000000
00100000
00000000
00100000
00000000
00100000
00000000
,
10000000
01000000
10000000
00000000
00010000
00000000
10000000
00000000
00010000
00100000
00010000
00000000
10000000
00000000
00010000
00000000
,
01000000
00010000
01000000
00000000
00001000
00010000
00001000
00000000
00000100
00000010
00000100
00000000
00000100
00000000
00000100
00000000
,
00000001
00000010
00000100
00000000
00000010
00000000
00000100
00000000
00001000
00000100
00000010
00000000
00000100
00000000
00000010
00000000
,
00000001
00000100
00000001
00000000
00001000
00000010
00001000
00000000
00000100
00010000
00001000
00000000
00001000
00000000
00001000
00000000
,
00100000
00010000
01000000
00000000
00100000
00000000
01000000
00000000
00100000
10000000
01000000
00000000
00100000
00000000
01000000
00000000
,
00100000
00010000
00100000
00000000
00001000
00010000
00001000
00000000
00010000
00000100
00001000
00000000
00001000
00000000
00001000
00000000
,
00001010
00000001
00000100
00001000
00012000
00000000
00103000
00010000
,
01010000
10000000
00100000
00010000
00021000
00000000
00030100
00001000
,
00001001
00000000
00000000
00000001
00000010
00000000
00000000
00000010
00001000
00000000
00000000
00001000
00010000
00000000
00000000
00010000
,
00100000
00000000
00000000
00100000
10000000
00000000
00000000
10000000
01000000
00000000
00100000
00000000
01000000
00000000
00010000
00000000
,
00011000
00000000
00000000
00001000
00000200
00000000
00000000
00000000
00000301
00000000
00000001
00000000
00000010
00000000
00001000
00000000
,
00011000
00000000
00000000
00010000
02000000
00000000
00000000
00000000
13000000
00000000
10000000
00000000
00100000
00000000
00010000
00000000
,
00001000
00100000
01000000
00010000
00000100
00001000
00000010
00010000
,
00100000
00001000
00000100
00000001
00001000
00000010
00000100
00010000
,
00011000
00000000
00000000
00001000
00000020
00000000
00000000
00000000
00000031
00000000
00000001
00000000
00000100
00000000
00001000
00000000
,
00011000
00000000
00000000
00010000
00200000
00000000
00000000
00000000
10300000
00000000
10000000
00000000
01000000
00000000
00010000
00000000
,
00001000
00010000
00001000
00000000
01000000
00010000
01000000
00000000
00001000
00010000
00001000
00000000
00010000
00001000
00010000
00000000
,
00000100
00001000
00000100
00000000
00010000
00001000
00010000
00000000
00001000
00000000
00000100
00000000
00000001
00000000
00000010
00000000
,
00001010
00000000
00000000
00001000
00020000
00000000
00000000
00000000
01030000
00000000
01000000
00000000
10000000
00000000
00100000
00000000
,
00110000
00000000
00000000
00010000
00002000
00000000
00000000
00000000
00003100
00000000
00000100
00000000
00000001
00000000
00000010
00000000
,
00001000
00010000
00000100
00000010
00001000
00100000
00010000
01000000
,
00001000
00000100
00010000
00100000
01000000
10000000
00100000
00010000
,
00011000
00000000
00000000
00000100
00000002
00000000
00000000
00000000
00000013
00000000
00000010
00000000
00001000
00000000
00010000
00000000
,
00011000
00000000
00000000
00000000
11000000
00000000
00000000
00000000
10100000
00000000
00100000
01000000
00100000
01000000
00100000
01000000
,
00001000
00010000
00000100
00000000
00010000
00000000
00001000
00000000
00010000
00001000
01000000
00000000
00001000
00000000
00010000
00000000
,
00000100
00001000
00000100
00001000
00000100
00000010
00000001
00000010
00000001
00000000
00000100
00000010
00000100
00000010
00000100
00000010
,
00001000
00000000
00000000
00000100
00010000
00000000
00000000
00001000
00100000
00000000
00000000
00010000
01000000
00000000
00000000
00100000
,
10000000
00000000
01000000
00000000
00010000
00000000
00001000
00000000
00100000
00000000
01000000
00100000
01000000
00100000
01000000
00100000
,
00010000
00000000
00000000
01000000
00001000
00000000
00000000
00010000
00000100
00000000
00000000
00001000
00000010
00000000
00000000
00000100
,
00000001
00000000
00000010
00000000
00001000
00000000
00010000
00000000
00000100
00000000
00000010
00000100
00000010
00000100
00000010
00000100
,
00001000
00000010
00000001
00000010
00010000
00001000
01000000
10000000
,
01000000
00001000
00010000
00100000
00010000
00001000
00000010
00001000
,
00010000
00000000
00000000
00000000
00011000
00000000
00000000
00001000
00000100
00000000
00000000
00000100
00000001
00000000
00000000
00000001
,
00000010
00000000
00000000
00000010
00001000
00000000
00000000
00001000
00010000
00000000
00000000
00010000
01000000
00000000
00000000
01000000
,
10000000
00000000
00100000
01000000
00100000
00000000
00010000
00000000
00001000
00000000
00000100
00000010
00000100
00000000
00001000
00000000
,
00010000
00100000
10000000
01000000
00010000
00001000
00000010
00000001
,
00000100
00000010
00000100
00000000
00001000
00000000
00010000
00000000
00100000
01000000
00100000
00000000
10000000
00000000
01000000
00100000
,
01000000
00100000
00001000
00010000
00001000
00010000
00000100
00000010
00000100
00000010
00000100
00000010
00000002
00000000
00000000
00000000
,
00000103
00001000
00010000
00100000
01000000
10000000
01000000
00100000
,
00010000
00001000
00000100
00000010
00001001
00000000
00022000
00033000
,
00100000
00010000
00001000
00000100
00000010
00000001
00000010
00000100
,
00001000
00010000
00100000
01000000
10010000
00000000
00022000
00033000
,
02002000
00000000
00000000
00000000
00003000
00000000
00020000
00000000
00000000
03000000
00000000
00000000
00000200
00000000
00030000
00000000
,
00000020
00000000
00000000
00000300
00000000
00002000
00000000
00000000
00000030
00000000
00200000
00000000
00003000
00000000
00320000
00000000
,
00002000
00000000
00000000
00000000
,
00000000
00000000
00000000
00033000
,
00010000
00001000
00010000
00001000
00010000
00001000
00010000
00001000
00010000
00001000
00010000
00001000
00010000
00001000
00010000
00001000
,
00100000
00010000
01000000
00001000
00010000
00000100
00001000
00000010
00010000
00000000
00000000
00000000
00002000
00000000
00000000
00000000
,
00020000
00000000
00000000
00000000
,
00000000
00000000
00000000
00033000
00000000
01001000
00010100
00101000
,
00010010
00000000
00010000
00001000
00000100
00000000
00001000
00010000
00100000
00000000
00010000
00001000
00000100
00000000
00001000
00010000
,
00100000
00010000
00001000
00000000
00000010
00000000
00000001
00000000
00000100
00000000
00001000
00000000
00001000
00000000
00010000
00000000
,
00011000
00000000
00001000
00010000
01000000
00000000
00010000
00001000
00000010
00000000
00001000
00010000
01000000
00000000
00010000
00001000
,
00000010
00001000
00010000
00000000
00100000
00000000
10000000
00000000
01000000
00000000
00010000
00000000
00010000
00000000
00001000
00000000
,
00011000
00000000
00010000
00001000
00000100
00000000
00000001
00000010
00001000
00000000
00010000
00001000
00000100
00000000
00000001
00000010
,
00001000
00010000
00100000
00000000
10000000
00000000
01000000
00000000
00010000
00000000
00001000
00000000
00000010
00000000
00000001
00000000
,
00000100
00000010
00001000
00010000
01020000
00000000
10030000
00000000
,
00100000
01000000
00010000
00001000
00002100
00000000
00003001
00000000
,
00000110
00000000
00000000
00000010
00001000
00000000
00000000
00001000
00010000
00000000
00000000
00010000
01000000
00000000
00000000
01000000
,
00100000
00000000
00000000
00100000
00010000
00000000
00000000
00010000
00001000
00000000
00000000
00001000
00000100
00000000
00000000
00000100
,
00000001
00000010
00000001
00000010
00000100
00000010
00000100
00000010
00000100
00001000
00000100
00001000
00010000
00001000
00010000
00001000
,
00010000
01000000
00010000
01000000
00100000
10000000
00100000
10000000
01000000
00100000
00010000
01000000
00100000
00010000
00001000
00000100
,
00000010
00001001
00000000
00000000
;

//---------------dance-double - ----------------
#NOTES:
     dance-double:
     :
     Easy:
     8:
     0.321984,0.385902,0.215889,0.155440,0.000000,261.000000,236.000000,25.000000,18.000000,0.000000,0.000000,0.321984,0.385902,0.215889,0.155440,0.000000,261.000000,236.000000,25.000000,18.000000,0.000000,0.000000:
00000000
00000000
00000000
00000000
,
00000000
00000000
00000000
00000000
,
00000000
00000000
00000000
00000000
,
00002000
00000000
00000000
00000000
,
00020000
00000000
00033000
00011000
,
00001000
00010000
00001000
00010000
,
00000020
00000000
00000030
00010000
,
00010000
00001000
00010000
00001000
,
00200000
00000000
00300000
00001000
,
00001000
00010000
00001000
00010000
,
00000200
00000000
00000300
00010000
,
00010000
00001000
00010000
00001000
,
02000000
00000000
03000000
00001000
,
00001000
00010000
00010100
00000000
,
00010000
00001000
00101000
00000000
,
00001000
00010000
00000100
00010000
,
00001000
01000000
00001000
00010000
,
00000010
00001000
00000010
00001000
,
00000001
00000100
00001000
00000000
,
00100000
00010000
00100000
00010000
,
10000000
00100000
00010000
00000000
,
00000100
00001000
00000100
00001000
,
00000001
00000100
00001000
00000000
,
01000000
00010000
01000000
00010000
,
10000000
01000000
00010000
00000000
,
00001000
00010000
00010010
00000000
,
00010000
00001000
01001000
00000000
,
00001000
00010000
00000010
00010000
,
00001000
00100000
00001000
00010000
,
00100000
01100000
00000000
00100000
,
00010000
00011000
00000000
00010000
,
00100000
00100000
10000000
10000000
,
01000000
00010000
00010000
00001000
,
00000100
00000110
00000000
00000100
,
00001000
00011000
00000000
00001000
,
00000100
00000100
00000001
00000001
,
00000010
00001000
00010000
00100000
,
10000000
11000000
00000000
10000000
,
00100000
00110000
00000000
00100000
,
10000000
10000000
01000000
01000000
,
00010000
00010000
00001000
00000100
,
00000001
00000101
00000000
00000001
,
00000010
00011000
00100000
10000000
,
02000000
00000000
00000000
00000000
,
00200000
00000000
03300000
00000000
,
10000000
01000000
00100000
00001000
,
00020000
00000000
00030000
00000000
,
00001000
00010000
00000100
00000010
,
00000002
00000000
00000003
00000000
,
00000100
00001000
00010000
00000000
,
01000000
00010000
00001000
00000000
,
00000010
00001000
00010000
00100000
,
00010000
00001000
00000010
00000001
,
00001000
00000100
00001000
00000100
,
00000010
00001000
00100000
00000000
,
00010000
01000000
00010000
01000000
,
00100000
00010000
00000010
00000000
,
00001000
00000100
00000010
00000001
,
00000010
00000100
00002000
00013000
,
00010000
00100000
01000000
10000000
,
01000000
00100000
00020000
00031000
,
00011000
00000000
00000000
00000000
,
00000000
00000000
00000000
00000000
,
02002000
00000000
00000000
00000000
,
00000000
00000000
00000000
03003000
,
00020200
00000000
00000000
00000000
,
00000000
00000000
00030300
00011000
,
00011000
00000000
00000000
00000000
,
00000000
00000000
00011000
00011000
,
00001000
00000100
00000001
00000010
,
00001000
00010000
00001000
00000000
,
00010000
00100000
10000000
01000000
,
00010000
00001000
00010000
00000000
,
00001000
00000010
00000001
00000100
,
00001000
00010000
00100000
10000000
,
01000000
00010000
00011000
00000000
,
00000010
00001000
00011000
00000000
,
00100000
00010000
00001000
00000100
,
00001000
00010000
01000000
00010000
,
00002000
00000000
00000000
00000000
,
00020000
00000000
00033000
01001000
,
00010100
00011000
00000000
00000000
;

//---------------dance-double - ----------------
#NOTES:
     dance-double:
     :
     Medium:
     12:
     0.560079,0.631477,0.604490,0.544041,0.008636,454.000000,384.000000,70.000000,63.000000,0.000000,0.000000,0.560079,0.631477,0.604490,0.544041,0.008636,454.000000,384.000000,70.000000,63.000000,0.000000,0.000000:
// measure 0
00000000
00000000
00000000
00000000
,  // measure 1
00000000
00000000
00000000
00000000
,  // measure 2
00000000
00000000
00000000
00000000
,  // measure 3
00022000
00000000
00000000
00000000
,  // measure 4
00000000
00000000
00033000
00011000
,  // measure 5
00010000
01010000
01000000
11000000
,  // measure 6
01000000
00010000
00001000
00010000
01000000
00010000
00001000
00010000
,  // measure 7
00001000
00001010
00000010
00000011
,  // measure 8
00000010
00001000
00010000
00001000
00000010
00001000
00010000
00001000
,  // measure 9
00010000
00110000
00100000
10100000
,  // measure 10
00100000
00010000
00001000
00010000
00100000
00010000
00001000
00010000
,  // measure 11
00001000
00001100
00000100
00000101
,  // measure 12
00000100
00001000
00010000
00001000
00000100
00001000
00010000
00001000
,  // measure 13
00010000
00000000
00100000
00010000
00002000
00000000
00003000
00000000
,  // measure 14
00011000
00000000
00010000
00001000
00000020
00000000
00000030
00000000
,  // measure 15
00000001
00000101
00000100
00001100
,  // measure 16
00001000
00000000
00011000
00000000
00011000
00000000
00010000
01000000
,  // measure 17
20000000
00100000
00000000
30100000
,  // measure 18
00100000
00010000
00001000
00010000
00100000
00010000
00001000
00000010
,  // measure 19
00000002
00000100
00000000
00000103
,  // measure 20
00000100
00001000
00010000
00001000
00000100
00001000
00010000
00100000
,  // measure 21
20000000
01000000
00000000
31000000
,  // measure 22
01000000
00010000
00001000
00010000
01000000
00010000
00001000
00000100
,  // measure 23
00000002
00000010
00000000
00000013
,  // measure 24
00000010
00001000
00010000
00001000
00000010
00001000
00010000
01000000
,  // measure 25
10000000
00000000
01000000
00010000
00002000
00000000
00003000
00000000
,  // measure 26
00011000
00000000
00010000
00001000
00000200
00000000
00000300
00000000
,  // measure 27
00000001
00000011
00000010
00001010
,  // measure 28
00001000
00000000
00011000
00000000
00010000
00000100
00001000
00000100
,  // measure 29
00000010
00000000
00000022
00000000
00000033
00000001
00000100
00000010
,  // measure 30
00010000
00000000
00022000
00000000
00033000
00001000
00100000
01000000
,  // measure 31
20000000
30100000
00020000
00130000
,  // measure 32
20000000
00000000
30100000
00000000
00010000
00100000
01000000
10000000
,  // measure 33
00100000
00000000
02200000
00000000
03300000
01000000
00001000
00010000
,  // measure 34
00000100
00000000
00002200
00000000
00003300
00001000
00000010
00000100
,  // measure 35
00000002
00000013
00002000
00003010
,  // measure 36
00000002
00000000
00000013
00000000
00001000
00000100
00000010
00000001
,  // measure 37
00000100
00000000
00000220
00000330
00000010
00010000
00001000
00100000
,  // measure 38
00010000
00000000
02020000
03030000
01000000
00100000
10000000
01000000
,  // measure 39
00100000
00000000
01000000
00010000
00002000
00000000
00013000
00000000
,  // measure 40
00001000
00000000
00000010
00001000
00010000
00001000
00000100
00001000
,  // measure 41
00010000
00000000
02020000
03030000
01000000
10000000
00100000
00010000
,  // measure 42
00001000
01001000
00010010
00011000
,  // measure 43
00001000
00100000
00010000
01000000
00001000
00010000
00000100
00001000
,  // measure 44
00000010
00010000
00001000
00100000
01000000
01000000
01000000
01000000
,  // measure 45
20000000
30200000
00320000
00032000
,  // measure 46
00003200
00000001
00000000
00000301
,  // measure 47
00000002
00000023
00002030
00023000
,  // measure 48
00230000
10000000
00000000
10300000
,  // measure 49
20000000
32000000
03200000
00302000
,  // measure 50
00023000
00030200
00000320
00000032
,  // measure 51
00002003
00003020
00020030
00032000
,  // measure 52
02003000
03020000
00230000
00302000
,  // measure 53
00013000
00010010
00001000
00101000
,  // measure 54
00100000
01000000
10000000
00100000
00010000
00000000
00011000
00000000
,  // measure 55
00001000
00101000
00010000
00010010
,  // measure 56
00000010
00001000
00000100
00000010
00001000
00000000
00011000
00000000
,  // measure 57
00010000
00100000
01000000
00010000
00100000
01000000
10000000
01000000
,  // measure 58
00100000
00010000
01000000
00001000
00010000
00000000
00011000
00000000
,  // measure 59
00001000
00000100
00000010
00001000
00000100
00000010
00000001
00000010
,  // measure 60
00000100
00001000
00000010
00010000
00001000
00000000
00011000
00000000
,  // measure 61
00010100
00000000
00000000
00000000
00000000
00000000
00011000
00000000
00000000
00000000
00000000
01001000
00000000
00000000
00000000
00000000
,  // measure 62
00011000
00000000
00000000
00000000
00000000
00010010
00000000
00000000
00000000
00000000
00011000
00000000
00000000
00000000
00000000
00000000
,  // measure 63
00202000
00000000
00000000
00000000
,  // measure 64
00000000
00000000
00000000
00303000
,  // measure 65
00020020
00000000
00000000
00000000
,  // measure 66
00000000
00000000
00030030
01001000
,  // measure 67
00020200
00000000
00000000
00000000
,  // measure 68
00000000
00000000
00000000
00030300
00000000
00010000
00001000
00000100
,  // measure 69
00000101
00000011
00000101
00001100
,  // measure 70
00001000
00010000
01000000
00010000
00001000
00100000
01000000
01000000
,  // measure 71
11000000
10100000
11000000
01010000
,  // measure 72
00010000
00001000
00000100
00001000
00010000
00000010
00000100
00000100
,  // measure 73
00000101
00000011
00001010
00011000
,  // measure 74
00010000
01000000
10000000
00100000
00010000
00001000
00000100
00000100
,  // measure 75
00000001
00000010
00000100
00001000
00000010
00000000
00011000
00000000
,  // measure 76
01000000
00010000
00100000
01000000
10000000
00000000
10010000
00000000
,  // measure 77
01100000
00110000
00011000
00001100
,  // measure 78
00000110
00010010
00011000
01001000
,  // measure 79
01000000
00100000
01000000
00100000
00010000
00001000
00010000
00001000
,  // measure 80
00000100
00000010
00000100
00000010
00000001
00000010
00000100
00001000
,  // measure 81
00010000
10010000
00000000
00000000
;
