#TITLE:万戈イム一一ノ十;
#SUBTITLE:;
#ARTIST:Linda AI-CUE feat. Shoko;
#TITLETRANSLIT:Joubutsu2000;
#SUBTITLETRANSLIT:;
#ARTISTTRANSLIT:;
#GENRE:VARIETY;
#CREDIT:;
#BANNER:Joubutsu2000.png;
#BACKGROUND:Joubutsu2000-bg.png;
#LYRICSPATH:;
#CDTITLE:;
#MUSIC:Joubutsu2000.ogg;
#OFFSET:-3.341000;
#SAMPLESTART:3.341000;
#SAMPLELENGTH:11.980000;
#SELECTABLE:YES;
#BPMS:0.000000=220,208.000000=82.5,222.000000=103.125,227.000000=82.5,233.000000=110,237.000000=82.5,240.000000=110,244.000000=220,248.000000=440,256.000000=220,264.000000=440,278.000000=220,283.000000=110,313.000000=220,329.000000=110,343.000000=55,345.000000=880,353.000000=440;
#STOPS:353.000000=0.409000
;
#BGCHANGES:0.000=Joubutsu2000.avi=1.000=0=0=0=StretchNoLoop====,
99999=-nosongbg-=1.000=0=0=0 // don't automatically add -songbackground-
;
#KEYSOUNDS:;
#ATTACKS:;

//---------------dance-single - ----------------
#NOTES:
     dance-single:
     :
     Hard:
     17:
     0.661598,1.486061,0.511185,0.503555,0.640889,607.000000,540.000000,67.000000,66.000000,0.000000,0.000000,0.661598,1.486061,0.511185,0.503555,0.640889,607.000000,540.000000,67.000000,66.000000,0.000000,0.000000:
0000
0000
0000
0000
,
0000
0000
0000
0000
,
0000
0000
0000
0000
,
0000
0000
0000
0000
,
0000
0000
0000
0000
,
0000
0000
0000
0000
,
0000
0000
0000
0000
,
0000
0000
0000
0000
0000
0000
0000
0000
0000
0000
0000
0000
0000
0000
0000
0000
0000
0000
0000
0000
0000
0000
0000
0000
0000
0000
0000
0000
0000
0000
0001
0000
0000
1000
0000
0000
0001
0000
0000
0000
0100
0000
0000
0000
0010
0000
0000
0000
,
2000
0000
0000
0000
,
0000
0000
0000
3002
,
0000
0000
0000
0103
0100
0000
0110
0000
,
0010
0020
0000
0000
0000
0000
0000
0000
,
1030
1000
0100
0100
0010
0010
0001
0001
,
0100
0000
0100
0000
0010
0000
0010
0000
1000
0000
1000
0000
0001
0010
0001
0010
,
0200
0000
0000
0000
0000
0000
0000
1300
,
0010
0010
0100
0100
0002
1000
0000
0000
,
0203
0000
0010
0000
,
1000
0000
0010
0000
,
0001
0000
0010
0000
,
1000
0000
0000
0310
0110
0000
1000
1100
,
0000
0001
0101
0000
1010
0000
0011
0000
,
2002
0000
3003
0000
0220
0000
0330
2001
,
0000
0020
0000
3000
,
0100
0000
0001
0000
,
0100
0000
0000
0000
2030
0000
3001
0101
,
0000
0000
0000
1000
0000
0000
1100
0000
0000
0000
0000
0000
0100
0000
0010
0000
0001
0000
1000
0000
0100
0000
0010
0000
,
0002
0200
0003
0000
,
0000
0020
0330
2020
,
3030
0000
0000
0202
0000
0000
0303
0000
0000
0000
0001
0000
0010
0000
0000
0000
0010
0000
0100
0000
0000
0000
0100
0000
,
1000
0000
0000
0000
1000
0000
0010
0000
0100
0000
0010
0000
0100
0000
0001
0000
0100
0000
0001
0000
0000
1000
0000
0000
,
0200
0020
0300
1000
,
0000
0001
0000
0130
,
0100
1000
0100
1000
0100
0010
0100
0010
0100
0010
0001
0010
,
0001
0100
0001
0100
0010
0100
0010
0100
0010
1000
0010
1000
,
0100
0010
0001
0100
0010
1000
0100
0010
0001
0100
0010
1000
,
0002
0200
0300
0023
,
0230
0000
2300
0000
,
3020
0000
0000
0130
0000
0100
0001
0100
0010
1000
0000
0100
,
1000
0100
0010
0001
0000
0010
0001
0010
0100
1000
0000
0010
,
1000
0010
0100
0001
0100
0010
0110
0000
0000
1001
0000
0000
,
0021
0000
1000
0100
,
0001
0000
0001
0100
,
1000
0000
0000
0000
0000
0000
0000
0000
0130
0010
0100
0000
1000
0000
0010
0100
,
0010
0000
0100
0000
0002
0000
0000
0000
1003
0010
0100
0000
0100
0000
0001
0010
,
0100
0100
2000
0000
0000
0000
0000
0000
,
3001
0000
0000
0000
1000
0100
1000
0000
0001
0100
0001
0000
1000
0100
1000
0000
,
0001
0100
0002
0000
0000
0000
0013
0000
0010
0100
0010
0000
0001
0000
0010
0100
,
0010
0000
0000
0001
0000
0000
0100
0000
0000
0010
0000
0000
1000
0000
0100
0000
0010
0000
0001
0000
0010
0000
0100
0000
,
2000
0000
0000
3020
0000
0000
0130
0001
0100
0010
1000
0010
,
1000
0100
0010
0001
0200
0000
0000
0000
0020
0000
0000
0000
0330
0000
0000
0000
,
2002
0000
0000
3003
,
0101
2020
0000
0000
0000
0000
3030
0000
,
0110
0000
0000
0000
0000
0000
0100
0000
0001
0000
0000
0000
0000
0000
0001
0000
0010
0000
0100
1000
0100
1000
0100
1000
0010
0000
0000
0110
0000
0000
0100
0000
,
0001
0000
0000
1001
0000
0000
1000
0010
0100
0000
0100
0000
0001
0010
0001
0010
0002
0000
0000
0000
0000
0000
1003
0000
2200
0000
0000
0000
0000
0000
3300
0000
,
0100
0000
0000
0000
0000
0000
0010
0000
0000
0000
0000
0000
0000
0000
0000
0000
0000
0000
0000
0000
0000
0000
0000
0000
0001
0000
0000
0000
0000
0000
0000
0000
0000
0000
0000
0000
0100
0000
0000
0000
0000
0000
0000
0000
0000
0000
0000
0000
0010
0000
0000
0000
0000
0000
1000
0000
0000
0000
0000
0000
0010
0000
0000
0000
0000
0000
0000
0000
0000
0000
0000
0000
0100
0000
0000
0000
0000
0000
0001
0000
0000
0000
0000
0000
0100
0000
0000
0000
0000
0000
0000
0000
0000
0000
0000
0000
0010
0000
0000
0000
0000
0000
0000
0000
1000
0000
0000
0000
0000
0000
0000
0000
0100
0000
0000
0000
0000
0000
0000
0000
1000
0000
0000
0000
0000
0000
0000
0000
0100
0000
0000
0000
0000
0000
0000
0000
0010
0000
0000
0000
0000
0000
0000
0000
0001
0000
0000
0000
0000
0000
0000
0000
0010
0000
0000
0000
0000
0000
0000
0000
0001
0000
0000
0000
0000
0000
0000
0000
0100
0000
0000
0000
0000
0000
0010
0000
0000
0000
0000
0000
0100
0000
0000
0000
0000
0000
0010
0000
0000
0000
0000
0000
,
1000
0000
0000
0001
0100
0000
0010
0100
0010
0000
0000
1000
0010
0000
0100
0000
0110
0000
0010
0000
1000
0000
0100
0000
0001
0000
0100
0000
1000
0000
0010
0000
,
0001
0010
0100
1000
0100
0001
0020
0000
0000
0130
0100
0100
0110
0000
0000
0010
,
0001
0000
0000
0000
0101
0000
0000
0000
1000
0000
0000
1010
0000
0000
0010
0000
0001
0000
0000
0101
0000
0000
0100
0000
1000
0000
0000
1001
0000
0000
0001
0010
,
0100
0000
0000
0000
1100
0000
0000
0000
0011
0000
0000
0000
2001
0000
0000
0000
0000
0000
0000
0000
0000
0000
0000
0000
0010
0000
0000
0000
0000
0000
0000
0000
0000
0000
0000
0000
3002
0000
0000
0000
0000
0000
0013
0000
0000
0100
0000
0000
,
0000
0000
0000
0000
0000
0000
0000
0000
0000
0000
0000
0000
0010
0000
0000
0000
0000
0000
0000
0000
0000
0000
0000
0000
1000
0000
0000
0000
0000
0000
0000
0000
0000
0000
0000
0000
0000
0000
0000
0000
0000
0000
0000
0000
0000
0000
0000
0000
0010
0000
0000
0000
0000
0000
0000
0000
0000
0000
0000
0000
0001
0000
0000
0000
0000
0000
0000
0000
0000
0000
0000
0000
0010
0000
0000
0000
0000
0000
0100
0000
0000
0000
0000
0000
0010
0000
0000
0000
0000
0000
0100
0000
0000
0000
0000
0000
1000
0000
0000
0000
0000
0000
0000
0000
0000
0000
0000
0000
0000
0000
0000
0000
0000
0000
1000
0000
0000
0000
0000
0000
0010
0000
0000
0000
0000
0000
0000
0000
0100
0000
0000
0000
0000
0000
0000
0000
0001
0000
0000
0000
0000
0000
0000
0000
0100
0000
0000
0000
0000
0000
0000
0000
0010
0000
0000
0000
0000
0000
0000
0000
1000
0000
0000
0000
0000
0000
0000
0000
0010
0000
0000
0000
0000
0000
0000
0000
0100
0000
0000
0000
0000
0000
0000
0000
0001
0000
0000
0000
0000
0000
0000
0000
,
0020
0000
0000
0000
0100
0000
0000
0000
2030
0000
3010
0001
1000
0100
0010
0001
,
0100
0000
0100
0001
0000
0001
1000
0000
1000
0010
0000
0010
,
0100
0001
0100
0001
0100
0000
0010
1000
,
0010
1000
0010
0000
0100
0010
0100
0010
,
0100
0000
0220
0330
1000
0100
0001
0000
,
0010
0010
0100
0020
0000
0130
1001
0000
,
0001
0100
0001
0000
1000
0100
1000
0100
,
1000
0000
0001
0010
0001
0010
0001
0000
,
1000
0010
2000
0000
0000
0000
3001
0010
,
0001
0010
0100
1000
0100
0000
0220
0330
,
0001
0100
1000
0000
0010
0010
0220
0000
,
0000
0000
0000
0030
,
1000
0000
0000
0000
0000
0000
0010
0000
0000
0000
0000
0000
0002
0000
0000
0303
0000
0000
0001
0000
0020
0000
0000
0000
,
0000
0000
0000
1030
,
1000
0100
0101
0000
0001
0010
1010
0000
,
1000
0010
0011
0000
0001
0100
2100
0000
,
0000
3010
0110
0000
0011
0000
1020
0000
,
0000
0130
0202
0000
0000
0000
0303
0000
,
0011
0000
1000
0000
1100
0000
0000
0000
1001
0000
0000
0000
0001
0100
0010
0000
,
0100
0001
0010
0000
0001
0100
0010
0000
0100
0000
0200
0000
0300
0000
0000
0000
,
1010
0000
0000
0000
0101
0000
0000
0000
1001
0000
0000
0000
1000
0100
0010
0000
,
0001
0010
0100
0000
1000
0100
0010
0000
0100
0000
0100
0000
0011
0000
0000
0000
,
1100
0000
1000
0010
0101
0000
0011
0000
,
1100
0010
1010
0000
1001
0000
0220
0000
,
0330
0000
0000
0000
1010
0000
0000
0000
0011
0000
0000
0000
1001
0000
0000
0000
1000
0010
0100
0000
0100
0000
0001
0010
0100
0000
0100
0000
1000
0010
0100
0000
,
0101
0000
1100
0000
1002
0000
0103
0100
0100
0100
0010
0010
0110
0000
0000
0000
,
0000
1001
0000
0000
,
0000
0000
0000
0000
,
0000
0000
0000
0000
0001
0010
0001
0000
,
1000
0010
1000
0010
1000
0010
1000
0000
,
0001
0100
0001
0100
0001
0000
1000
0100
,
1000
0100
1000
0100
0000
0000
0010
0100
,
0010
0100
0000
0000
0000
0000
1001
0000
;

//---------------dance-double - ----------------
#NOTES:
     dance-double:
     :
     Hard:
     17:
     0.643069,1.415296,0.450148,0.518815,0.682852,590.000000,531.000000,59.000000,68.000000,0.000000,0.000000,0.643069,1.415296,0.450148,0.518815,0.682852,590.000000,531.000000,59.000000,68.000000,0.000000,0.000000:
00000000
00000000
00000000
00000000
,
00000000
00000000
00000000
00000000
,
00000000
00000000
00000000
00000000
,
00000000
00000000
00000000
00000000
,
00000000
00000000
00000000
00000000
,
00000000
00000000
00000000
00000000
,
00000000
00000000
00000000
00000000
,
00000000
00000000
00000000
00000000
00000000
00000000
00000000
00000000
00000000
00000000
00000000
00000000
00000000
00000000
00000000
00000000
00000000
00000000
00000000
00000000
00000000
00000000
00000000
00000000
00000000
00000000
00000000
00000000
00000000
00000000
00010000
00000000
00000000
00001000
00000000
00000000
00010000
00000000
00000000
00000000
00001000
00000000
00000000
00000000
00010000
00000000
00000000
00000000
,
00002000
00000000
00000000
00000000
,
00000000
00000000
00000000
00020000
,
00000000
00003000
00000000
00001000
00031000
00000000
00011000
00000000
,
00000010
00000020
00000000
00000000
00000000
00000000
00000000
00000000
,
00001030
00001000
00000100
00000100
00000010
00000010
00000001
00000001
,
00000100
00000000
00000100
00000000
00001000
00000000
00001000
00000000
00010000
00000000
00010000
00000000
00100000
01000000
00100000
00000000
,
20000000
00000000
00000000
00000000
00000000
00000000
00000000
31000000
,
00010000
00010000
00001000
00001000
00000010
00000012
00000000
00000000
,
00000203
00000000
00001000
00000000
,
00010000
00000000
00001000
00000000
,
00000001
00000000
00001000
00000000
,
00020300
00000000
00000000
01030000
01100000
00000000
10000000
10100000
,
00000000
00010000
01010000
00000000
00011000
00000000
00001100
00000000
,
00002002
00000000
00003003
00000000
00000220
00000300
00000000
00020000
,
00000030
00002000
00000000
00030000
,
00100000
00000000
00000010
00000000
,
01000000
00000000
00000000
00000000
00003200
00000000
00000301
00000011
,
00000000
00000000
00000000
00001000
00000000
00000000
00001100
00000000
00000000
00000000
00000000
00000000
00000100
00000000
00000010
00000000
00000001
00000000
00000010
00000000
00000001
00000000
00000100
00000000
,
00002000
00020000
00003000
00000000
,
00000000
00000000
00000000
00200000
00030000
00000000
20000000
00000000
,
30300000
00000000
00000000
02020000
00000000
00000000
03030000
00000000
00000000
00000000
00010000
00000000
10000000
00000000
00000000
00000000
10000000
00000000
01000000
00000000
00000000
00000000
01000000
00000000
,
00010000
00000000
00000000
00000000
00010000
00000000
00001000
00000000
00100000
00000000
00001000
00000000
00010000
00000000
00000100
00000000
00010000
00000000
00001000
00000000
00000000
00000010
00000000
00000000
,
00000002
00000200
00000003
00001000
,
00000000
00010000
00000000
00001300
,
00000100
00000001
00000100
00000001
00000010
00000001
00000010
00000100
00000010
00000100
00010000
00001000
,
01000000
00100000
01000000
00100000
10000000
00100000
10000000
01000000
10000000
01000000
00010000
00001000
,
00000010
00000001
00000100
00000010
00001000
00000100
00010000
00001000
00100000
00010000
01000000
00100000
,
20000000
00020000
30000000
00230000
,
00302000
00000000
00003020
00000000
,
00000032
00000000
00000000
00000103
00000000
00001000
00000100
00001000
00000100
00010000
00000000
00001000
,
00100000
00001000
00100000
00010000
00000000
01000000
00100000
01000000
00100000
10000000
00000000
00010000
,
00100000
00010000
00100000
00001000
00010000
00000100
00000010
00000000
00000000
00001001
00000000
00000000
,
00020020
00000030
00000010
00001000
,
01000000
00000000
00100000
00001000
,
00000100
00000000
00000000
00000000
00000000
00000000
00000000
00000000
00031000
00100000
00001000
00000000
00010000
00000000
00001000
00010000
,
00001000
00000000
00000010
00000000
00000002
00000000
00000000
00000000
00000103
00001000
00000100
00000000
00001000
00000000
00010000
00001000
,
00010000
00100000
20000000
00000000
00000000
00000000
00000000
00000000
,
30010000
00000000
00000000
00000000
00010000
01000000
00001000
00000000
00010000
00000000
00001000
00010000
00000100
00000000
00001000
00000000
,
00000001
00000100
00000020
00000000
00000000
00000000
00001030
00000000
00001000
00000100
00010000
00000000
00001000
00000000
00010000
00001000
,
00100000
00000000
00000000
00010000
00000000
00000000
01000000
00000000
00000000
00100000
00000000
00000000
10000000
00000000
00010000
00000000
00100000
00000000
00001000
00000000
00010000
00000000
00000100
00000000
,
00002000
00000000
00000000
00003002
00000000
00000000
00000013
00001000
00010000
00001000
00010000
01000000
,
10000000
00000000
00100000
00010000
00002000
00000000
00000000
00000000
00020000
00000000
00000000
00000000
00033000
00000000
00000000
00000000
,
00020020
00000000
00000000
00030030
,
00011000
02002000
00000000
00000000
00000000
00000000
03003000
00000000
,
00011000
00000000
00000000
00000000
00000000
00000000
00010000
00000000
00000100
00000000
00000000
00000000
00000000
00000000
00000100
00000000
00001000
00000000
00000010
00000100
00000010
00000100
00000010
00000100
00000001
00000000
00000000
00000011
00000000
00000000
00000010
00000000
,
00001000
00000000
00000000
00011000
00000000
00000000
00010000
00000000
01000000
00000000
10000000
00000000
00100000
01000000
00100000
01000000
00002000
00000000
00000000
00000000
00000000
00000000
00013000
00000000
00020200
00000000
00000000
00000000
00000000
00000000
00030300
00000000
,
00000100
00000000
00000000
00000000
00000000
00000000
00000010
00000000
00000000
00000000
00000000
00000000
00000000
00000000
00000000
00000000
00000000
00000000
00000000
00000000
00000000
00000000
00000000
00000000
00000010
00000000
00000000
00000000
00000000
00000000
00000000
00000000
00000000
00000000
00000000
00000000
00000001
00000000
00000000
00000000
00000000
00000000
00000000
00000000
00000000
00000000
00000000
00000000
00000100
00000000
00000000
00000000
00000000
00000000
00001000
00000000
00000000
00000000
00000000
00000000
00000100
00000000
00000000
00000000
00000000
00000000
00000000
00000000
00000000
00000000
00000000
00000000
00001000
00000000
00000000
00000000
00000000
00000000
00000000
00000000
00000000
00000000
00000000
00000000
00010000
00000000
00000000
00000000
00000000
00000000
00000000
00000000
00000000
00000000
00000000
00000000
00100000
00000000
00000000
00000000
00000000
00000000
00000000
00000000
10000000
00000000
00000000
00000000
00000000
00000000
00000000
00000000
00100000
00000000
00000000
00000000
00000000
00000000
00000000
00000000
10000000
00000000
00000000
00000000
00000000
00000000
00000000
00000000
00010000
00000000
00000000
00000000
00000000
00000000
00000000
00000000
01000000
00000000
00000000
00000000
00000000
00000000
00000000
00000000
00010000
00000000
00000000
00000000
00000000
00000000
00000000
00000000
01000000
00000000
00000000
00000000
00000000
00000000
00000000
00000000
00100000
00000000
00000000
00000000
00000000
00000000
00000000
00000000
10000000
00000000
00000000
00000000
00000000
00000000
01000000
00000000
00000000
00000000
00000000
00000000
10000000
00000000
00000000
00000000
00000000
00000000
01000000
00000000
00000000
00000000
00000000
00000000
,
00010000
00000000
00000000
00010000
00001000
00000000
00010000
00000100
00001000
00000000
00000000
00000100
00000010
00000000
00000001
00000000
00000100
00000000
00001000
00000000
00000100
00000000
00000001
00000000
00000010
00000000
00001000
00000000
00010000
00000000
01000000
00000000
,
10000000
00100000
00010000
00100000
10000000
01000000
00020000
00000000
00000000
00031000
00001000
00001000
00011000
00000000
00000000
00010000
,
01000000
00000000
00000000
00000000
11000000
00000000
00000000
00000000
10000000
00000000
00000000
10100000
00000000
00000000
00100000
00000000
00010000
00000000
00000000
00011000
00000000
00000000
00001000
00000000
00000010
00000000
00000000
00000011
00000000
00000000
00000001
00000010
,
00000100
00000000
00000000
00000000
00001000
00000000
00000000
00000000
00010000
00000000
00000000
00000000
00021000
00000000
00000000
00000000
00000000
00000000
00000000
00000000
00000000
00000000
00000000
00000000
01000000
00000000
00000000
00000000
00000000
00000000
00000000
00000000
00000000
00000000
00000000
00000000
20030000
00000000
00000000
00000000
00000000
00000000
30100000
00000000
00000000
00010000
00000000
00000000
,
00000000
00000000
00000000
00000000
00000000
00000000
00000000
00000000
00000000
00000000
00000000
00000000
00001000
00000000
00000000
00000000
00000000
00000000
00000000
00000000
00000000
00000000
00000000
00000000
00000010
00000000
00000000
00000000
00000000
00000000
00000000
00000000
00000000
00000000
00000000
00000000
00000000
00000000
00000000
00000000
00000000
00000000
00000000
00000000
00000000
00000000
00000000
00000000
00000001
00000000
00000000
00000000
00000000
00000000
00000000
00000000
00000000
00000000
00000000
00000000
00000100
00000000
00000000
00000000
00000000
00000000
00000000
00000000
00000000
00000000
00000000
00000000
00000010
00000000
00000000
00000000
00000000
00000000
00001000
00000000
00000000
00000000
00000000
00000000
00000010
00000000
00000000
00000000
00000000
00000000
00001000
00000000
00000000
00000000
00000000
00000000
00000100
00000000
00000000
00000000
00000000
00000000
00000000
00000000
00000000
00000000
00000000
00000000
00000000
00000000
00000000
00000000
00000000
00000000
00000100
00000000
00000000
00000000
00000000
00000000
00010000
00000000
00000000
00000000
00000000
00000000
00000000
00000000
00001000
00000000
00000000
00000000
00000000
00000000
00000000
00000000
01000000
00000000
00000000
00000000
00000000
00000000
00000000
00000000
00001000
00000000
00000000
00000000
00000000
00000000
00000000
00000000
00010000
00000000
00000000
00000000
00000000
00000000
00000000
00000000
00000010
00000000
00000000
00000000
00000000
00000000
00000000
00000000
00010000
00000000
00000000
00000000
00000000
00000000
00000000
00000000
00001000
00000000
00000000
00000000
00000000
00000000
00000000
00000000
00100000
00000000
00000000
00000000
00000000
00000000
00000000
00000000
,
00020000
00000000
00000000
00000000
20030000
00000000
00000000
00000000
32000000
00000000
03010000
00001000
00000100
00000001
00000010
00000100
,
00001000
00000000
00001000
00000010
00000000
00000010
00010000
00000000
00010000
00001000
00000000
00001000
,
00100000
00010000
00100000
00000000
00001000
00000000
00100000
00010000
,
00100000
00000000
00001000
00000000
00100000
00010000
00100000
01000000
,
10000000
00000000
20020000
30030000
00010000
00100000
00001000
00000000
,
00010000
00010000
00001000
00000200
00000000
00000301
00001001
00000000
,
00001000
00000010
00001000
00000000
00000001
00000000
00001000
00000010
,
00001000
00000000
00000001
00000000
00001000
00000010
00010000
00000000
,
00001000
00100000
00020000
00000000
00000000
00000000
10030000
01000000
,
10000000
01000000
00100000
00001000
00010000
00000000
00022000
00033000
,
00001000
00000010
00000001
00000000
00000100
00001000
00022000
00000000
,
00000000
00000000
00003000
02000000
,
03000000
00000000
00000000
00000000
00000000
00000000
00000010
00000000
00000000
00000000
00000000
00000000
00002000
00000000
00000000
00033000
00000000
00000000
00001000
00000000
00200000
00000000
00000000
00000000
,
00000000
00000000
00000000
10300000
,
10000000
01000000
00011000
00000000
00000001
00000010
00011000
00000000
,
10000000
00010000
00011000
00000000
00000001
00001000
00021000
00000000
,
00000000
00130000
01100000
00000000
11000000
00000000
00210000
00000000
,
00000000
00301000
00022000
00000000
00000000
00000000
00033000
00000000
,
00010010
00000000
00000010
00000000
00001001
00000000
00000000
00000000
00000110
00000000
00000000
00000000
00000100
00000001
00000010
00000000
,
00000010
00001000
00010000
00000000
00010000
01000000
00100000
00000000
01000000
00000000
02000000
00000000
03000000
00000000
00000000
00000000
,
01100000
00000000
00000000
00000000
10010000
00000000
00000000
00000000
01100000
00000000
00000000
00000000
01000000
10000000
00100000
00000000
,
00100000
00010000
00001000
00000000
00001000
00000100
00000010
00000000
00000100
00000000
00000100
00000000
00000101
00000000
00000000
00000000
,
00001010
00000000
00000001
00000100
00011000
00000000
00110000
00000000
,
10000000
01000000
00011000
00000000
00001010
00000000
00000022
00000000
,
00000033
00000000
00000000
00000000
00000101
00000000
00000000
00000000
00001100
00000000
00000000
00000000
00011000
00000000
00000000
00000000
00001000
00010000
01000000
00000000
00010000
00000000
00001000
00010000
01000000
00000000
00010000
00000000
00001000
00010000
00100000
00000000
,
10000000
00000000
01100000
00000000
00011000
00000000
00000100
00000001
00000010
00000100
00001000
00010000
00001000
00000000
00000000
00000000
,
00000000
00011000
00000000
00000000
,
00000000
00000000
00000000
00000000
,
00000000
00000000
00000000
00000000
00000000
00000000
00010000
00000000
00000010
00000000
00010000
00000000
,
00001000
00000000
00100000
00000000
00001000
00000000
00100000
00000000
00001000
00000000
00100000
00000000
,
00001000
00000000
00010000
00000000
00000100
00000000
00010000
00000000
00000100
00000000
00010000
00000000
,
00001000
00000000
01000000
00000000
00001000
00000000
01000000
00000000
00001000
00000000
01000000
00000000
,
00001000
00000000
00010000
00000000
00001000
00000000
00010000
00000000
00000000
00011000
00000000
00000000
;

//---------------dance-single - ----------------
#NOTES:
     dance-single:
     :
     Beginner:
     9:
     0.206000,0.424589,0.167852,0.144963,0.000000,189.000000,167.000000,22.000000,19.000000,0.000000,0.000000,0.206000,0.424589,0.167852,0.144963,0.000000,189.000000,167.000000,22.000000,19.000000,0.000000,0.000000:
// measure 0
0000
0000
0000
0000
,  // measure 1
0000
0000
0000
0000
,  // measure 2
0000
0000
0000
0000
,  // measure 3
0000
0000
0000
0000
,  // measure 4
0000
0000
0000
0000
,  // measure 5
0000
0000
0000
0000
,  // measure 6
0000
0000
0000
0000
,  // measure 7
0000
0000
0000
0000
,  // measure 8
0010
0000
0000
0000
,  // measure 9
0000
0000
0000
0010
,  // measure 10
0000
0000
0100
0100
,  // measure 11
0100
0000
0000
0000
,  // measure 12
0001
0001
1000
1000
,  // measure 13
0001
0000
1000
0000
,  // measure 14
1001
0000
0000
0000
,  // measure 15
0100
0100
0100
0000
,  // measure 16
0010
0000
0000
0000
,  // measure 17
0000
0000
0000
0000
,  // measure 18
0000
0000
0000
0000
,  // measure 19
0000
0000
0010
0000
0100
0000
0000
0100
,  // measure 20
0000
0100
0001
0001
,  // measure 21
1000
0000
0000
0000
0001
0000
0000
0001
,  // measure 22
0000
0000
0000
0000
,  // measure 23
0000
0000
0000
0000
,  // measure 24
0000
0000
1001
0100
,  // measure 25
0000
0100
0100
0010
,  // measure 26
0010
0000
0000
0000
,  // measure 27
0000
0000
0000
0010
,  // measure 28
0000
0010
0000
0000
1000
0000
0100
0000
,  // measure 29
0100
0010
0010
0010
,  // measure 30
0001
1000
0000
0000
,  // measure 31
0000
0000
0000
0000
,  // measure 32
0001
0000
0100
0000
,  // measure 33
1000
0000
0010
0000
,  // measure 34
0001
0000
0100
0100
,  // measure 35
0100
0000
0000
0000
,  // measure 36
0000
0000
0000
0000
,  // measure 37
0000
0110
0000
1000
,  // measure 38
0001
1000
1000
0001
,  // measure 39
0001
1000
0010
0010
,  // measure 40
0000
0000
0000
0000
,  // measure 41
0000
0000
0000
0000
,  // measure 42
0000
0000
0000
0000
0100
0000
0000
0100
,  // measure 43
0000
0000
0100
0000
0001
0000
0000
1000
,  // measure 44
0000
1001
0000
0000
,  // measure 45
0000
0010
0000
1000
,  // measure 46
0000
0100
0000
0001
,  // measure 47
0000
0010
0000
1000
,  // measure 48
0000
0100
0000
0001
,  // measure 49
0000
0110
0000
0000
,  // measure 50
2002
0000
0000
0000
,  // measure 51
3003
0000
0000
0000
,  // measure 52
1001
0000
0100
0000
0010
0100
0100
0000
,  // measure 53
0010
0010
0001
0100
,  // measure 54
1000
0000
1000
0000
0010
0010
0100
0100
,  // measure 55
0010
0100
2002
3003
,  // measure 56
0001
0000
1000
1000
0000
0000
0110
0000
,  // measure 57
0100
0001
1000
0010
,  // measure 58
0100
0100
0002
0000
1003
0000
2000
0000
,  // measure 59
3001
1000
0010
0001
,  // measure 60
0100
0000
0100
0000
0100
0000
0100
0100
,  // measure 61
0200
0000
0000
0300
,  // measure 62
0020
0000
0000
0000
,  // measure 63
0000
0000
0000
0030
,  // measure 64
0010
0000
1000
0000
,  // measure 65
0001
0000
0100
0000
,  // measure 66
2002
0000
0000
0000
,  // measure 67
0000
0000
0000
3003
,  // measure 68
1000
0000
0001
0000
,  // measure 69
1000
0001
1000
0000
,  // measure 70
0110
0000
0001
0220
,  // measure 71
0000
0000
0000
0000
,  // measure 72
0000
0330
0110
2002
,  // measure 73
0000
0000
0000
3003
,  // measure 74
1000
0000
0010
0000
,  // measure 75
0001
0000
0100
0000
,  // measure 76
1000
0010
0100
0100
,  // measure 77
0000
0001
0002
0000
0000
0000
0003
0000
,  // measure 78
1000
1000
1000
0000
0000
0000
1100
0000
,  // measure 79
0000
0001
0000
0101
,  // measure 80
0000
1000
0000
1010
,  // measure 81
0000
0001
0000
0011
,  // measure 82
0000
2002
3003
1000
,  // measure 83
0100
0010
0001
0001
,  // measure 84
0000
0100
0010
0100
,  // measure 85
1000
0010
0001
1001
,  // measure 86
0000
1001
0000
0000
,  // measure 87
0000
0000
0000
0000
,  // measure 88
0000
0000
2002
0000
,  // measure 89
0000
0000
0000
0000
,  // measure 90
0000
0000
0000
0000
,  // measure 91
0000
0000
0000
0000
,  // measure 92
0000
0000
0000
3003
;

//---------------dance-single - ----------------
#NOTES:
     dance-single:
     :
     Easy:
     11:
     0.344423,0.635167,0.350963,0.167852,0.000000,316.000000,270.000000,46.000000,22.000000,0.000000,0.000000,0.344423,0.635167,0.350963,0.167852,0.000000,316.000000,270.000000,46.000000,22.000000,0.000000,0.000000:
0000
0000
0000
0000
,
0000
0000
0000
0000
,
0000
0000
0000
0000
,
0000
0000
0000
0000
,
0000
0000
0000
0000
,
0000
0000
0000
0000
,
0000
0000
0000
0000
,
0000
0000
0000
0000
,
0110
0000
0000
0000
,
0000
0000
0000
0110
,
0000
0000
0000
0001
1000
0000
0001
0000
,
0100
0010
0000
0000
0000
0000
0000
0000
,
0100
0001
0100
0010
,
1000
0000
0010
0000
0100
0000
0001
1000
,
0001
0000
0000
0000
0000
0000
0000
1000
,
0001
0010
0020
0030
,
1000
0000
0100
0000
,
0001
0000
0010
0000
,
1000
0000
0100
0000
,
0001
0000
0000
0010
0010
0000
0100
0100
,
0000
0010
0010
0000
0110
0000
1001
0000
,
0110
0000
0000
0000
0101
0000
0000
1010
,
0000
1000
0000
0100
,
0000
0001
0000
0010
,
0000
0000
1000
0000
0110
0000
0001
0001
,
0000
0001
0110
1000
,
1001
0000
0010
0000
,
0001
0000
0100
1100
,
0000
0011
0000
0000
0001
0000
0100
0000
,
0010
1000
0001
0010
,
0100
1001
0000
0010
,
0000
1000
0000
0100
,
0001
0010
0100
0010
,
0001
0010
1000
0010
,
0001
0010
0100
0100
,
1100
0000
1000
0000
,
0011
0000
0001
0000
,
0110
0200
0310
0010
,
1000
0100
0001
1000
,
0010
0001
0100
2020
,
3030
0000
0010
0001
,
0100
0000
0010
1000
,
0100
0000
0000
0000
0010
0100
0000
0010
,
0100
0000
0010
0000
0001
1000
0000
1000
,
0001
1001
0000
0000
,
0000
1000
0100
0001
,
0100
1000
0100
0010
,
0100
1000
0100
0001
,
0100
0010
0001
1000
,
0100
0010
0110
0000
,
2002
0000
0000
3000
,
1000
1000
0000
0000
0000
0000
0003
0000
,
1001
0001
0100
0000
0001
1000
0100
0000
,
1000
0010
0110
0100
0001
0000
0011
0000
,
1100
1000
0010
0100
0001
1000
0100
0010
,
0100
0000
0110
0000
1000
0010
0010
0001
,
0100
0100
1000
0020
0000
0130
0110
0000
,
0100
0011
0010
1100
,
1000
0010
0200
0000
0001
0000
1000
0000
,
0301
0000
1001
0000
1000
0100
0001
0000
,
0100
0000
0010
0000
0100
0000
0010
0100
,
0010
0001
0100
0100
,
2000
0000
3000
0002
,
0000
0003
1000
0001
,
0100
0110
0010
1001
,
0010
0110
0100
1001
,
1000
0010
1000
0000
,
0001
0100
0001
0000
,
1000
0100
0010
0100
,
0010
0001
0100
0000
,
1001
0000
0010
2002
,
0000
0000
0000
0000
,
0000
3003
1010
0202
,
0000
0000
0000
0303
,
0001
0010
1000
0100
,
0001
0100
1000
0010
,
0001
0010
1000
0100
,
0010
0100
0020
0000
0000
0000
0030
0000
,
0100
0100
0001
0000
0010
0000
0011
0000
,
0000
1000
0010
1010
,
0000
0001
0100
0101
,
0000
1000
0100
1100
,
0000
0000
1001
0010
0010
0000
1000
0000
,
0100
0001
0010
0110
,
1000
0001
1001
0100
0100
0000
1000
0000
,
0010
0001
0100
0220
,
0330
1001
0000
0000
,
0000
0000
0000
0000
,
0000
0000
0002
0000
,
2003
0000
0000
0000
,
0000
0002
3000
0000
,
0000
0203
0000
0020
,
0000
0000
0330
0000
;

//---------------dance-double - ----------------
#NOTES:
     dance-double:
     :
     Easy:
     11:
     0.330254,0.599880,0.274667,0.167852,0.000000,303.000000,267.000000,36.000000,22.000000,0.000000,0.000000,0.330254,0.599880,0.274667,0.167852,0.000000,303.000000,267.000000,36.000000,22.000000,0.000000,0.000000:
00000000
00000000
00000000
00000000
,
00000000
00000000
00000000
00000000
,
00000000
00000000
00000000
00000000
,
00000000
00000000
00000000
00000000
,
00000000
00000000
00000000
00000000
,
00000000
00000000
00000000
00000000
,
00000000
00000000
00000000
00000000
,
00000000
00000000
00000000
00000000
,
00011000
00000000
00000000
00000000
,
00000000
00000000
00000000
00011000
,
00000000
00000000
00000000
00010000
00001000
00000000
00010000
00000000
,
00001000
00010000
00000000
00000000
00000000
00000000
00000000
00000000
,
00001000
01000000
00001000
00010000
,
00000010
00010000
00001000
00010000
,
00011000
00000000
00000000
00000000
00000000
00000000
00000000
00010000
,
01000000
10000000
20000000
30000000
,
00100000
00000000
00010000
00000000
,
00001000
00000000
00000100
00000000
,
00000001
00000000
00000010
00000000
,
00001000
00000000
00000000
00010000
00001000
00000000
00001000
00010000
,
00000000
00010000
00001000
00000000
00011000
00000000
01000000
00000000
,
00001000
00000000
00000000
00000000
00011000
00000000
00000000
00000010
,
00000000
00010000
00000000
00001000
,
00000000
00000100
00000000
00000001
,
00000000
00000000
00000010
00000000
00011000
00000000
00100000
00100000
,
00000000
01000000
00011000
00000100
,
00000110
00000000
00000001
00000000
,
00000100
00000000
00001000
00010000
,
00000000
00011000
00000000
00000000
00001000
00000000
00010000
00000000
,
00100000
10000000
01000000
00100000
,
01000000
01100000
00000000
00010000
,
00000000
00001000
00000000
00000010
,
00000001
00000010
00000100
00000010
,
00000001
00000010
00001000
00000010
,
00000001
00000100
00001000
00010000
,
00010010
00000000
00001000
00000000
,
00101000
00000000
00010000
00000000
,
00011000
00002000
00103000
00100000
,
01000000
00010000
00001000
00000010
,
00000100
00000010
00000001
00000202
,
00000303
00000000
00000100
00001000
,
00010000
00000000
00001000
00010000
,
01000000
00000000
00000000
00000000
10000000
00100000
00000000
00100000
,
01000000
00000000
01000000
00000000
00010000
00100000
00000000
00100000
,
00001000
00011000
00000000
00000000
,
00000000
00010000
00001000
00000010
,
00001000
00010000
00100000
00010000
,
00001000
00000100
00001000
00010000
,
01000000
00010000
00001000
00010000
,
01000000
10000000
00200000
00000000
,
00020000
00000000
00000000
00300000
,
00001000
00001000
00000000
00000000
00000000
00000000
00000000
00000000
,
00030100
00000010
00000001
00000000
00001000
00000100
00000010
00000000
,
00000001
00000100
00001000
00010000
00011000
00000000
00110000
00000000
,
00100000
10000000
01000000
00100000
01000000
00010000
00001000
00000010
,
00000100
00000010
00000001
00000000
00000100
00001000
00010000
00001000
,
00010000
01000000
10000000
00200000
00000000
01300000
01100000
00000000
,
00010000
01001000
00001000
00010100
,
00000100
00000100
00000020
00000000
00000001
00000000
00001000
00000000
,
00000031
00000000
00000101
00000000
00000100
00001000
00010000
00000000
,
00001000
00000000
00010000
00000000
00001000
00000000
00010000
00001000
,
00010000
00100000
10000000
01000000
,
00020000
00000000
00030000
00002000
,
00000000
00003000
00000010
00000010
,
00000100
00001001
00000010
00011000
,
01000000
10010000
00100000
00011000
,
00001000
00000000
00010000
00000000
,
00001000
00000000
00010000
00000000
,
00001000
00010000
00001000
00010000
,
00001000
00010000
00001000
00000000
,
01001000
00000000
00010000
00020200
,
00000000
00000000
00000000
00000000
,
00000000
00030300
00011000
00022000
,
00000000
00000000
00000000
00033000
,
00010000
00100000
10000000
01000000
,
00010000
00001000
00000010
00000001
,
00000100
00001000
00010000
00100000
,
10000000
22000000
00000000
33000000
,
01000000
00010000
00001000
00000000
00010000
00000000
00010010
00000000
,
00000000
00010000
00001000
00101000
,
00000000
00001000
00010000
00010100
,
00000000
00010000
00001000
01001000
,
00000000
00000000
00011000
00010000
00010000
00000000
00001000
00000000
,
00000010
00000001
00000100
00001000
,
00010000
00010000
00011000
00001000
00001000
00000000
00010000
00000000
,
01000000
10000000
00100000
00020000
,
00000000
00031000
00000000
00000000
,
00000000
00000000
00000000
00000000
,
00000000
00000000
00020000
00000000
,
00032000
00000000
00000000
00000000
,
00000000
00020000
00003000
00000000
,
00000000
00032000
00000000
00020000
,
00000000
00000000
00033000
00000000
;

//---------------dance-single - ----------------
#NOTES:
     dance-single:
     :
     Medium:
     14:
     0.506825,1.026090,0.373852,0.434889,0.251778,465.000000,416.000000,49.000000,57.000000,0.000000,0.000000,0.506825,1.026090,0.373852,0.434889,0.251778,465.000000,416.000000,49.000000,57.000000,0.000000,0.000000:
0000
0000
0000
0000
,
0000
0000
0000
0000
,
0000
0000
0000
0000
,
0000
0000
0000
0000
,
0000
0000
0000
0000
,
0000
0000
0000
0000
,
0000
0000
0000
0000
,
0000
0000
0000
0000
0000
0001
1000
0001
,
0200
0000
0000
0000
,
0000
0000
0000
0320
,
0000
0000
0000
0100
0130
0000
0110
0000
,
1000
0002
0000
0000
0000
0000
0000
0000
,
0013
0001
0100
0000
0100
0010
1000
0000
,
1000
0001
0010
0000
0010
0100
1000
0001
,
0200
0000
0000
0000
0000
0000
0000
0310
,
0010
0000
1000
0100
0020
0001
0000
0000
,
0230
0000
1000
0000
,
1000
0000
0010
0000
,
0010
0000
0001
0000
,
0001
0000
0000
0310
0010
0000
0001
0001
,
0000
0100
0100
0000
1100
0000
0010
0000
,
0022
0000
0030
0000
1000
0003
0000
2010
,
0000
0200
0000
0300
,
0100
0000
0001
0000
,
0001
0000
3000
0000
0020
0000
0130
0100
,
0000
0010
0010
0000
1000
0100
0010
0001
,
0020
0200
0030
0000
,
0000
1000
0000
0001
,
0000
0020
0330
0000
0110
0000
1000
0010
,
0100
0000
0001
0100
0010
0000
1000
0001
,
0200
0020
0300
0100
,
0000
0001
0000
1030
,
1000
0100
0010
0000
0010
0001
0100
0000
,
0010
1000
0100
0000
0100
0010
0001
0000
,
1000
0010
0100
0001
1000
0010
0100
0001
,
2000
0010
0000
3002
,
0020
0030
0203
0000
,
0320
0000
1030
0000
1000
0100
0001
0000
,
0100
0000
0010
0000
0001
0100
1000
0000
,
0100
0010
1010
0101
,
1200
0000
0310
0001
,
2000
0000
3010
1000
,
0002
0000
0000
0000
0013
0001
0010
0100
,
0010
0100
2000
0000
3010
1000
0010
0100
,
0001
0100
0020
0000
0000
0000
0000
0000
,
0130
0000
0100
0001
0100
0001
1000
0100
,
0010
0002
0000
0103
0100
0000
0001
0100
,
0010
0100
0010
1000
0001
0100
1000
0100
,
0002
0000
1003
0000
1000
0010
0001
0010
,
1000
0200
0020
0330
,
2002
0000
0000
3003
,
0020
0200
0000
0000
0000
0000
0330
0000
,
0110
0000
0000
0000
0000
0000
1000
0000
1000
0000
0000
0000
0000
0000
0001
0000
0001
0000
0010
0000
0100
0000
1000
0000
0100
0000
0000
0100
0000
0000
0100
0000
,
0010
0000
0000
0010
0000
0000
0010
0000
0001
0000
0100
0000
0010
0000
0010
0000
2000
0000
0000
0000
0000
0000
3001
0000
0201
0000
0000
0000
0000
0000
0000
0000
,
0310
0000
0010
1000
0100
0001
0100
1000
0020
0000
0000
0000
0230
0000
0301
0010
,
0100
0000
0000
0100
1000
0000
0000
1000
0010
0000
0000
0010
0001
0000
0010
0000
0110
0000
0100
0000
0001
0000
0000
0000
0100
0000
0010
0000
1000
0000
0000
0000
,
0001
0010
0100
0000
1000
0100
0020
0000
0000
0130
0010
0100
0110
0000
0000
0010
,
0001
0000
0000
0000
0101
0000
0000
0000
1000
0000
0000
1000
0000
0000
1000
0000
0010
0000
0000
0010
0000
0000
0010
0000
0100
0000
0000
0100
0000
0000
0100
0000
,
0001
0000
0010
0000
0100
0000
1100
0000
0000
0000
0000
0000
0101
0000
0000
0000
0000
0000
1001
0000
0000
0001
0000
0000
,
0000
0000
0000
0000
0000
0000
0000
0000
0000
0000
0000
0000
0100
0000
0000
0000
0000
0000
0000
0000
0000
0000
0000
0000
0000
0000
0000
0000
0000
0000
0000
0000
0000
0000
0000
0000
0000
0000
0000
0000
0000
0000
0000
0000
0000
0000
0000
0000
1000
0000
0000
0000
0000
0000
0000
0000
0000
0000
0000
0000
0010
0000
0000
0000
0000
0000
0000
0000
0000
0000
0000
0000
0100
0000
0000
0000
0000
0000
0000
0000
0000
0000
0000
0000
0100
0000
0000
0000
0000
0000
0000
0000
0000
0000
0000
0000
0001
0000
0000
0000
0000
0000
0000
0000
0000
0000
0000
0000
0000
0000
0000
0000
0000
0000
0001
0000
0000
0000
0000
0000
1000
0000
0000
0000
0000
0000
0000
0000
0000
0000
0000
0000
0000
0000
0000
0000
0100
0000
0000
0000
0000
0000
0000
0000
0000
0000
0000
0000
0000
0000
0000
0000
0010
0000
0000
0000
0000
0000
0000
0000
0000
0000
0000
0000
0000
0000
0000
0000
0001
0000
0000
0000
0000
0000
0000
0000
0000
0000
0000
0000
0000
0000
0000
0000
0000
0000
0000
0000
0000
0000
0000
0000
,
0011
0000
0000
0000
1010
0000
0000
0000
1001
0000
0001
0100
0010
1000
0001
0100
,
0010
0000
0100
0001
0000
0100
0001
0000
0100
0001
0000
0100
,
0001
0010
1000
0010
,
0001
0100
1000
0100
,
1001
0000
0110
0000
0010
1000
0100
0000
,
1000
0010
0100
0002
0000
1003
1001
0000
,
1000
0010
0001
0010
,
1000
0100
0001
0100
,
1000
0020
0000
0130
,
0001
1000
1001
0110
,
1000
0010
0100
0000
0001
0100
0220
0000
,
0000
0000
0000
0330
,
1010
0000
0101
0000
2002
3003
0220
0000
,
0000
0000
0330
0110
,
1000
0100
0001
0000
0001
0010
1000
0000
,
1000
0010
0001
0000
0001
0100
2000
0000
,
0000
3010
0110
0000
1010
0000
0012
0000
,
0000
0103
2020
0000
0000
0000
3030
0000
,
1100
0001
0100
0000
0100
0000
0001
0010
,
0100
0010
0001
0010
0100
2000
3000
0000
,
1100
0000
0001
0000
0001
0000
1000
0100
,
0001
0100
1000
0100
0001
0100
2000
0000
,
3010
0000
0010
0100
1001
0000
0101
0000
,
1100
1010
0011
2002
,
3003
0000
0001
0000
1000
0000
0010
0000
0100
0001
0100
0010
0100
1000
0100
0000
,
0010
0110
1002
0103
2001
3010
0110
0000
,
0000
1001
0000
0000
,
0000
0000
0000
0000
,
0000
0000
0000
0000
0000
0000
1000
0000
0100
0000
1000
0000
,
0001
0000
0100
0000
0001
0000
0100
0000
0001
0000
0100
0000
,
0001
0000
1000
0000
0010
0000
1000
0000
0010
0000
1000
0000
,
0001
0000
0010
0000
0001
0000
0010
0000
0001
0000
0010
0000
,
0100
0000
0010
0000
0100
0000
0010
0000
0000
1001
0000
0000
;

//---------------dance-double - ----------------
#NOTES:
     dance-double:
     :
     Medium:
     14:
     0.500286,1.026090,0.373852,0.434889,0.190741,459.000000,410.000000,49.000000,57.000000,0.000000,0.000000,0.500286,1.026090,0.373852,0.434889,0.190741,459.000000,410.000000,49.000000,57.000000,0.000000,0.000000:
00000000
00000000
00000000
00000000
,
00000000
00000000
00000000
00000000
,
00000000
00000000
00000000
00000000
,
00000000
00000000
00000000
00000000
,
00000000
00000000
00000000
00000000
,
00000000
00000000
00000000
00000000
,
00000000
00000000
00000000
00000000
,
00000000
00000000
00000000
00000000
00000000
00010000
00001000
00010000
,
00000020
00000000
00000000
00000000
,
00000000
00000000
00000000
00000230
,
00000000
00000000
00000000
00000001
00000301
00000000
00001001
00000000
,
00001000
00000020
00000000
00000000
00000000
00000000
00000000
00000000
,
00010030
00001000
00100000
00000000
00001000
00010000
00000100
00000000
,
00010000
00001000
01000000
00000000
00001000
00010000
00000010
00010000
,
00002000
00000000
00000000
00000000
00000000
00000000
00000000
00103000
,
00100000
00000000
00010000
00100000
01000000
20000000
00000000
00000000
,
30200000
00000000
00010000
00000000
,
00010000
00000000
00001000
00000000
,
00001000
00000000
00010000
00000000
,
00010000
00000000
00000000
10300000
10000000
00000000
01000000
01000000
,
00000000
00010000
00010000
00000000
00011000
00000000
00000100
00000000
,
00000220
00000000
00000300
00000000
00000001
00000000
00000000
00002030
,
00000000
00020000
00000000
00030000
,
00010000
00000000
00010000
00000000
,
00010000
00000000
00003000
00000000
00200000
00000000
01300000
01000000
,
00000000
10000000
10000000
00000000
00100000
00010000
00001000
00010000
,
00000020
00000200
00000030
00000000
,
00000000
00001000
00000000
00000001
,
00000000
00002000
00003300
00000000
00011000
00000000
00010000
00100000
,
01000000
00000000
00100000
10000000
01000000
00000000
00100000
00001000
,
00020000
00002000
00030000
00000010
,
00000000
00100000
00000000
00003010
,
00000010
00000001
00000100
00000000
00000010
00001000
00000100
00000000
,
00010000
00001000
00100000
00000000
00010000
00100000
01000000
00000000
,
10000000
00100000
00010000
00000000
00001000
00000100
00000001
00000000
,
00002000
00000010
00000000
00023000
,
00100000
00000000
20030000
00000000
,
30200000
00000000
01300000
00000000
01000000
00001000
00010000
00000000
,
00000100
00000000
00010000
00000000
00001000
00100000
00010000
00000000
,
00100000
00001000
00011000
00000010
,
00002010
00000000
00003001
00000100
,
00002000
00000000
00013000
00100000
,
20000000
00000000
00000000
00000000
30100000
00010000
00001000
00010000
,
00001000
00000010
00000002
00000000
00000103
00001000
00010000
00001000
,
00010000
01000000
20000000
00000000
00000000
00000000
00000000
00000000
,
30100000
00000000
00100000
01000000
00010000
00000000
00100000
01000000
,
00010000
00002000
00000000
00010000
00013000
00000000
00010000
00001000
,
00000010
00000000
00001000
00010000
00100000
00000000
00010000
00001000
,
00000200
00000000
00000301
00000000
00000001
00000010
00000100
00001000
,
00000010
00020000
00002000
00033000
,
02002000
00000000
00000000
03003000
,
00020200
00000000
00000000
00030300
,
00011000
00000000
00000000
00000000
00000000
00000000
00001000
00000000
01000000
00000000
00000000
00000000
00000000
00000000
00001000
00000000
00010000
00000000
00000100
00000000
00001000
00000000
00000100
00000000
00000010
00000000
00000000
00000010
00000000
00000000
00000010
00000000
,
00000001
00000000
00000000
00000001
00000000
00000000
00000001
00000000
00000100
00000000
00001000
00000000
00010000
00000000
00100000
00000000
02000000
00000000
00000000
00000000
00000000
00000000
03010000
00000000
20010000
00000000
00000000
00000000
00000000
00000000
00000000
00000000
,
30100000
00000000
00100000
10000000
01000000
00010000
00001000
00000010
00000002
00000000
00000000
00000000
00002003
00000000
00003001
00000100
,
00000010
00000000
00000000
00000010
00010000
00000000
00000000
00010000
00001000
00000000
00000000
00001000
00100000
00000000
00100000
00000000
01100000
00000000
01000000
00000000
10000000
00000000
00000000
00000000
01000000
00000000
00100000
00000000
00010000
00000000
00000000
00000000
,
00100000
00010000
00001000
00000000
00010000
00001000
00000200
00000000
00000000
00000310
00000100
00000010
00000011
00000000
00000000
00000001
,
00000100
00000000
00000000
00000000
00001100
00000000
00000000
00000000
00001000
00000000
00000000
00001000
00000000
00000000
00001000
00000000
00010000
00000000
00000000
00010000
00000000
00000000
00010000
00000000
01000000
00000000
00000000
01000000
00000000
00000000
01000000
00000000
,
10000000
00000000
00100000
00000000
01000000
00000000
01010000
00000000
00000000
00000000
00000000
00000000
00011000
00000000
00000000
00000000
00000000
00000000
00001100
00000000
00000000
00000100
00000000
00000000
,
00000000
00000000
00000000
00000000
00000000
00000000
00000000
00000000
00000000
00000000
00000000
00000000
00000001
00000000
00000000
00000000
00000000
00000000
00000000
00000000
00000000
00000000
00000000
00000000
00000000
00000000
00000000
00000000
00000000
00000000
00000000
00000000
00000000
00000000
00000000
00000000
00000000
00000000
00000000
00000000
00000000
00000000
00000000
00000000
00000000
00000000
00000000
00000000
00000010
00000000
00000000
00000000
00000000
00000000
00000000
00000000
00000000
00000000
00000000
00000000
00000100
00000000
00000000
00000000
00000000
00000000
00000000
00000000
00000000
00000000
00000000
00000000
00000010
00000000
00000000
00000000
00000000
00000000
00000000
00000000
00000000
00000000
00000000
00000000
00000010
00000000
00000000
00000000
00000000
00000000
00000000
00000000
00000000
00000000
00000000
00000000
00000001
00000000
00000000
00000000
00000000
00000000
00000000
00000000
00000000
00000000
00000000
00000000
00000000
00000000
00000000
00000000
00000000
00000000
00000001
00000000
00000000
00000000
00000000
00000000
00001000
00000000
00000000
00000000
00000000
00000000
00000000
00000000
00000000
00000000
00000000
00000000
00000000
00000000
00000000
00000000
00000100
00000000
00000000
00000000
00000000
00000000
00000000
00000000
00000000
00000000
00000000
00000000
00000000
00000000
00000000
00000000
00010000
00000000
00000000
00000000
00000000
00000000
00000000
00000000
00000000
00000000
00000000
00000000
00000000
00000000
00000000
00000000
01000000
00000000
00000000
00000000
00000000
00000000
00000000
00000000
00000000
00000000
00000000
00000000
00000000
00000000
00000000
00000000
00000000
00000000
00000000
00000000
00000000
00000000
00000000
00000000
,
11000000
00000000
00000000
00000000
01010000
00000000
00000000
00000000
00011000
00000000
00001000
01000000
00001000
00010000
00000100
00010000
,
00001000
00000000
00010000
00001000
00000000
00010000
00001000
00000000
00010000
00001000
00000000
00010000
,
00001000
00000010
00000001
00000100
,
00001000
00010000
00100000
10000000
,
10010000
00000000
01100000
00000000
00100000
10000000
01000000
00000000
,
01000000
00010000
00001000
00020000
00000000
00031000
00011000
00000000
,
00010000
01000000
10000000
00100000
,
00010000
00001000
00000100
00000001
,
00000010
00002000
00000000
00013000
,
00001000
00000010
00000110
00001001
,
00000001
00000100
00001000
00000000
00010000
00001000
00022000
00000000
,
00000000
00000000
00000000
00033000
,
00010010
00000000
00101000
00000000
00020200
00030300
02002000
00000000
,
00000000
00000000
03003000
00011000
,
00010000
01000000
10000000
00000000
10000000
00100000
00010000
00000000
,
00001000
00000100
00000001
00000000
00000001
00000010
00002000
00000000
,
00000000
00013000
00011000
00000000
01001000
00000000
00020100
00000000
,
00000000
01030000
22000000
00000000
00000000
00000000
33000000
00000000
,
10000000
00100000
00011000
00000000
00011000
00000000
00010000
00001000
,
00000010
00001000
00010000
00001000
00000010
00000002
00000003
00000000
,
00000101
00000000
00001100
00000000
00011000
00000000
00001000
00010000
,
00100000
00010000
00001000
00010000
00100000
01000000
20000000
00000000
,
31000000
00000000
01000000
00001000
00011000
00000000
00000110
00000000
,
00000011
00001100
01010000
20200000
,
30300000
00000000
10000000
00000000
01000000
00000000
00100000
00000000
00001000
00010000
00001000
00000010
00001000
00010000
00001000
00000000
,
00000100
00000101
00000002
00000023
00002030
00013000
00011000
00000000
,
00000000
00011000
00000000
00000000
,
00000000
00000000
00000000
00000000
,
00000000
00000000
00000000
00000000
00001000
00010000
00001000
00000000
,
00010000
00001000
00010000
00001000
00010000
00001000
00010000
00000000
,
00001000
00010000
00001000
00010000
00001000
00000000
00010000
00001000
,
00010000
00001000
00010000
00001000
00000000
00000000
00001000
00010000
,
00001000
00010000
00000000
00000000
00000000
00000000
00011000
00000000
;
