#TITLE:JACK PT BOSS;
#SUBTITLE:;
#ARTIST:MYUKKE.;
#TITLETRANSLIT:;
#SUBTITLETRANSLIT:;
#ARTISTTRANSLIT:;
#GENRE:VARIETY;
#CREDIT:MUINELIM;
#BANNER:JACK PT BOSS.png;
#BACKGROUND:JACK PT BOSS-bg.png;
#LYRICSPATH:;
#CDTITLE:;
#MUSIC:JACK PT BOSS.ogg;
#OFFSET:-0.066000;
#SAMPLESTART:93.242477;
#SAMPLELENGTH:15.529411;
#SELECTABLE:YES;
#DISPLAYBPM:85.000000:170.000000;
#BPMS:0.000000=170,232.000000=85,248.000000=170
;
#STOPS:
;
#BGCHANGES:0.000=JACK PT BOSS-preview.avi=1.000=0=0=1=StretchNormal====,
99999=-nosongbg-=1.000=0=0=0 // don't automatically add -songbackground-
;
#KEYSOUNDS:;
#ATTACKS:;

//---------------dance-single - ----------------
#NOTES:
     dance-single:
     :
     Beginner:
     4:
     0.174716,0.265903,0.013742,0.027483,0.000000,178.000000,176.000000,2.000000,4.000000,0.000000,0.000000,0.174716,0.265903,0.013742,0.027483,0.000000,178.000000,176.000000,2.000000,4.000000,0.000000,0.000000:
0000
0000
0000
0000
,
0000
0000
0000
0000
,
0000
0000
0000
0000
,
0000
0000
0000
0000
,
0000
0000
0000
0000
,
0000
0000
0000
0000
,
1000
0000
0000
0000
,
1000
0000
0000
0000
,
0001
0000
0000
0000
,
0001
0000
0000
0000
,
1000
0000
0001
0000
,
1000
0000
0000
0000
,
0001
0000
1000
0000
,
0001
0000
0000
0000
,
0100
0000
0010
0000
,
0100
0000
0000
0000
,
0010
0000
0100
0000
,
0010
0010
0010
0000
,
1000
0000
0100
0000
,
1000
0000
0100
0000
,
0010
0000
0001
0000
,
0010
0000
0010
0000
,
0001
0000
0100
0000
,
0001
0000
0100
0000
,
0010
0000
1000
0000
,
0010
0000
0010
0000
,
1000
0000
0001
0000
,
1000
0000
0001
0000
,
0010
0000
0100
0000
,
0010
0000
0100
0000
,
1000
0000
0001
0000
,
0010
0000
0100
0000
,
1000
0000
0010
0000
,
0100
0000
0010
0010
,
0010
0000
1000
0000
,
0010
0000
1000
0000
,
0001
0000
0100
0000
,
0001
0000
0100
0000
,
0010
0000
1000
0000
,
0001
0000
0100
0000
,
0010
0000
0100
0000
,
0001
0000
1000
0000
,
0001
0000
0001
0000
,
0100
0000
0100
0000
,
0010
0000
0010
0000
,
1000
0000
1000
0000
,
0100
0000
0100
0000
,
0010
0000
0010
0000
,
0001
0000
1000
0000
,
0001
0000
1000
0000
,
0010
0000
0100
0000
,
0010
0000
0010
0000
,
1000
0000
0001
0000
,
1000
0000
1000
0000
,
0001
0000
1000
0000
,
0001
0000
1000
0000
,
0010
0000
0100
0000
,
0010
0010
0020
0000
,
0030
0000
0000
0000
,
0000
0000
0000
0000
,
1000
1000
0001
0001
,
1000
0001
0200
0300
,
0010
0000
0010
0000
,
1000
0000
1000
0000
,
0001
0000
0001
0000
,
0100
0000
0100
0000
,
0001
0000
0001
0000
,
1000
0000
1000
0000
,
0010
0000
0010
0000
,
0100
0100
0100
0000
,
0001
0000
0010
0000
,
0001
0000
0001
0000
,
1000
0000
0100
0000
,
1000
0000
1000
0000
,
0020
0000
0030
0000
,
0200
0000
0300
0000
,
0010
0000
0010
0000
,
0010
0010
0010
0000
,
1000
0000
0000
0000
,
0100
0000
0000
0000
,
0001
0000
0000
0000
,
0010
0000
0000
0000
,
1000
0000
1000
0000
,
0001
0000
0001
0000
,
0010
0000
0100
0000
,
1000
0000
0001
0000
,
1000
0000
1000
0000
,
0010
0000
0010
0000
,
0100
0000
0100
0000
,
0001
0000
0001
0000
,
1000
0000
0100
0000
,
0010
0000
0001
0000
,
0100
0000
0100
0000
,
0010
0010
0010
0000
,
0100
0100
0100
0000
,
0010
0010
0010
0000
,
1001
0000
0000
1001
;

//---------------dance-single - ----------------
#NOTES:
     dance-single:
     :
     Easy:
     7:
     0.286613,0.399885,0.082450,0.068709,0.000000,292.000000,280.000000,12.000000,10.000000,0.000000,0.000000,0.286613,0.399885,0.082450,0.068709,0.000000,292.000000,280.000000,12.000000,10.000000,0.000000,0.000000:
0000
0000
0000
0000
,
0000
0000
0000
0000
,
0000
0000
0000
0000
,
0000
0000
0000
0000
,
0000
0000
0000
0000
,
0000
0000
0000
0000
,
1000
0000
1000
0000
,
0001
0000
0001
0000
,
1000
0000
0001
0000
,
1000
0001
1000
1001
,
0001
0100
0001
0000
,
1000
0010
1000
0000
,
0001
0010
0001
0000
,
1000
0100
1000
0000
,
0001
1000
0001
0000
,
0100
0010
0100
0000
,
0001
0001
1000
1000
,
0001
1000
0001
1001
,
1000
0001
1000
0000
,
0010
0000
0100
0000
,
0001
1000
0001
0000
,
0200
0300
0010
0010
,
1000
0001
0100
0000
,
0001
1000
0010
0000
,
1000
0000
0001
0000
,
0100
0010
0100
0100
,
0001
0010
0001
0000
,
1000
0100
1000
0000
,
0010
0100
0010
0000
,
1000
0001
1000
0001
,
1000
1000
0100
0000
,
0001
0001
0010
0000
,
1000
0000
0001
0000
,
0010
0100
0010
0100
,
1000
0000
0010
0000
,
0001
0000
0100
0000
,
1000
0000
0010
0000
,
0001
0000
0100
0000
,
1000
0000
0100
0000
,
0001
0000
0010
0000
,
1000
0000
0100
0000
,
0001
0000
0010
0100
,
0110
0001
0100
0000
,
0010
1000
0100
0000
,
0010
0001
1000
0000
,
0100
1000
0001
0000
,
0010
0100
1000
0010
,
0100
0001
0010
0100
,
0010
0001
0100
0010
,
1000
0100
0010
0100
,
1000
0000
0010
0000
,
0001
0000
0100
0000
,
0001
0000
0010
0000
,
1000
0000
0100
0000
,
1000
1000
0000
0000
0001
0001
0000
0000
,
0100
0100
0000
0000
0010
0010
0000
0000
,
1000
0001
0100
0010
,
0220
0000
0000
0330
,
0001
0000
0100
0000
,
1000
0000
0010
0000
,
0001
1000
0010
0100
,
0001
1000
0001
1000
0001
0000
0100
0100
,
0010
1000
0010
1000
,
0001
0100
0001
0100
,
0010
1000
0001
0100
,
0010
0010
0010
0000
,
1000
0100
1000
0100
,
0010
0001
0010
0001
,
1000
0100
0010
0001
,
2002
0000
0000
3003
,
1000
0001
0100
0001
,
1000
0010
1000
1000
,
0001
1000
0100
1000
,
0001
0010
0001
0001
,
0200
0000
0310
0000
,
0002
0000
1003
0000
,
1000
0010
0100
0001
,
1000
0100
0010
0001
,
1000
0000
1010
0000
,
0001
0000
0101
0000
,
1000
0000
1100
0000
,
0001
0000
0011
0000
,
1000
0000
1001
0000
,
0010
0000
0110
0000
,
1000
0001
1000
0010
,
0100
0010
0020
0030
,
1000
0100
1000
0010
,
0100
0010
1000
1000
,
0001
0010
0001
0100
,
0010
0100
0001
0001
,
1000
0010
0001
0001
,
0100
1000
1000
0010
,
0100
0000
0010
0000
1000
0000
0001
0001
,
0000
0000
0000
0000
0001
0000
1000
1000
,
0000
0000
0000
0000
1000
0000
0001
0001
,
0000
0000
0000
0000
0000
1000
1000
0000
,
0010
0000
0000
0100
0000
0000
2002
0000
,
3003
0000
0000
0000
;

//---------------dance-single - ----------------
#NOTES:
     dance-single:
     :
     Medium:
     11:
     0.514334,0.733122,0.199255,0.164901,0.013742,524.000000,495.000000,29.000000,24.000000,0.000000,0.000000,0.514334,0.733122,0.199255,0.164901,0.013742,524.000000,495.000000,29.000000,24.000000,0.000000,0.000000:
0000
0000
0000
0000
,
0000
0000
0000
0000
,
0000
0000
0000
0000
,
0000
0000
0000
0000
,
0000
0000
0000
0000
,
0000
0000
0000
0000
,
1000
0001
1000
1000
,
0001
1000
0001
0001
,
0100
0010
0100
0000
0010
0100
0010
0010
,
0000
0100
0010
0000
0100
0000
0110
0000
,
0010
1000
0010
0000
1000
0000
0001
0000
,
1000
0010
1000
0000
0001
0000
1000
0000
,
0001
0100
0001
0000
1000
0000
0001
0000
,
0100
0001
0100
0000
0001
0000
1000
0000
,
0001
0010
0001
0000
1000
0000
0001
0000
,
0010
0001
0010
0000
0001
0000
1000
0000
,
0100
1000
0100
0000
1000
0100
0010
0002
,
0000
1003
0001
1001
,
1000
0000
0010
0000
0100
0010
0100
0000
,
0001
0000
0010
0000
0100
0010
0100
0000
,
1000
0000
0010
0000
0100
0010
0100
0001
,
0000
0001
0010
0100
1000
0000
1001
0000
,
0001
0000
0010
0000
0100
0010
0100
0000
,
1000
0000
0010
0000
0100
0010
0100
0000
,
0002
0013
2000
3010
,
0002
0103
2000
3100
,
1000
0000
0001
0000
0010
0001
0010
0000
,
0001
0000
1000
0000
0100
1000
0100
0000
,
1000
0000
0001
0000
0010
0001
0010
0100
,
0000
1000
0010
0100
0001
0000
1001
0000
,
1000
0000
0010
0000
0100
0001
0100
0000
,
0001
0000
0010
0000
0100
1000
0100
0000
,
2000
3010
0002
0013
,
2000
3100
0002
0103
,
0100
0010
1000
0000
0010
0100
0001
0000
,
0100
0010
1000
0001
0100
0000
0110
0000
,
0010
0100
0001
0000
0100
0010
1000
0000
,
0010
0100
0001
1000
0010
0000
0110
0000
,
1000
0010
0100
0000
0001
0100
0010
0000
,
1000
0010
0100
0001
1000
0000
1001
0000
,
0001
0010
0100
0000
1000
0100
0010
0001
,
0000
0001
0100
0010
2000
0000
3002
0000
,
0103
0100
0000
0010
1000
0010
0000
1000
,
0100
1000
0000
0001
0010
0001
0000
0100
,
0001
0100
0010
1000
0010
0000
0100
0001
,
0100
0010
1000
0010
0100
0000
0110
0000
,
1000
0100
0010
0001
0000
0100
0010
1000
,
0000
0010
0100
0001
0100
0010
0100
0000
,
0001
0010
0100
0000
1000
0100
0010
0000
,
0001
0100
0010
1000
0001
0000
1001
0000
,
1000
0000
0010
0000
0100
0001
1000
0000
,
0001
0000
0100
0000
0010
1000
0001
0000
,
1000
0000
0100
0000
0010
0100
0010
0000
,
0001
0000
0100
0000
0010
0100
0010
1000
,
0001
1000
0000
0000
1000
0010
0000
0000
,
0010
0100
0000
0000
0100
0001
0010
0000
,
0100
1000
0100
0010
0100
0010
0001
0000
,
0101
1010
2002
3003
,
0001
0100
1000
0001
,
0010
1000
0100
0010
,
0001
0100
0001
0100
0010
1000
0010
1000
,
0100
0010
0100
0000
0010
0001
0010
0001
0000
0000
1000
0100
1000
0000
1001
0000
,
0110
0010
1010
0100
,
0101
0000
0001
1000
0100
0010
0001
0000
,
1001
1000
1100
0001
,
0011
0000
0010
0100
1000
0010
0100
0000
,
0101
0010
1010
0100
,
0110
0000
0001
0010
0100
1000
0001
0000
,
0100
0010
1000
0001
0010
0100
1000
0010
,
0000
0010
0100
0001
1000
0100
0020
0000
,
0031
0100
0010
0000
0100
0001
0010
0000
,
0100
1000
0010
0000
0100
0010
1000
0000
,
0100
0010
0001
0000
1000
0100
0010
0000
,
0001
1000
0010
0000
1000
0001
0100
0000
,
0120
1000
0100
0001
,
0100
1000
0100
0030
,
1000
0100
0010
0001
1000
0100
0010
0001
,
0000
0100
0010
1000
0001
0010
0100
0000
,
2100
0000
3001
0000
0001
0100
1000
0000
,
0100
0000
0001
0000
1000
0100
0010
0000
,
0012
0000
1003
0000
1000
0010
0001
0000
,
0010
0000
1000
0000
0001
0010
0100
0000
,
0120
0000
0031
0000
0001
1000
0100
0000
,
0001
0000
0100
0000
1000
0001
0010
0000
,
1000
0010
0001
0100
0000
0100
1000
0010
,
0000
0010
0001
0100
0010
1000
0001
0000
,
2000
0000
3010
0000
0001
0010
1000
0000
,
0002
0000
0103
0000
1000
0100
0001
0000
,
2000
0000
3100
0000
0001
0100
1000
0000
,
0002
0000
0013
0000
1000
0010
0001
0000
,
0100
0010
1000
0000
0001
0010
0100
0000
,
0010
0100
1000
0000
0001
0100
0010
0000
,
1000
0001
1000
0100
0010
0001
0100
0010
,
0000
0010
0001
0010
0100
0000
0010
0100
,
0000
0100
1000
0100
0010
0000
0100
0010
,
0000
0010
0001
0010
1000
0100
0100
0000
,
0011
0000
0000
1010
0000
0000
2002
0000
,
3003
0000
0000
0000
;

//---------------dance-single - ----------------
#NOTES:
     dance-single:
     :
     Hard:
     15:
     0.762666,0.966388,0.322931,0.199255,0.302318,777.000000,730.000000,47.000000,29.000000,0.000000,0.000000,0.762666,0.966388,0.322931,0.199255,0.302318,777.000000,730.000000,47.000000,29.000000,0.000000,0.000000:
0000
0000
0000
0000
,
0000
0000
0000
0000
,
0000
0000
0000
0000
,
0000
0000
0000
0000
,
0000
0000
0000
0000
,
0000
0000
0000
0000
,
1000
1100
0001
0011
,
1000
1010
0001
0101
,
1000
0000
0100
0000
0010
0000
0001
0000
0100
0010
0100
0010
0100
0000
0020
0000
,
0000
1030
0100
0010
0001
1000
1001
0000
,
0001
0100
0010
1000
0001
0010
0100
1000
,
0010
0000
0100
0000
0001
0000
1000
0000
0100
0010
0100
0000
0010
0000
0000
0000
,
0001
1000
0010
0100
0001
1000
0100
0010
,
0001
0000
0100
0000
0010
0000
1000
0000
0001
0010
0001
0000
0100
0000
0000
0000
,
0010
1000
0001
0010
0100
1000
0010
0100
,
0001
0000
1000
0000
0100
0000
0010
0000
0001
0010
0001
0000
1000
0000
0000
0000
,
0010
0000
0100
0000
0001
0000
1000
0000
0100
0010
0100
0010
0100
0000
0020
0000
,
0030
0000
0011
0000
1100
0000
2002
3003
,
0001
0001
0100
1000
0100
0100
0001
0010
,
1000
0000
1000
0000
0010
0000
0001
0100
0001
0000
0100
0000
0110
0000
0000
0000
,
1000
1000
0100
0001
0100
0100
1000
1010
,
0000
0000
0001
0000
0010
0000
0100
0000
1000
0010
0100
0000
0001
0100
0010
0000
,
1000
1000
0100
0001
0100
0100
1000
0010
,
0001
0000
0001
0000
0010
0000
1000
0100
1000
0000
0100
0000
0110
0000
0010
0001
,
0010
0100
1000
0020
0000
0130
0001
1001
,
0000
0000
1000
0000
0010
0000
0200
0000
0000
0000
0301
0000
0001
0010
0001
0010
,
0100
0100
1000
0010
0001
0001
0010
1000
,
0100
0000
0100
0000
0010
0000
0001
1000
0001
0000
0100
0000
0110
0000
0000
0000
,
0010
0000
0010
0000
1000
0000
0100
0000
0001
0000
0001
0000
0100
0000
1000
0001
,
1000
0000
0100
0000
0010
0000
0001
0000
0100
0010
0100
0000
0010
1000
0010
1000
,
0001
0100
1000
0100
0001
0001
0010
1000
,
0010
0000
0010
0000
0001
0000
0100
0010
0100
0000
0010
0000
1000
0000
0100
0010
,
0100
0010
0001
0200
0000
0310
1000
1001
,
0000
0001
0010
0100
0000
0100
2002
3003
,
1000
0010
1000
0000
0100
0000
0001
0000
0100
0000
1000
0000
0010
0000
0100
0000
,
0001
0100
0001
0000
0010
0000
1000
0000
0010
0000
0001
0000
0100
0000
0010
0000
,
1000
0100
1000
0000
0001
0000
0010
0000
0100
0000
0001
0000
0100
0000
1000
0000
,
0001
0010
0001
0000
1000
0000
0100
0000
0010
0000
0001
0000
1001
0000
0000
0000
,
1000
0010
0100
0000
0001
0000
1000
0000
0100
0000
0010
0000
0100
0000
1000
0000
,
0001
0100
0010
0000
1000
0000
0001
0000
0010
0000
0100
0000
0010
0000
0001
0000
,
0100
0010
1000
0000
0001
0000
1000
0000
0010
0100
0001
0000
1000
0000
1002
0000
,
0000
0000
0103
0000
0010
0000
1000
0000
0001
0000
0010
0100
0020
0000
0000
0000
,
0031
0001
0000
0010
0001
0010
0000
0001
,
0100
0001
0000
0100
1000
0100
0000
1000
,
0010
0000
1000
0000
0010
0001
0010
0000
0001
0000
0100
0000
0010
0000
0010
0000
,
1000
0000
0100
0010
0001
0000
0100
0000
0110
0000
0000
0000
1010
0000
0000
0000
,
0101
0001
0010
0100
1000
0010
0001
0010
,
0000
0100
1000
0100
0001
1000
1001
0000
,
0001
0001
0100
0100
0010
0010
1000
2000
,
0000
0000
3100
0000
0010
0000
0001
0000
1000
0000
0010
0000
0100
0001
0100
0001
,
1000
0010
0001
0010
1000
0010
0001
0010
,
1000
0000
0100
0000
0001
0000
0100
0000
1000
0010
1000
0010
1000
0000
0000
0000
,
0001
0100
1000
0100
0001
0100
1000
0100
,
0001
0000
0010
0000
1000
0000
0010
0000
0001
0100
0001
0100
0001
0000
0000
0000
,
1000
0100
1100
0000
0001
0010
0011
0000
,
1000
0010
1010
0000
0001
0100
0101
0000
,
1000
0000
0100
0000
0010
0000
0001
0000
0100
0010
0100
0010
0100
0000
0010
0000
,
0000
0010
0001
0010
1000
0100
0220
0330
,
0002
0100
0103
0000
2000
0010
3010
0000
,
0002
0010
0013
0000
2000
0100
3100
0000
,
0100
0010
0001
0000
1000
0100
0010
0000
0001
0100
0010
1000
0000
0001
0001
0001
,
0100
0010
1000
0100
0010
0001
0100
1010
0000
0000
0101
0000
1100
0000
1001
0000
,
0001
0000
0010
0000
0100
0000
1000
0010
0000
0000
0100
0000
0001
0000
0010
0100
,
0000
0000
1000
0000
0010
0000
0100
0001
0000
0000
1000
0000
0100
0000
0010
0000
,
0011
0000
0001
0000
0100
0000
0010
1000
0000
0000
0100
0000
0010
0000
0001
0100
,
0000
0000
0010
0000
1000
0000
0001
0010
0000
0000
0100
0000
1000
0000
0010
0000
,
1010
0000
1000
0000
0100
0000
0001
0100
0000
0000
1000
0000
0010
0000
0001
0010
,
0000
0000
1000
0000
0100
0000
0001
0100
0000
0000
1000
0000
0010
0000
0001
0000
,
0010
0100
0010
0000
1000
0000
0100
0000
0010
0100
0010
0000
0001
0000
0100
0000
,
0000
0100
1000
0100
0001
0010
0220
0330
,
0100
1000
0100
0000
1000
0100
1000
0000
0010
0000
0100
0000
0001
0000
1000
0000
,
0100
0010
0100
0000
0010
0100
0010
0000
0001
0000
0100
0000
0010
0000
1000
0000
,
0001
0100
0001
0000
0100
0001
0100
0000
0010
0000
1000
0000
0100
0000
0010
0000
,
0001
1000
0001
0000
1000
0001
1000
0000
0010
0000
0100
0000
0101
0000
0000
0000
,
1020
0100
0001
0100
,
1000
0000
0100
0100
0000
0030
1001
0000
,
1000
0100
0001
1000
0010
0001
0100
0110
,
0000
0000
0010
1000
0001
0000
0100
0001
1000
0000
0010
0000
0200
0000
0000
0000
,
0301
0010
0001
0010
1000
0010
1000
0010
,
0001
0100
1000
0001
0010
1000
1001
0000
,
1000
0100
1000
0100
0001
0100
0001
0100
,
1000
0000
0010
0000
0001
0000
1000
0000
0100
0000
0001
0000
0010
0100
0010
0100
,
0020
0000
0000
0000
0031
0100
0010
0000
0100
0000
0001
0000
1000
0010
0100
0000
,
0010
0000
1000
0000
0001
1000
0100
0000
1000
0000
0001
0000
0010
0000
0001
0000
,
1000
0100
0001
0200
0000
1300
0010
0101
,
0000
0001
0010
1000
0010
0001
2002
3003
,
1000
0010
0100
0000
0001
0000
1000
0000
0100
0000
0001
0000
0100
0000
1000
0000
,
0010
0100
0001
0000
0010
0000
0100
0000
1000
0000
0010
0000
0001
0000
0010
0000
,
1000
0100
0010
0000
0001
0000
1000
0000
0010
0000
0001
0000
0010
0000
0100
0000
,
0001
0010
0100
0000
1000
0000
0001
0000
0100
0000
1000
0000
0100
0000
0010
0000
,
1000
0001
0100
0000
0001
1000
0010
0000
0100
0000
0001
0000
0010
0000
0100
0000
,
1000
0010
0100
0000
0001
0100
0010
0000
1000
0000
0001
0000
0010
0000
0100
0000
,
1001
0000
0001
0000
1000
0000
0100
0000
0010
0100
0010
0100
0010
0000
0002
0000
,
0000
1003
0010
0001
1000
0100
0001
0011
,
0000
0001
0010
1000
0001
0100
1000
1010
,
0000
1000
0100
0001
0010
1000
1001
0000
,
0011
0000
0010
0100
1000
0000
1010
0000
0010
0100
0001
0000
2002
0000
0000
0000
,
3003
0000
0000
0000
;

//---------------dance-double - ----------------
#NOTES:
     dance-double:
     :
     Easy:
     8:
     0.277779,0.399885,0.089321,0.068709,0.000000,283.000000,270.000000,13.000000,10.000000,0.000000,0.000000,0.277779,0.399885,0.089321,0.068709,0.000000,283.000000,270.000000,13.000000,10.000000,0.000000,0.000000:
00000000
00000000
00000000
00000000
,
00000000
00000000
00000000
00000000
,
00000000
00000000
00000000
00000000
,
00000000
00000000
00000000
00000000
,
00000000
00000000
00000000
00000000
,
00000000
00000000
00000000
00000000
,
00001000
00000000
00001000
00000000
,
00010000
00000000
00010000
00000000
,
00001000
00000000
00010000
00000000
,
00001000
00010000
00001000
00011000
,
00010000
00001000
01000000
00000000
,
00001000
00010000
00000010
00000000
,
00010000
00001000
00100000
00000000
,
00001000
00010000
00000100
00000000
,
00010000
00001000
00000100
00000000
,
00001000
00010000
00100000
00000000
,
00010000
00001000
00000010
00001000
,
00010000
01000000
00010000
00011000
,
00001000
00000000
00010000
00000000
,
01000000
00000000
10000000
00000000
,
00100000
00000000
00010000
00000000
,
00002000
00003000
00010000
00010000
,
00001000
00000000
00000100
00000000
,
00000001
00000000
00000010
00000000
,
00001000
00000000
00010000
00000000
,
00001000
00010000
00001000
00001000
,
00100000
00000000
01000000
00000000
,
10000000
00000000
00100000
00000000
,
00010000
00000000
00001000
00000000
,
00000100
00000000
00000001
00001000
,
00000001
00000000
00000010
00000000
,
00001000
00000000
00010000
00000000
,
00100000
00100000
10000000
00000000
,
01000000
01000000
00100000
00010000
,
01000000
00000000
00001000
00000000
,
00010000
00000000
00100000
00000000
,
00001000
00000000
00000010
00000000
,
00010000
00000000
00001000
00000000
,
00000100
00000000
00010000
00000000
,
01000000
00000000
00001000
00000000
,
00010000
00000000
00000100
00000000
,
00000010
00000000
00000001
00000100
,
00000110
00000010
00001000
00000000
,
00000100
00010000
00001000
00000000
,
00100000
00010000
01000000
00000000
,
00100000
10000000
01000000
00000000
,
00100000
00010000
01000000
00100000
,
00010000
00001000
00000100
00000010
,
00001000
00000100
00000010
00000001
,
00000100
00001000
00010000
00100000
,
10000000
00000000
01000000
00000000
,
00100000
00000000
00001000
00000000
,
00010000
00000000
00000100
00000000
,
00000010
00000000
00000001
00000000
,
00001000
00000010
00000000
00000000
00010000
00001000
00000000
00000000
,
01000000
00010000
00000000
00000000
00100000
01000000
00000000
00000000
,
10000000
00100000
00010000
00001000
,
00022000
00000000
00000000
00033000
,
00000010
00000000
00010000
00000000
,
00001000
00000000
01000000
00000000
,
00001000
00010000
00001000
00010000
,
00001000
00001000
00001000
00000000
00010000
00010000
00010000
00000000
,
00011000
00001000
00100000
00010000
,
01000000
00100000
00010000
00100000
,
01000000
00010000
00100000
01000000
,
10000000
10000000
10000000
00000000
,
00100000
00010000
00001000
00000100
,
00000001
00000010
00000100
00000010
,
00000001
00001000
00000100
00000010
,
00002002
00000000
00000000
00003003
,
00000001
00000100
00001000
00000100
,
00000010
00000100
00001000
00010000
,
00100000
01000000
00100000
00010000
,
00100000
10000000
01000000
00100000
,
00020000
00000000
00030000
00000000
,
20000000
00000000
30000000
00000000
,
00010000
00100000
01000000
00010000
,
00001000
00000010
00000100
00001000
,
00000001
00000000
00000101
00000000
,
00001000
00000000
00001010
00000000
,
00010000
00000000
00011000
00000000
,
00100000
00000000
00110000
00000000
,
01000000
00000000
11000000
00000000
,
00100000
00000000
01100000
00000000
,
10000000
01000000
00100000
00010000
,
00100000
01000000
00020000
00030000
,
00001000
00000010
00000100
00001000
,
00000100
00000010
00000001
00000001
,
00000100
00001000
00010000
01000000
,
00010000
00001000
00000100
00001000
,
00010000
00100000
00010000
00001000
,
00000010
00001000
00010000
00100000
,
10000000
00000000
01000000
00000000
00010000
00000000
00001000
01000000
,
00000000
00000000
00000000
00000000
00001000
00000000
00010000
00000010
,
00000000
00000000
00000000
00000000
00010000
00000000
00001000
00100000
,
00000000
00000000
00001000
00000000
00010000
00000100
00010000
00000000
,
00001000
00000000
00000000
00010000
00000000
00000000
00022000
00000000
,
00033000
00000000
00000000
00000000
;

//---------------dance-double - ----------------
#NOTES:
     dance-double:
     :
     Medium:
     11:
     0.479979,0.633151,0.192384,0.192384,0.006871,489.000000,461.000000,28.000000,28.000000,0.000000,0.000000,0.479979,0.633151,0.192384,0.192384,0.006871,489.000000,461.000000,28.000000,28.000000,0.000000,0.000000:
00000000
00000000
00000000
00000000
,
00000000
00000000
00000000
00000000
,
00000000
00000000
00000000
00000000
,
00000000
00000000
00000000
00000000
,
00000000
00000000
00000000
00000000
,
00000000
00000000
00000000
00000000
,
00001000
00100000
00001000
00001000
,
00010000
00000100
00010000
00010000
,
00001000
01000000
00001000
00000000
00010000
00000010
00010000
00010000
,
00000000
00001000
00010000
00000000
00001000
00000000
00011000
00000000
,
00010000
00010000
00001000
00000100
,
00000010
00000010
00000100
00001000
,
00010000
00010000
00001000
00000100
,
00000001
00000001
00000100
00001000
,
00010000
00010000
00100000
10000000
,
01000000
01000000
10000000
00100000
,
00010000
00000000
00010000
00000000
00001000
00010000
00001000
00020000
,
00000000
00031000
00010000
00011000
,
00001000
00000000
00000100
00000000
00000001
00000010
00000001
00000000
,
00000100
00000000
00001000
00000000
00010000
00001000
00010000
00000000
,
01000000
00000000
10000000
00000000
00100000
00000000
01000000
00100000
,
00000000
01000000
00010000
01000000
00001000
00000000
00011000
00000000
,
00010000
00000000
01000000
00000000
10000000
00100000
10000000
00000000
,
01000000
00000000
00010000
00000000
00001000
00010000
00001000
00000000
,
00020000
00030010
00002000
00103000
,
00020000
00030100
00002000
01003000
,
00001000
00000000
00000010
00000000
00000001
00000100
00000001
00000000
,
00000010
00000000
00001000
00000000
00010000
00001000
00010000
00000000
,
00100000
00000000
10000000
00000000
01000000
00000000
00100000
01000000
,
00000000
00100000
00010000
00100000
00001000
00000000
00011000
00000000
,
00010000
00000000
00100000
00000000
10000000
01000000
10000000
00000000
,
00100000
00000000
00010000
00000000
00001000
00010000
00001000
00000000
,
00020000
00030100
00002000
01003000
,
00020000
00030010
00002000
00103000
,
00100000
01000000
10000000
00000000
00100000
00000000
00010000
00000000
,
00001000
00000100
00000001
00000000
00001000
00000000
00001001
00000000
,
00000100
00000010
00000001
00000000
00000100
00000000
00001000
00000000
,
00010000
00100000
10000000
00000000
00010000
00000000
10010000
00000000
,
00100000
01000000
00010000
00000000
00100000
00000000
01000000
00000000
,
00010000
00001000
00000010
00000000
00000001
00000000
00001001
00000000
,
00000100
00000010
00001000
00000000
00000100
00000000
00000010
00001000
,
00000000
00010000
00100000
10000000
00010000
00000000
10010000
00000000
,
10000000
10000000
00000000
01000000
00000000
00100000
00000000
01000000
,
00000000
00010000
00000000
00001000
00000000
00000010
00000000
00000100
,
00000010
00000001
00001000
00000100
00000010
00000000
00000001
00000100
,
00001000
00010000
00001000
00011000
,
00010000
00000100
00001000
00000001
00000000
00000100
00000000
00001000
,
00000000
00010000
00100000
10000000
00000000
01000000
00100000
00000000
,
01000000
10000000
01000000
00000000
00100000
00010000
00100000
00000000
,
00001000
00010000
00001000
00000100
00000010
00000000
00000110
00000000
,
00001000
00000000
00000100
00000000
00000010
00000001
00000100
00000000
,
00001000
00000000
00010000
00000000
00100000
10000000
01000000
00000000
,
00100000
00000000
00010000
00000000
01000000
00001000
00010000
00000000
,
00000010
00000000
00001000
00000000
00000100
00000010
00000100
00001000
,
00000100
00010000
00000000
00000000
00010000
00001000
00000000
00000000
,
00001000
00100000
00000000
00000000
00100000
01000000
10000000
00000000
,
00100000
00010000
00001000
00010000
00001000
00000100
00000001
00000000
,
00000011
00000100
00002200
00003300
,
00001000
00000001
00000100
00001000
,
00010000
00100000
10000000
01000000
,
00100000
00001000
00100000
00001000
00010000
00000010
00010000
00000010
,
00001000
00000000
00000100
00000000
00000010
00000000
00000001
00000100
00000000
00000000
00000100
00001000
00010000
00000000
00001000
00000000
,
00011000
00100000
00011000
00000010
,
00011000
00000000
00100000
00001000
00010000
00000000
00001000
00000000
,
00011000
00000100
00011000
01000000
,
00011000
00000000
00000100
00010000
00001000
00000000
00010000
00000000
,
00011000
00000010
00011000
01000000
,
00011000
00000000
00100000
00001000
00010000
00000000
00001000
00000000
,
00010000
00000100
00001000
00000100
00000010
00000001
00001000
00000100
,
00000000
00000100
00010000
00001000
00100000
00010000
20000000
00000000
,
30100000
01000000
00010000
00000000
00100000
01000000
00010000
00000000
,
00001000
00000010
00000100
00000000
00001000
00000010
00000100
00000000
,
00001000
00010000
00100000
00000000
00010000
00001000
00000010
00000000
,
00001000
00010000
01000000
00000000
00010000
00001000
00000100
00000000
,
00000102
00000023
00000230
00020300
,
00032000
00000000
00203000
00000000
02300000
00000000
13000000
10000000
,
00100000
01000000
00010000
00100000
00001000
00010000
00000100
00001000
,
00000000
00000100
00000010
00000001
00000100
00001000
00010000
00000000
,
00012000
01003000
00010000
00001000
,
00010000
00000000
01000000
00000000
00001000
00010000
00001000
00000000
,
00021000
00030010
00001000
00010000
,
00001000
00000000
00000010
00000000
00010000
00001000
00010000
00000000
,
00012000
00103000
00010000
00001000
,
00010000
00100000
00001000
00010000
,
00100000
10000000
01000000
00010000
00000000
01000000
00010000
00001000
,
00000000
00010000
00001000
00000010
00000001
00000100
00001000
00000000
,
00020000
00030100
00000010
00000001
,
00000200
00001300
00010000
00100000
,
20000000
31000000
00100000
00001000
,
00020000
00030100
00000010
00000001
,
00000100
00001000
00010000
00000000
01000000
00010000
00001000
00000000
,
00000010
00001000
00010000
00000000
00100000
00010000
00001000
00000000
,
00100000
01000000
10000000
00100000
01000000
00010000
00100000
00001000
,
00000000
00010000
00000100
00001000
00000001
00000000
00000100
00001000
,
00000000
00001000
01000000
00010000
10000000
00000000
01000000
00010000
,
00000000
00010000
00001000
00000010
00000001
00001000
00000100
00000000
,
00010100
00000000
00000000
01001000
00000000
00000000
00022000
00000000
,
00033000
00000000
00000000
00000000
;

//---------------dance-double - ----------------
#NOTES:
     dance-double:
     :
     Hard:
     15:
     0.748925,0.899740,0.322931,0.254222,0.250787,763.000000,716.000000,47.000000,37.000000,0.000000,0.000000,0.748925,0.899740,0.322931,0.254222,0.250787,763.000000,716.000000,47.000000,37.000000,0.000000,0.000000:
00000000
00000000
00000000
00000000
,
00000000
00000000
00000000
00000000
,
00000000
00000000
00000000
00000000
,
00000000
00000000
00000000
00000000
,
00000000
00000000
00000000
00000000
,
00000000
00000000
00000000
00000000
,
00002000
01003000
00020000
00030100
,
00002000
00103000
00020000
00030100
,
00010000
00000000
00001000
00000000
00100000
00000000
00010000
00000000
01000000
00100000
01000000
00100000
01000000
00000000
00200000
00000000
,
00000000
10300000
01000000
00100000
00010000
10000000
10010000
00000000
,
00010000
01000000
00001000
00100000
00010000
01000000
00001000
00100000
,
01000000
00010000
00001000
00000010
00000001
00001000
00001001
00000000
,
00001000
00000010
00010000
00000100
00001000
00000010
00010000
00000100
,
00000010
00001000
00010000
01000000
10000000
00010000
10010000
00000000
,
00010000
00100000
01000000
00010000
00001000
00000010
00000100
00001000
,
00000010
00010000
00001000
01000000
00010000
00100000
01100000
00000000
,
10000000
00000000
01000000
00000000
00010000
00000000
00001000
00000000
00000010
00000100
00000010
00000100
00000010
00000000
00000002
00000000
,
00000003
00000000
00000101
00000000
00001100
00000000
00022000
00033000
,
00001000
00001000
00010000
01000000
10000000
10000000
01000000
00010000
,
00001000
00001000
00100000
01000000
10000000
00100000
00110000
00000000
,
00010000
00010000
00001000
00000010
00000001
00000001
00000100
00000110
,
00000000
00000000
00000010
00000000
00001000
00000000
00000100
00000000
00000010
00000001
00000010
00000000
00000100
00001000
00000100
00000000
,
00010000
00010000
00001000
00000100
00000001
00000001
00000100
00001000
,
00010000
00010000
00000010
00000100
00000001
00000010
00001010
00001000
,
00001000
00010000
01000000
20000000
00000000
30100000
00010000
00011000
,
00000000
00000000
00001000
00000000
00000100
00000000
00000002
00000000
00000000
00000000
00000013
00000000
00000010
00000100
00000010
00000100
,
00001000
00001000
00000010
00010000
00100000
00100000
00001000
00000010
,
00010000
00010000
00001000
00100000
01000000
10000000
10010000
00000000
,
00010000
00010000
01000000
00001000
00000100
00000100
00000001
00000010
,
00000010
00000000
00001000
00000000
00010000
00000000
01000000
00000000
10000000
00000000
10000000
00000000
00100000
01000000
00100000
01000000
,
00010000
00100000
01000000
00010000
00001000
00001000
00000010
00000100
,
00001000
00001000
00000001
00000100
00001000
00010000
00100000
10000000
,
01000000
00100000
00010000
02000000
00000000
03001000
00010000
00010100
,
00000000
00000100
00000010
00000001
00001000
00000100
00000220
00000330
,
00000010
00000001
00000010
00000000
00000100
00000000
00001000
00000000
00000100
00000000
00010000
00000000
00001000
00000000
00100000
00000000
,
01000000
10000000
01000000
00000000
00100000
00000000
00010000
00000000
00100000
00000000
00001000
00000000
00010000
00000000
00000010
00000000
,
00000100
00000001
00000100
00000000
00001000
00000000
00000100
00000000
00000010
00000000
00010000
00000000
00001000
00000000
01000000
00000000
,
00100000
10000000
00100000
00000000
00010000
00000000
00100000
00000000
01000000
00000000
00001000
00000000
00011000
00000000
00000000
00000000
,
00010000
00001000
00010000
00000000
00100000
00000000
10000000
00000000
01000000
00000000
00010000
00000000
01000000
00000000
00100000
00000000
,
00001000
00010000
00001000
00000000
00000100
00000000
00000001
00000000
00000010
00000000
00001000
00000000
00000010
00000000
00000100
00000000
,
00010000
00001000
01000000
00000000
00001000
00000000
00010000
00000000
00001000
00010000
00000010
00000000
00010000
00000000
00012000
00000000
,
00000000
00000000
00003100
00000000
00000001
00000000
00000010
00000000
00000100
00000000
00010000
00001000
00020000
00000000
00000000
00000000
,
01030000
01000000
00000000
10000000
00100000
00010000
00000000
00100000
,
00010000
00001000
00000000
00010000
00001000
00000100
00000000
00001000
,
00000100
00000000
00000001
00000000
00000010
00000100
00000010
00000000
00000001
00000000
00001000
00000000
00000100
00000000
00000100
00000000
,
00000010
00000000
00001000
00010000
00001000
00000000
01000000
00000000
01010000
00000000
00000000
00000000
10100000
00000000
00000000
00000000
,
11000000
01000000
00010000
00001000
00010000
00100000
10000000
01000000
,
00000000
01000000
00010000
00001000
00000010
00000001
00000101
00000000
,
00000100
00000100
00001000
00001000
00010000
00010000
00100000
00200000
,
00000000
00000000
10300000
00000000
01000000
00000000
00100000
00000000
00010000
00000000
01000000
00000000
00001000
00010000
00001000
00010000
,
00000010
00001000
00000100
00000010
00001000
00000010
00000100
00001000
,
00000010
00000000
00000100
00000000
00001000
00000000
00010000
00000000
00100000
01000000
00100000
01000000
00100000
00000000
00000000
00000000
,
01000000
00010000
00100000
01000000
00010000
01000000
00100000
00010000
,
01000000
00000000
00100000
00000000
00010000
00000000
00001000
00000000
00000100
00000010
00000100
00000010
00000100
00000000
00000000
00000000
,
00000010
00010000
00011000
00000000
00100000
00001000
00011000
00000000
,
00000100
00010000
00011000
00000000
01000000
00001000
00011000
00000000
,
00010000
00000000
00001000
00000000
00000100
00000000
00000001
00000000
00000010
00000100
00000010
00000100
00000010
00000000
00001000
00000000
,
00000000
00010000
01000000
10000000
00100000
00010000
00022000
00033000
,
00000020
00010000
00010030
00000000
00200000
00001000
00301000
00000000
,
00000200
00010000
00010300
00000000
02000000
00001000
03001000
00000000
,
00001000
00010000
01000000
00000000
10000000
01000000
00100000
00000000
00010000
01000000
00100000
00020000
00000000
00000000
00031000
00000100
,
00000001
00000010
00001000
00010000
01000000
10000000
00100000
01100000
00000000
00000000
01001000
00000000
00010000
00000000
00010010
00000000
,
00000010
00000000
00001000
00000000
00000100
00000000
00000010
00000001
00000000
00000000
00000010
00000000
00000100
00000000
00001000
00000100
,
00000000
00000000
00000010
00000000
00000001
00000000
00000010
00000100
00000000
00000000
00001000
00000000
00000100
00000000
00010000
00000000
,
00011000
00000000
00001000
00000000
00010000
00000000
00100000
01000000
00000000
00000000
00100000
00000000
00010000
00000000
00001000
00000100
,
00000000
00000000
00001000
00000000
00010000
00000000
00100000
01000000
00000000
00000000
00100000
00000000
10000000
00000000
01000000
00000000
,
11000000
00000000
10000000
00000000
01000000
00000000
00100000
00010000
00000000
00000000
00100000
00000000
01000000
00000000
10000000
01000000
,
00000000
00000000
00100000
00000000
00010000
00000000
00100000
01000000
00000000
00000000
00010000
00000000
00001000
00000000
00000010
00000000
,
00000001
00000100
00000001
00000000
00001000
00000000
00001000
00000000
00000001
00000010
00000001
00000000
00000100
00000000
00001000
00000000
,
00000000
00010000
00100000
10000000
01000000
00010000
00022000
00033000
,
00001000
00100000
00010000
00000000
00100000
00000000
01000000
00000000
10000000
00000000
00100000
00000000
00010000
00000000
00001000
00000000
,
00010000
00000100
00001000
00000000
00000100
00000000
00000010
00000000
00000001
00000000
00000100
00000000
00001000
00000000
00010000
00000000
,
00100000
10000000
01000000
00000000
00100000
00000000
00010000
00000000
01000000
00000000
00001000
00000000
00010000
00000000
00000100
00000000
,
00000010
00000001
00000100
00000000
00000010
00000000
00001000
00000000
00000100
00000000
00010000
00000000
00011000
00000000
00000000
00000000
,
00102000
00013000
00020010
00031000
,
01002000
00000000
00013000
00020000
00000000
00000000
00030100
00000000
,
00000100
00000010
00000001
00001000
00000100
00000010
00001000
00011000
,
00000000
00010000
01000000
10000000
00100000
00010000
00012000
00000000
,
00103000
01000000
10000000
00100000
00010000
00100000
01000000
00100000
,
00010000
00001000
00000100
00000001
00000010
00000100
00001001
00000000
,
00000010
00000100
00000001
00000010
00001000
00000010
00000100
00000010
,
00001000
00000000
00010000
00000000
01000000
00000000
10000000
00000000
00100000
00000000
01000000
00000000
00010000
10000000
00010000
10000000
,
00020000
00000000
00000000
00000000
01030000
00100000
01000000
00000000
00001000
00000000
00010000
00000000
00000010
00000100
00000010
00000000
,
00010000
00000000
00001000
00000000
00100000
01000000
00100000
00000000
00001000
00000000
00010000
00000000
00000100
00000000
00000010
00000000
,
00000001
00000100
00001000
00020000
00000000
00130000
10000000
11000000
,
00000000
01000000
00010000
00001000
00000010
00000001
00002002
00003003
,
00001000
00000010
00000100
00000000
00001000
00000000
00010000
00000000
00100000
00000000
10000000
00000000
01000000
00000000
00100000
00000000
,
00010000
01000000
00100000
00000000
00010000
00000000
00001000
00000000
00000100
00000000
00000001
00000000
00000010
00000000
00000100
00000000
,
00001000
00000001
00000100
00000000
00001000
00000000
01000000
00000000
00010000
00000000
00100000
00000000
01000000
00000000
00100000
00000000
,
00010000
10000000
01000000
00000000
00010000
00000000
00000100
00000000
00001000
00000000
00000010
00000000
00000100
00000000
00000010
00000000
,
00001000
00000100
00000010
00000000
00000001
00000010
00000100
00000000
00010000
00000000
00001000
00000000
00100000
00000000
01000000
00000000
,
10000000
00100000
01000000
00000000
00010000
01000000
00100000
00000000
10000000
00000000
01000000
00000000
00010000
00000000
00001000
00000000
,
00011000
00000000
00010000
00000000
00001000
00000000
00000100
00000000
00000001
00000010
00000001
00000010
00000100
00000000
00002100
00000000
,
00000000
00000000
00003010
00000100
00000001
00000000
00000010
00000000
00001000
00000000
00010000
00000000
01000000
00000000
01100000
00000000
,
00000000
00000000
00100000
01000000
10000000
00000000
00100000
00000000
00010000
00000000
00001000
00000000
00000100
00000000
00000110
00000000
,
00000000
00000000
00000001
00000010
00001000
00000000
00010000
00000000
00100000
00000000
10000000
00000000
10010000
00000000
00000000
00000000
,
00110000
00000000
00100000
01000000
00010000
00000000
00001000
00000000
00000010
00000100
00001000
00000000
00002002
00000000
00000000
00000000
,
00003003
00000000
00000000
00000000
;
