#TITLE:It's VOLT TIME;
#SUBTITLE:;
#ARTIST:Cosmograph;
#TITLETRANSLIT:;
#SUBTITLETRANSLIT:;
#ARTISTTRANSLIT:;
#GENRE:VARIETY;
#CREDIT:MUINELIM;
#BANNER:It's VOLT TIME.png;
#BACKGROUND:It's VOLT TIME-bg.png;
#LYRICSPATH:;
#CDTITLE:;
#MUSIC:It's VOLT TIME.ogg;
#OFFSET:-0.059000;
#SAMPLESTART:15.066999;
#SAMPLELENGTH:14.919996;
#SELECTABLE:YES;
#BPMS:0.000000=128.000000
;
#STOPS:
;
#BGCHANGES:;
#KEYSOUNDS:;
#ATTACKS:;

//---------------dance-single - ----------------
#NOTES:
     dance-single:
     :
     Beginner:
     2:
     0.115726,0.151496,0.042082,0.000000,0.000000,77.000000,73.000000,4.000000,0.000000,0.000000,0.000000,0.115726,0.151496,0.042082,0.000000,0.000000,77.000000,73.000000,4.000000,0.000000,0.000000,0.000000:
0000
0000
0000
0000
,
0000
0000
0000
0000
,
0000
0000
0000
0000
,
0000
0000
0000
0000
,
1000
0000
1000
0000
,
0001
0000
0001
0000
,
1000
0000
0001
0000
,
1001
0000
0000
0000
,
0100
0000
0100
0000
,
0010
0000
0010
0000
,
0100
0000
0000
0000
,
0010
0000
0000
0000
,
1000
0000
1000
0000
,
0001
0000
0001
0000
,
1000
0000
0000
0000
,
0001
0000
0000
0000
,
1000
0000
1000
0000
,
0100
0000
0100
0000
,
1000
0000
0100
0000
,
1000
0000
0001
0000
,
0010
0000
0001
0000
,
0010
0000
0010
0000
,
0001
0000
0001
0000
,
1001
0000
0000
0000
,
1000
0000
1000
0000
,
0010
0000
0010
0000
,
1000
0000
0010
0000
,
1000
0000
0010
0000
,
0100
0000
0001
0000
,
0100
0000
0100
0000
,
0001
0000
0001
0000
,
1001
0000
0000
0000
,
1000
0000
0000
0000
,
0100
0000
0000
0000
,
0001
0000
0000
0000
,
0010
0000
0000
0000
,
1000
0000
0000
0000
,
0100
0000
0000
0000
,
0001
0000
0000
0000
,
0010
0000
0000
0000
,
1000
0000
1000
0000
,
0010
0000
0010
0000
,
0001
0000
0001
0000
,
0100
0000
0100
0000
,
1000
0000
0010
0000
,
0001
0000
0100
0000
,
1000
0000
0001
0000
,
1000
0000
0000
0000
,
1001
0000
0000
0000
;

//---------------dance-single - ----------------
#NOTES:
     dance-single:
     :
     Easy:
     4:
     0.169832,0.236713,0.052603,0.042082,0.000000,113.000000,108.000000,5.000000,4.000000,0.000000,0.000000,0.169832,0.236713,0.052603,0.042082,0.000000,113.000000,108.000000,5.000000,4.000000,0.000000,0.000000:
0000
0000
0000
0000
,
0000
0000
0000
0000
,
0000
0000
0000
0000
,
0000
0000
0000
0000
,
1000
0000
0001
0000
,
1000
0000
0001
0000
,
1000
0000
0001
0000
,
1001
0000
0000
0000
,
0100
0000
0010
0000
,
0100
0000
0010
0000
,
0100
0000
0100
0000
,
0010
0000
0010
0000
,
1000
0000
0001
0000
,
1000
0000
0001
0000
,
1000
0000
1000
0000
,
0001
0000
0001
0000
,
1000
0100
0100
0000
,
0001
0100
0100
0000
,
1000
0000
0001
0000
,
0100
0010
0100
0000
,
0001
0010
0010
0000
,
1000
0010
0010
0000
,
0001
0000
1000
0000
,
1001
0000
0000
0000
,
0001
0000
0100
0000
,
1000
0010
0010
0000
,
0001
0000
0100
0000
,
1000
0010
0010
0000
,
1000
0000
0100
0000
,
0001
0010
0010
0000
,
1000
0000
0100
0000
,
1001
0000
0000
0000
,
0001
0000
0010
0000
,
0001
0000
0010
0000
,
1000
0000
0100
0000
,
1000
0000
0100
0000
,
0001
0010
0001
0000
,
1000
0100
1000
0000
,
0010
1000
0010
0000
,
0100
0001
0100
0000
,
0010
0100
0010
1000
,
0010
0100
0010
0000
,
0100
0010
0100
0001
,
0100
0010
0100
0000
,
0001
1000
0100
1000
,
0001
1000
0100
0000
,
1000
0001
0010
0001
,
2002
0000
3003
0000
,
0220
0000
0000
0000
,
0000
0000
0000
0000
,
0330
0000
0000
0000
;

//---------------dance-single - ----------------
#NOTES:
     dance-single:
     :
     Medium:
     7:
     0.305096,0.368219,0.147288,0.273534,0.000000,203.000000,189.000000,14.000000,26.000000,0.000000,0.000000,0.305096,0.368219,0.147288,0.273534,0.000000,203.000000,189.000000,14.000000,26.000000,0.000000,0.000000:
0000
0000
0000
0000
,
0000
0000
0000
0000
,
0000
0000
0000
0000
,
0000
0000
0000
0000
,
1000
0001
0100
0100
,
0001
1000
0010
0010
,
1000
0001
0100
0010
,
2002
0000
0000
3003
,
1000
0001
0000
0001
0000
0100
0000
0100
,
0000
0010
0000
0010
0000
1000
0000
1000
,
0001
0001
0100
0000
1000
1000
0100
0000
,
0001
0001
0010
0000
1000
1000
0010
0100
,
0001
1000
0000
1000
0000
0100
0000
0100
,
0000
0010
0000
0010
0000
0001
0000
0001
,
1000
1000
0100
0000
0001
0001
0100
0000
,
2000
3020
0230
0302
,
1003
0100
0100
0000
1000
0000
0001
0000
,
1000
0010
0010
0000
1000
0000
0001
0000
,
2000
3100
0020
0031
,
0200
0310
2000
3001
,
0001
0100
0100
0000
0001
0000
1000
0000
,
0001
0010
0010
0000
0001
0000
1000
0000
,
1001
0010
0110
0100
,
2002
0000
0000
3003
,
0010
0100
0010
0000
1000
0000
0001
0000
,
0100
0010
0100
0000
0001
0000
1000
0000
,
0010
1000
0100
0000
1000
0000
0001
0000
,
0010
0001
0100
0000
0001
0000
1000
0000
,
0001
1000
0001
0000
0100
0000
0010
0000
,
1000
0001
1000
0000
0010
0000
0100
0000
,
0001
0010
0200
0000
0010
0000
1300
0000
,
1000
0100
0020
0000
0100
0000
0031
0000
,
0001
1000
0000
0000
0110
0000
0000
0000
,
1000
0001
0000
0000
0110
0000
0000
0000
,
0001
0100
0000
0000
1010
0000
0000
0000
,
1000
0010
0000
0000
0101
0000
0000
0000
,
0001
0010
0000
0000
1100
0000
0000
0000
,
1000
0100
0000
0000
0011
0000
0000
0000
,
0100
0010
0000
0000
1001
0000
0000
0000
,
0010
0100
0010
0000
1001
0000
1001
0000
,
2000
0100
0001
3100
,
0002
0010
1000
0013
,
0200
0001
1000
0301
,
0020
0001
1000
0031
,
2000
3100
0002
0013
,
2000
3010
0002
0103
,
2000
3001
0200
0310
,
0010
1000
0010
1000
0001
0100
0001
0000
,
2002
0000
0000
0000
,
0000
0000
0000
0000
,
3003
0000
0000
0000
;

//---------------dance-single - ----------------
#NOTES:
     dance-single:
     :
     Hard:
     11:
     0.506490,0.552329,0.399781,0.189370,0.410302,337.000000,299.000000,38.000000,18.000000,0.000000,0.000000,0.506490,0.552329,0.399781,0.189370,0.410302,337.000000,299.000000,38.000000,18.000000,0.000000,0.000000:
// measure 0
0000
0000
0000
0000
,  // measure 1
0000
0000
0000
0000
,  // measure 2
0000
0000
0000
0000
,  // measure 3
0000
0000
0000
0000
,  // measure 4
1000
0010
0000
0000
1000
0000
0100
0000
1000
0000
0000
1010
0000
0000
0100
0000
,  // measure 5
0001
0100
0000
0000
0001
0000
0010
0000
0001
0000
0100
0000
0110
0000
0000
0000
,  // measure 6
0010
1000
0000
0000
0010
0000
0100
0000
0001
0000
0000
0100
0000
0000
0010
0000
,  // measure 7
0220
0000
0000
0330
,  // measure 8
1000
0000
0100
1000
0000
0000
0100
1000
0000
0000
0010
0100
0000
0000
0010
0100
,  // measure 9
0000
0000
0001
0010
0000
0000
0001
0010
0000
0000
0001
1000
0000
0000
0001
1000
,  // measure 10
0001
0100
0010
1000
0001
0100
0010
0000
,  // measure 11
1000
0000
0010
0000
0100
0000
0001
0000
1000
0000
0010
0000
0100
0010
0100
0000
,  // measure 12
0001
0000
0100
0001
0000
0000
0100
0001
0000
0000
0010
0100
0000
0000
0010
0100
,  // measure 13
0000
0000
1000
0010
0000
0000
1000
0010
0000
0000
1000
0001
0000
0000
1000
0001
,  // measure 14
1000
0100
0010
0001
1000
0100
0010
0000
,  // measure 15
0220
0000
0030
0000
0010
0010
0310
0000
,  // measure 16
0010
0001
0000
0000
0010
0000
0100
0000
0010
0000
0000
0011
0000
0000
1100
0000
,  // measure 17
1000
1000
0010
0010
0100
0100
0001
0001
,  // measure 18
1000
0010
0001
0010
1000
0100
0001
0100
,  // measure 19
1000
0010
0001
0010
1000
0100
0110
0000
,  // measure 20
0100
1000
0000
0000
0100
0000
0010
0000
0100
0000
0000
1100
0000
0000
0011
0000
,  // measure 21
0001
0001
0100
0100
0010
0010
1000
1000
,  // measure 22
1100
0101
0011
1010
,  // measure 23
2002
0000
0000
3003
,  // measure 24
0001
0100
0000
0000
0010
0000
0100
0000
0010
0000
0000
1010
0000
0000
0001
0000
,  // measure 25
1000
0010
0000
0000
0100
0000
0010
0000
0100
0000
0000
0101
0000
0000
1000
0000
,  // measure 26
0010
0100
0010
0000
0001
0000
0010
0000
0100
0000
0010
0000
1000
0000
0100
0000
,  // measure 27
0010
0100
0010
0000
0001
0000
0010
0000
0100
0000
0010
0000
1001
0000
0000
0000
,  // measure 28
1000
0100
0000
0000
0010
0000
0100
0000
0010
0000
0000
0011
0000
0000
1000
0000
,  // measure 29
0001
0010
0000
0000
0100
0000
0010
0000
0100
0000
0000
1100
0000
0000
0001
0000
,  // measure 30
0101
1100
1010
0011
,  // measure 31
2002
0000
0000
0000
3003
0000
0000
0000
0001
0010
0001
0000
1000
0010
1000
0000
,  // measure 32
0001
0000
0100
0001
0000
0100
0000
0000
0001
0000
0010
0001
0000
0010
0000
0000
,  // measure 33
1000
0000
0010
1000
0000
0010
0000
0000
1000
0000
0100
1000
0000
0100
0000
0000
,  // measure 34
0001
0000
0100
0001
0000
0100
0000
0000
0001
0000
0010
0001
0000
0010
0000
0000
,  // measure 35
1000
0000
0010
1000
0000
0010
0000
0000
1001
0000
0000
0000
0100
0010
0100
0000
,  // measure 36
0010
0000
1000
0100
0000
1000
0000
0000
1000
0000
0100
0001
0000
0100
0000
0000
,  // measure 37
0100
0000
0001
0010
0000
0001
0000
0000
0001
0000
0010
1000
0000
0010
0000
0000
,  // measure 38
0010
0000
1000
0100
0000
1000
0000
0000
1000
0000
0100
0001
0000
0100
0000
0000
,  // measure 39
0100
0000
0001
0010
0000
0001
0000
0000
0011
0000
0000
0000
0100
1000
0100
0000
,  // measure 40
2000
0000
0000
0000
3020
0000
0000
0000
0100
0000
0000
0100
0000
0000
0130
0000
,  // measure 41
0002
0000
0000
0000
0203
0000
0000
0000
0010
0000
0000
0010
0000
0000
0310
0000
,  // measure 42
2000
0000
0000
0000
3200
0000
0000
0000
0010
0000
0000
0010
0000
0000
0310
0000
,  // measure 43
0002
0000
0000
0000
0023
0000
0000
0000
0100
0000
0000
0100
0000
0000
0130
0000
,  // measure 44
1000
0000
0000
0000
1010
0000
0000
0000
0011
0000
0000
0011
0000
0000
1100
0000
,  // measure 45
0001
0000
0000
0000
0101
0000
0000
0000
1100
0000
0000
1100
0000
0000
0011
0000
,  // measure 46
1000
0000
0000
0000
0001
0000
0000
0000
0101
0000
0000
1010
0000
0000
0110
0000
,  // measure 47
0100
0000
0001
0010
0001
0000
0100
0010
0100
0000
0010
1000
0010
0000
0000
0000
,  // measure 48
2002
0000
0000
0000
,  // measure 49
0000
0000
0000
0000
,  // measure 50
3003
0000
0000
0000
;

//---------------dance-single - ----------------
#NOTES:
     dance-single:
     :
     Challenge:
     13:
     0.565104,0.683836,0.389261,0.189370,0.594411,376.000000,339.000000,37.000000,18.000000,148.000000,0.000000,0.565104,0.683836,0.389261,0.189370,0.594411,376.000000,339.000000,37.000000,18.000000,148.000000,0.000000:
0000
0000
0000
0000
,
0000
0000
0000
0000
,
0000
0000
0000
0000
,
0000
0000
0000
0000
,
1000
0001
1000
0000
MMMM
0000
0001
0000
0100
0000
0000
1000
0000
0000
0010
0000
,
0001
0100
0000
0100
0001
0000
1000
0000
0002
0000
0023
0000
0230
0000
2300
0000
,
3001
1000
0001
0000
MMMM
0000
1000
0000
0010
0000
0000
0001
0000
0000
0100
0000
,
1000
0000
0001
1000
0001
0000
MMMM
0000
0100
0010
0100
0010
0100
0000
0000
0000
,
MMMM
0000
0001
1000
0000
0000
1000
0100
0000
0000
0100
0010
0000
0000
0010
0001
,
0000
0000
0001
0100
0000
0000
0100
0010
0000
0000
0010
1000
0000
0000
1000
0001
,
1000
0010
0100
0010
0000
0010
0000
1000
0000
0001
0100
0000
MMMM
0000
0001
0010
,
0100
0010
0100
1000
0000
1000
0000
0010
0000
0100
0001
0100
0000
0010
1000
0010
,
MMMM
0000
1000
0001
0000
0000
0001
0100
0000
0000
0100
0010
0000
0000
0010
1000
,
0000
0000
1000
0100
0000
0000
0100
0010
0000
0000
0010
0001
0000
0000
0001
1000
,
0001
0010
0100
0010
0000
0010
0000
0001
0000
1000
0100
0000
MMMM
0000
1000
0010
,
0100
0010
0100
0001
0010
0000
0100
1000
0010
0000
MMMM
0000
0100
0010
0100
0001
,
1000
0001
1000
0000
0100
0000
0010
0000
0001
0000
0000
0100
0000
0000
1000
0000
,
0020
0130
0200
0301
0002
1003
2000
3010
,
0010
0100
0001
0100
1000
0100
0010
MMMM
,
0100
0010
1000
0010
0001
0010
0100
MMMM
,
0001
1000
0001
0000
0100
0000
0010
0000
1000
0000
0000
0100
0000
0000
0001
0000
,
0020
0130
0200
1300
2000
3001
0002
0013
,
0110
MMMM
1100
MMMM
0011
MMMM
1001
MMMM
,
0001
0000
0100
0010
0100
0000
MMMM
0000
1000
0100
0010
0100
0010
0000
MMMM
0000
,
1000
0100
1000
0000
0010
0000
0001
0000
0010
0000
0000
1000
0000
0000
0100
0000
,
0010
0001
0010
0000
0100
0000
1000
0000
0010
0000
0100
0000
0110
0000
MMMM
0000
,
0001
0010
0001
0000
0100
0000
1000
0000
0100
0000
0000
0001
0000
0000
0010
0000
,
0100
1000
0100
0000
0010
0000
0001
0000
0100
0000
0010
0000
0110
0000
MMMM
0000
,
1000
0010
1000
0000
0100
0000
0001
0000
0100
0000
0000
1000
0000
0000
0010
0000
,
0100
0001
0100
0000
0010
0000
1000
0000
0100
0000
0010
0000
1001
0000
MMMM
0000
,
1000
0010
0100
0000
0101
0000
MMMM
0000
0011
0000
MMMM
0000
1010
0000
MMMM
0000
,
1100
0000
0100
0010
0001
0000
1000
0100
0010
0000
0001
0100
0010
0100
0001
0000
,
1001
0000
1000
0010
0000
0100
0000
0000
MMMM
0000
1000
0010
0000
0100
0000
0000
,
1001
0000
0001
0100
0000
0010
0000
0000
MMMM
0000
0001
0100
0000
0010
0000
0000
,
0110
0000
1000
0100
0000
0010
0000
0000
MMMM
0000
1000
0100
0000
0010
0000
0000
,
0110
0000
0001
0010
0000
0100
0000
0000
MMMM
0000
0001
0000
0010
0100
0010
0000
,
0110
0000
1000
0010
0000
0001
0000
0000
MMMM
0000
1000
0010
0000
0001
0000
0000
,
0110
0000
0001
0100
0000
1000
0000
0000
MMMM
0000
0001
0100
0000
1000
0000
0000
,
0110
0000
1000
0100
0000
0001
0000
0000
MMMM
0000
1000
0100
0000
0001
0000
0000
,
0110
0000
0001
0010
0000
1000
0000
0000
0110
0000
MMMM
0000
0010
0100
0010
0000
,
2000
0000
0000
0000
0100
0000
0000
0000
0100
0000
0000
0100
0000
0000
3100
0000
,
0002
0000
0000
0000
0010
0000
0000
0000
0010
0000
0000
0010
0000
0000
0013
0000
,
0200
0000
0000
0000
1000
0000
0000
0000
0001
0000
0000
0001
0000
0000
0301
0000
,
0020
0000
0000
0000
0001
0000
0000
0000
1000
0000
0000
1000
0000
0000
1030
0000
,
1100
0000
MMMM
0000
0101
0000
MMMM
0000
0011
0000
0000
1010
0000
0000
1001
0000
,
0011
0000
MMMM
0000
0101
0000
MMMM
0000
1100
0000
0000
1010
0000
0000
1001
0000
,
1010
0000
MMMM
0000
1100
0000
MMMM
0000
0101
0000
0000
0011
0000
0000
0110
0000
,
1001
0000
0001
0010
0100
1000
0010
0100
0010
0100
0001
0010
0100
0000
MMMM
0000
,
2002
0000
0000
0000
,
0000
0000
0000
0000
,
3003
0000
0000
0000
;

//---------------dance-double - ----------------
#NOTES:
     dance-double:
     :
     Challenge:
     13:
     0.554584,0.631233,0.305096,0.063123,0.552329,369.000000,340.000000,29.000000,6.000000,280.000000,0.000000,0.554584,0.631233,0.305096,0.063123,0.552329,369.000000,340.000000,29.000000,6.000000,280.000000,0.000000:
00000000
00000000
00000000
00000000
,
00000000
00000000
00000000
00000000
,
00000000
00000000
00000000
00000000
,
00000000
00000000
00000000
00000000
,
00001000
00010000
00001000
00000000
MMMMMMMM
00000000
00010000
00000000
01000000
00000000
00000000
10000000
00000000
00000000
00100000
00000000
,
00010000
00001000
00000000
00001000
00010000
00000000
00001000
00000000
00000100
00000000
00000001
00000000
00000010
00000000
00001000
00000000
,
00010000
00001000
00010000
00000000
MMMMMMMM
00000000
00001000
00000000
00000100
00000000
00000000
00000001
00000000
00000000
00000010
00000000
,
00001000
00000000
00010000
00001000
00010000
00000000
MMMMMMMM
00000000
00001000
00010000
00001000
00010000
00001000
00000000
00000000
00000000
,
MMMMMMMM
00000000
00010000
00001000
00000000
00000000
00100000
00010000
00000000
00000000
01000000
00100000
00000000
00000000
10000000
01000000
,
00000000
00000000
00100000
00001000
00000000
00000000
00010000
00000010
00000000
00000000
00001000
00000100
00000000
00000000
00000010
00000001
,
00000100
00000010
00000100
00000010
00000000
00010000
00000000
00001000
00000000
01000000
00100000
00000000
MMMMMMMM
00000000
01000000
00010000
,
01000000
00010000
00100000
01000000
00000000
10000000
00000000
00100000
00000000
00010000
00000000
00001000
00000000
00010000
00001000
00000000
,
MMMMMMMM
00000000
00001000
00010000
00000000
00000000
00000010
00001000
00000000
00000000
00000100
00000010
00000000
00000000
00000001
00000100
,
00000000
00000000
00000010
00010000
00000000
00000000
00001000
00100000
00000000
00000000
00010000
01000000
00000000
00000000
00100000
10000000
,
00010000
01000000
00100000
01000000
00000000
00010000
00000000
00100000
00000000
00001000
00010000
00000000
MMMMMMMM
00000000
00000100
00001000
,
00000010
00001000
00000010
00000100
00000001
00000000
00000010
00000100
00000010
00000000
MMMMMMMM
00000000
00000001
00000000
00000100
00000000
,
00001000
00010000
00001000
00000000
00010000
00000000
00100000
00000000
10000000
00000000
00000000
01000000
00000000
00000000
00010000
00000000
,
00001000
00001000
00100000
00100000
01000000
01000000
00010000
00010000
,
00001000
00000100
00000001
00000010
00000100
00001000
00001001
00000000
,
00000001
00000100
00000010
00001000
00000100
00010000
00011000
00000000
,
00010000
00001000
00010000
00000000
00001000
00000000
00000010
00000000
00000001
00000000
00000000
00000100
00000000
00000000
00001000
00000000
,
00010000
00010000
00000010
00000010
00000100
00000100
00001000
00001000
,
00011000
MMMMMMMM
01001000
MMMMMMMM
00011000
MMMMMMMM
00010100
MMMMMMMM
,
00010000
00000000
00001000
00010000
00000010
00000000
00000000
00000000
00010000
00001000
00010000
00001000
00100000
00000000
MMMMMMMM
00000000
,
00001000
00010000
00100000
00000000
10000000
00000000
01000000
00000000
00100000
00000000
00000000
00001000
00000000
00000000
00100000
00000000
,
01000000
10000000
01000000
00000000
00010000
00000000
01000000
00000000
10000000
00000000
00100000
00000000
00010000
00000000
MMMMMMMM
00000000
,
00010000
00001000
00000100
00000000
00000001
00000000
00000010
00000000
00000100
00000000
00000000
00010000
00000000
00000000
00000100
00000000
,
00000010
00000001
00000010
00000000
00001000
00000000
00000010
00000000
00000001
00000000
00000100
00000000
00001000
00000000
MMMMMMMM
00000000
,
00001000
00010000
01000000
00000000
10000000
00000000
00100000
00000000
01000000
00000000
00000000
00001000
00000000
00000000
01000000
00000000
,
00100000
10000000
00100000
00000000
00010000
00000000
00100000
00000000
10000000
00000000
01000000
00000000
00010000
00000000
MMMMMMMM
00000000
,
00001000
00010000
00001000
00000000
00011000
00000000
MMMMMMMM
00000000
00101000
00000000
MMMMMMMM
00000000
00010010
00000000
MMMMMMMM
00000000
,
00011000
00000000
00001000
00010000
00001000
00000000
00000100
00000010
00000100
00000000
00000001
00001000
00000001
00001000
00000001
00000000
,
00001001
00000000
00001000
00000010
00000000
00000010
00000000
00000000
00000100
00000000
00000010
00001000
00000000
00001000
00000000
00000000
,
00000100
00000000
00010000
00001000
00000000
00001000
00000000
00000000
00100000
00000000
00010000
01000000
00000000
01000000
00000000
00000000
,
01100000
00000000
00100000
10000000
00000000
10000000
00000000
00000000
01000000
00000000
10000000
00010000
00000000
00010000
00000000
00000000
,
00110000
00000000
00100000
00001000
00000000
00001000
00000000
00000000
00010000
00000000
00000100
00000000
00001000
00000001
00001000
00000000
,
00001001
00000000
00000001
00000100
00000000
00000010
00000000
00000000
00000100
00000000
00000001
00000010
00000000
00000001
00000000
00000000
,
00000101
00000000
00000100
00001000
00000000
00010000
00000000
00000000
00001000
00000000
00010000
01000000
00000000
10000000
00000000
00000000
,
10100000
00000000
00100000
10000000
00000000
01000000
00000000
00000000
10000000
00000000
00100000
01000000
00000000
00100000
00000000
00000000
,
10100000
00000000
10000000
01000000
00000000
00010000
00000000
00000000
00011000
00000000
MMMMMMMM
00000000
00001000
00010000
00002000
00000000
,
MMMM0000
00010000
MMMM0000
00000010
MMMM0000
00010000
MMMM0000
01003000
,
0002MMMM
00001000
0000MMMM
00100000
0000MMMM
00001000
0000MMMM
00030100
,
MMMM2000
00010000
MMMM0000
00000010
MMMM0000
00010000
MMMM0000
00103000
,
0002MMMM
00001000
0000MMMM
00100000
0000MMMM
00001000
0000MMMM
00030010
,
00011000
00000000
MMMMMMMM
00000000
00000100
00000000
MMMMMMMM
00000000
00001001
00000000
00000000
00010010
00000000
00000000
00010000
00000000
,
00011000
00000000
MMMMMMMM
00000000
00100000
00000000
MMMMMMMM
00000000
10010000
00000000
00000000
01001000
00000000
00000000
00001000
00000000
,
00011000
00000000
MMMMMMMM
00000000
00000010
00000000
MMMMMMMM
00000000
00000101
00000000
00000000
00001010
00000000
00000000
00010000
00000000
,
00011000
00000000
00001000
00100000
00010000
00000000
00100000
00010000
01000000
00100000
10000000
01000000
00010000
00000000
MMMMMMMM
00000000
,
00022000
00000000
00000000
00000000
,
00000000
00000000
00000000
00000000
,
00033000
00000000
00000000
00000000
;

//---------------dance-double - ----------------
#NOTES:
     dance-double:
     :
     Easy:
     4:
     0.165323,0.210411,0.031562,0.021041,0.000000,110.000000,107.000000,3.000000,2.000000,0.000000,0.000000,0.165323,0.210411,0.031562,0.021041,0.000000,110.000000,107.000000,3.000000,2.000000,0.000000,0.000000:
00000000
00000000
00000000
00000000
,
00000000
00000000
00000000
00000000
,
00000000
00000000
00000000
00000000
,
00000000
00000000
00000000
00000000
,
00001000
00000000
00010000
00000000
,
00001000
00000000
00010000
00000000
,
00001000
00000000
00010000
00000000
,
00011000
00000000
00000000
00000000
,
00000010
00000000
00010000
00000000
,
00000010
00000000
00010000
00000000
,
00001000
00000000
00010000
00000000
,
00001000
00000000
00010000
00000000
,
00001000
00000000
01000000
00000000
,
00001000
00000000
01000000
00000000
,
00001000
00000000
00010000
00000000
,
00001000
00000000
00010000
00000000
,
00001000
00010000
00000100
00000000
,
00010000
00001000
01000000
00000000
,
00001000
00010000
00000010
00000000
,
00010000
00001000
00100000
00000000
,
00001000
00010000
00100000
00000000
,
00010000
00001000
00000100
00000000
,
00001000
00010000
01000000
00000000
,
10010000
00000000
00000000
00000000
,
10000000
00000000
00100000
00000000
,
00010000
00000000
00001000
00000000
,
00000100
00000000
00000001
00000000
,
00000010
00000000
00001000
00000000
,
00010000
00000000
01000000
00000000
,
10000000
00000000
00100000
00000000
,
00010000
00000000
00001000
00000000
,
00011000
00000000
00000000
00000000
,
00010000
00000000
00001000
00000000
,
00000010
00000000
00001000
00000000
,
00010000
00000000
01000000
00000000
,
00010000
00000000
00001000
00000000
,
00010000
00000100
00010000
00000000
,
00001000
00100000
00001000
00000000
,
00010000
00000010
00010000
00000000
,
00001000
01000000
00001000
00000000
,
00010000
00001000
00010000
00001000
,
00000010
00001000
00010000
00000000
,
00001000
00010000
00001000
00010000
,
00100000
00010000
00001000
00000000
,
00010000
00001000
00010000
00001000
,
00000100
00001000
00010000
00000000
,
00001000
00010000
01000000
00010000
,
00002000
00000000
00000000
00000000
,
00020000
00000000
00000000
00000000
,
00000000
00000000
00000000
00000000
,
00033000
00000000
00000000
00000000
;

//---------------dance-double - ----------------
#NOTES:
     dance-double:
     :
     Medium:
     7:
     0.294576,0.341918,0.210411,0.273534,0.000000,196.000000,176.000000,20.000000,26.000000,0.000000,0.000000,0.294576,0.341918,0.210411,0.273534,0.000000,196.000000,176.000000,20.000000,26.000000,0.000000,0.000000:
00000000
00000000
00000000
00000000
,
00000000
00000000
00000000
00000000
,
00000000
00000000
00000000
00000000
,
00000000
00000000
00000000
00000000
,
00001000
00010000
00000100
00001000
,
00000010
00010000
00001000
00100000
,
00010000
01000000
00001000
00010000
,
00022000
00000000
00000000
00033000
,
00001000
00010000
00000000
00001000
00000000
00100000
00000000
00010000
,
00000000
00100000
00000000
00001000
00000000
00010000
00000000
00001000
,
00010000
00010100
00001000
01001000
,
00010000
00010010
00001000
00101000
,
00010000
00001000
00000000
00010000
00000000
00000010
00000000
00001000
,
00000000
00000010
00000000
00010000
00000000
00001000
00000000
00010000
,
00001000
01001000
00010000
00010010
,
00002000
00010000
00010000
00013000
,
00010000
00001000
00010000
00000000
01000000
00000000
10000000
00000000
,
00100000
00010000
00001000
00100000
,
00020000
01030000
00002000
00013000
,
00000020
00001030
00000200
00010300
,
00001000
00010000
00001000
00000000
00000100
00000000
00000001
00000000
,
00000010
00001000
00010000
00000100
,
00001100
00010000
00011000
01000000
,
02020000
00000000
00000000
03030000
,
00010000
10000000
00010000
00000000
00100000
00000000
01000000
00000000
,
00100000
00001000
00010000
00000100
,
00001000
00000001
00001000
00000000
00000010
00000000
00000100
00000000
,
00000010
00010000
00001000
01000000
,
00100000
10000000
00100000
00000000
00010000
00000000
00001000
00000000
,
00000100
00000001
00000100
00000000
00001000
00000000
00010000
00000000
,
01000000
10000000
01000000
00000000
00010000
00000000
00001000
00000000
,
00000010
00000001
00000010
00000000
00001000
00000000
00010000
00000000
,
00000100
00001000
00000000
00000000
00001001
00000000
00000000
00000000
,
00001000
00000100
00000000
00000000
00011000
00000000
00000000
00000000
,
00100000
00010000
00000000
00000000
10010000
00000000
00000000
00000000
,
00010000
00100000
00000000
00000000
00011000
00000000
00000000
00000000
,
00000010
00001000
00000000
00000000
00001001
00000000
00000000
00000000
,
00001000
00000010
00000000
00000000
00011000
00000000
00000000
00000000
,
01000000
00010000
00000000
00000000
10010000
00000000
00000000
00000000
,
00010000
01000000
00000000
00000000
00011000
00000000
00011000
00000000
,
00002000
00010000
01000000
00013000
,
00020000
00001000
00000100
00031000
,
00002000
00010000
00100000
00013000
,
00020000
00001000
00000010
00031000
,
00002000
00203000
02300000
03020000
,
00032000
00003020
00000230
00020300
,
00032000
00203000
02300000
13000000
,
10000000
00100000
00010000
00000000
00100000
00010000
00001000
00000000
,
00022000
00000000
00000000
00000000
,
00000000
00000000
00000000
00000000
,
00033000
00000000
00000000
00000000
;

//---------------dance-double - ----------------
#NOTES:
     dance-double:
     :
     Hard:
     12:
     0.483946,0.499726,0.420822,0.189370,0.273534,322.000000,282.000000,40.000000,18.000000,0.000000,0.000000,0.483946,0.499726,0.420822,0.189370,0.273534,322.000000,282.000000,40.000000,18.000000,0.000000,0.000000:
00000000
00000000
00000000
00000000
,
00000000
00000000
00000000
00000000
,
00000000
00000000
00000000
00000000
,
00000000
00000000
00000000
00000000
,
00001000
00000000
00010000
00000000
01000000
00000000
10000000
00000000
00100000
00000000
00000000
00010000
00000000
00000000
00001000
00000000
,
00010000
00001000
00000100
00000001
00000010
00001000
00011000
00000000
,
00010000
00000000
00001000
00000000
00000010
00000000
00000001
00000000
00000100
00000000
00000000
00001000
00000000
00000000
00010000
00000000
,
00022000
00000000
00000000
00033000
,
00001000
00011000
00000000
01010000
00000000
11000000
00000000
10100000
,
00000000
00000000
00110000
00000000
00000000
00000000
00011000
00000000
00000000
00000000
00010010
00000000
00000000
00000000
00000010
00001000
,
00000010
00000100
00000001
00000010
00000100
00001000
00000010
00000000
,
00010000
00001000
00100000
00010000
01000000
00100000
00010000
00001000
,
00010000
00011000
00000000
00001100
00000000
00000101
00000000
00000011
,
00000000
00001010
00000000
00011000
00000000
00101000
00000000
00100000
,
00010000
01000000
00100000
10000000
01000000
00100000
00001000
00000000
,
00022000
00000000
00030000
00000000
00010000
00010000
00013000
00000000
,
00010000
00000000
00001000
00000000
00010000
00000000
01000000
00000000
10000000
00000000
00000000
00100000
00000000
00000000
01100000
00000000
,
01000000
01000000
00001000
00001000
00010000
00010000
00000100
00000100
,
00000010
00000001
00000100
00001000
00000100
00000001
00000010
00001000
,
00000010
00000001
00000100
00001000
00010000
00001000
00011000
00000000
,
00001000
00000000
00010000
00000000
00001000
00000000
00000100
00000000
00000001
00000000
00000000
00000010
00000000
00000000
00000110
00000000
,
00000100
00000100
00010000
00010000
00001000
00001000
00100000
00100000
,
00110000
01001000
00010010
00001100
,
00022000
00000000
00000000
00033000
,
00010000
00000000
00000100
00000000
00000010
00000000
00000001
00000000
00000100
00000000
00000000
00001100
00000000
00000000
00001000
00000000
,
00000010
00000000
00010000
00000000
00001000
00000000
00100000
00000000
01000000
00000000
00000000
11000000
00000000
00000000
10000000
00000000
,
00100000
01000000
00100000
00000000
00010000
00000000
00001000
00000000
00000100
00000000
00000010
00000000
00000100
00000000
00000001
00000000
,
00000010
00000100
00000010
00000000
00001000
00000000
00010000
00000000
01000000
00000000
10000000
00000000
10010000
00000000
00000000
00000000
,
00010000
00000000
01000000
00000000
00100000
00000000
10000000
00000000
01000000
00000000
00000000
01010000
00000000
00000000
00010000
00000000
,
00100000
00000000
00001000
00000000
00010000
00000000
00000010
00000000
00000100
00000000
00000000
00000101
00000000
00000000
00000001
00000000
,
00000011
00001100
01010000
10100000
,
20020000
00000000
00000000
00000000
30030000
00000000
00000000
00000000
00010000
00100000
00010000
00000000
10000000
00100000
10000000
00000000
,
00010000
00000000
01000000
00100000
00000000
01000000
00000000
00000000
00001000
00000000
01000000
00100000
00000000
01000000
00000000
00000000
,
00010000
00000000
01000000
00100000
00000000
01000000
00000000
00000000
10000000
00000000
01000000
00100000
00000000
01000000
00000000
00000000
,
00010000
00000000
01000000
00100000
00000000
01000000
00000000
00000000
00001000
00000000
01000000
00100000
00000000
01000000
00000000
00000000
,
00010000
00000000
01000000
00100000
00000000
01000000
00000000
00000000
00001000
00000000
00000000
00000000
00010000
00001000
00010000
00000000
,
00000100
00000000
00010000
00001000
00000000
00010000
00000000
00000000
00000010
00000000
00010000
00001000
00000000
00010000
00000000
00000000
,
00000100
00000000
00010000
00001000
00000000
00010000
00000000
00000000
01000000
00000000
00010000
00001000
00000000
00010000
00000000
00000000
,
00000100
00000000
00010000
00001000
00000000
00010000
00000000
00000000
00000010
00000000
00010000
00001000
00000000
00010000
00000000
00000000
,
00000100
00000000
00010000
00001000
00000000
00010000
00000000
00000000
00001000
00000000
00000000
00000000
00000100
00000010
00000100
00000000
,
00000002
00000000
00000000
00000000
00002003
00000000
00000000
00000000
00000010
00000000
00000000
00000010
00000000
00000000
00003010
00000000
,
00000020
00000000
00000000
00000000
00020030
00000000
00000000
00000000
00001000
00000000
00000000
00001000
00000000
00000000
00031000
00000000
,
00002000
00000000
00000000
00000000
00203000
00000000
00000000
00000000
01000000
00000000
00000000
01000000
00000000
00000000
01300000
00000000
,
02000000
00000000
00000000
00000000
23000000
00000000
00000000
00000000
00010000
00000000
00000000
00010000
00000000
00000000
30010000
00000000
,
10010000
00000000
00000000
00000000
01000000
00000000
00000000
00000000
00010000
00000000
00000000
00001000
00000000
00000000
00000010
00000000
,
00001001
00000000
00000000
00000000
00000100
00000000
00000000
00000000
00001000
00000000
00000000
00010000
00000000
00000000
00100000
00000000
,
10010000
00000000
00000000
00000000
01000000
00000000
00000000
00000000
00010000
00000000
00000000
00001000
00000000
00000000
00000010
00000000
,
00000011
00000000
00000001
00000100
00000001
00000000
00000010
00000000
00001000
00000000
00010000
00001000
00010000
00000000
00000000
00000000
,
00022000
00000000
00000000
00000000
,
00000000
00000000
00000000
00000000
,
00033000
00000000
00000000
00000000
;
