#VERSION:0.83;
#TITLE:Irrelevant Answer;
#SUBTITLE:;
#ARTIST:LUCY;
#TITLETRANSLIT:;
#SUBTITLETRANSLIT:;
#ARTISTTRANSLIT:;
#GENRE:K-POP;
#ORIGIN:;
#CREDIT:MUINELIM;
#BANNER:Irrelevant Answer.png;
#BACKGROUND:Irrelevant Answer-bg.png;
#PREVIEWVID:;
#JACKET:Irrelevant Answer-jacket.png;
#CDIMAGE:;
#DISCIMAGE:;
#LYRICSPATH:;
#CDTITLE:;
#MUSIC:Irrelevant Answer.ogg;
#OFFSET:0.119000;
#SAMPLESTART:60.836369;
#SAMPLELENGTH:13.874733;
#SELECTABLE:YES;
#DISPLAYBPM:190.000000;
#BPMS:0.000=190.000;
#STOPS:32.500=0.316;
#DELAYS:;
#WARPS:;
#TIMESIGNATURES:0.000=4=4;
#TICKCOUNTS:0.000=4;
#COMBOS:0.000=1;
#SPEEDS:0.000=1.000=0.000=0;
#SCROLLS:0.000=1.000;
#FAKES:;
#LABELS:0.000=Song Start;
#BGCHANGES:0.000=Irrelevant Answer-bg.png=1.000=0=0=1=StretchNormal===#000000=#000000,
2.000=Irrelevant Answer.avi=1.000=1=0=0=StretchNoLoop==CrossFade==,
99999=-nosongbg-=1.000=0=0=0 // don't automatically add -songbackground-
;
#KEYSOUNDS:;
#ATTACKS:
;

//---------------dance-single - ----------------
#NOTEDATA:;
#CHARTNAME:;
#STEPSTYPE:dance-single;
#DESCRIPTION:;
#CHARTSTYLE:;
#DIFFICULTY:Beginner;
#METER:4;
#RADARVALUES:0.166998,0.225004,0.010345,0.000000,0.000000,113.000000,112.000000,1.000000,0.000000,0.000000,0.000000,0.000000,0.000000,0.000000,0.166998,0.225004,0.010345,0.000000,0.000000,113.000000,112.000000,1.000000,0.000000,0.000000,0.000000,0.000000,0.000000,0.000000;
#CREDIT:;
#DISPLAYBPM:190.000000;
#NOTES:
0000
0000
0000
0000
,
0000
0000
0000
0000
,
0000
0000
0000
0000
,
0000
0000
0000
0000
,
0000
0000
0000
0000
,
0000
0000
0000
0000
,
0000
0000
0000
0000
,
0000
0000
0000
0000
,
0000
0000
0000
0010
,
0000
0010
0000
0010
,
0000
0010
0000
1000
,
0000
1000
0000
1000
,
0000
1000
0000
0001
,
0000
0001
0000
0001
,
0000
0100
0100
0000
,
0000
0000
0000
0010
,
0010
0000
1000
0000
,
0000
0000
1000
0000
,
0000
0000
0100
0000
,
0000
0000
0100
0000
,
0000
0000
0010
0000
,
0000
0000
0010
0000
,
0000
0000
0001
0000
,
0000
0000
0001
0000
,
0001
0000
0100
0000
,
0001
0000
0100
0000
,
0000
0000
0010
0000
,
1000
0000
0010
0000
,
0000
0000
1000
0000
,
0100
0000
1000
0000
,
0000
0000
0001
0000
,
0010
0000
0001
0000
,
0000
0000
1000
0000
,
1000
0000
0100
0000
,
0100
0000
0010
0000
,
0010
0000
0001
0000
,
0001
0000
0100
0000
,
0100
0000
0010
0000
,
0010
0000
0100
0000
,
0100
0000
0100
0100
,
0100
0000
0001
0000
,
0000
0000
0010
0000
,
0000
0000
1000
0000
,
0000
0000
0100
0000
,
0000
0000
0001
0000
,
1000
0000
0001
0000
,
1000
0000
0010
0000
,
0010
0010
0010
0000
,
0000
0000
0100
0000
,
0001
0000
0100
0000
,
0001
0000
1000
0000
,
0010
0000
1000
0000
,
0010
0000
1000
0000
,
0000
0000
0001
0000
,
0000
0000
1000
0000
,
0001
0000
1000
0000
,
0100
0100
0100
0000
,
1000
0000
0100
0000
,
1000
0000
0001
0000
,
0010
0000
0001
0000
,
0010
0000
0001
0000
,
0001
0000
0100
0000
,
0100
0100
0100
0000
,
0000
0000
0010
0000
,
0000
0000
1000
0000
,
1000
0000
0100
0000
,
0100
0000
0010
0000
,
0010
0000
0001
0000
,
0001
0000
0100
0000
,
0100
0000
0010
0000
,
0010
0010
0010
0000
,
0000
0000
0000
0100
,
0100
0000
1001
0000
;

//---------------dance-single - ----------------
#NOTEDATA:;
#CHARTNAME:;
#STEPSTYPE:dance-single;
#DESCRIPTION:;
#CHARTSTYLE:;
#DIFFICULTY:Easy;
#METER:8;
#RADARVALUES:0.280793,0.375006,0.062070,0.113795,0.000000,190.000000,184.000000,6.000000,11.000000,0.000000,0.000000,0.000000,0.000000,0.000000,0.280793,0.375006,0.062070,0.113795,0.000000,190.000000,184.000000,6.000000,11.000000,0.000000,0.000000,0.000000,0.000000,0.000000;
#CREDIT:;
#DISPLAYBPM:190.000000;
#NOTES:
0000
0000
0000
0000
,
0000
0000
0000
0000
,
0000
0000
0000
0000
,
0000
0000
0000
0000
,
0000
0000
0000
0000
,
0000
0000
0000
0000
,
0000
0000
0000
0000
,
0000
0000
0000
0000
,
0000
0000
0100
0001
,
0100
0000
0010
1000
,
0010
0000
0100
0001
,
0100
0000
0010
1000
,
0010
0100
0100
0010
,
1000
0000
0010
0100
,
0001
0000
2002
0000
,
0000
3003
0000
0100
,
0100
0000
0100
0000
,
0001
0000
0001
0000
,
1000
0000
1000
0000
,
0010
0000
0010
0000
,
0100
0000
0100
0000
,
0010
0100
0010
0000
,
0010
0000
1000
0000
,
1000
0000
0001
0001
,
0100
0100
0010
0100
,
0001
0000
0100
0010
,
1000
0000
0100
1000
,
0001
0000
0010
0001
,
1000
0000
0100
1000
,
0100
0010
0001
0000
,
0010
0000
0010
0001
,
0010
0100
1000
0000
,
0100
0000
0100
1000
,
0001
0000
0010
0001
,
1000
0000
0010
1000
,
0001
0000
0100
0001
,
1000
0000
0010
0100
,
0001
0000
0100
0010
,
1000
0000
0010
0100
,
0010
0000
1000
0001
,
1000
1001
0020
0000
,
0000
0030
0200
0000
,
0000
0300
0002
0000
,
0000
0003
2000
0000
,
0000
3000
0100
0000
,
0010
0000
0001
0000
,
1000
0000
0100
0100
,
0010
0100
0220
0000
,
0330
0000
1000
0001
,
1000
0010
0100
0001
,
1000
0001
0100
0010
,
1000
0100
0010
0001
,
0100
0010
0110
0000
,
0100
0010
0100
0001
,
0010
0100
1000
0001
,
1000
0001
1001
0000
,
0100
0100
0001
0010
,
0001
1000
0100
1000
,
0001
0100
0001
1000
,
0010
1000
0100
0001
,
0100
1000
0010
0010
,
0010
0100
0001
1000
,
0100
0010
0002
0000
,
0000
0000
2000
0000
,
3003
0000
1000
0100
,
1000
0000
0001
0010
,
0001
0000
0100
0010
,
0100
0000
0001
1000
,
0001
0100
1000
0100
,
0001
0010
1000
0010
,
0001
0100
0020
0000
,
0000
0000
0030
0100
,
0100
0000
1001
0000
;

//---------------dance-single - ----------------
#NOTEDATA:;
#CHARTNAME:;
#STEPSTYPE:dance-single;
#DESCRIPTION:;
#CHARTSTYLE:;
#DIFFICULTY:Medium;
#METER:10;
#RADARVALUES:0.512817,0.576088,0.206900,0.310350,0.015518,347.000000,327.000000,20.000000,30.000000,0.000000,0.000000,0.000000,0.000000,0.000000,0.512817,0.576088,0.206900,0.310350,0.015518,347.000000,327.000000,20.000000,30.000000,0.000000,0.000000,0.000000,0.000000,0.000000;
#CREDIT:;
#DISPLAYBPM:190.000000;
#NOTES:
0000
0000
0000
0000
,
0000
0000
0000
0000
,
0000
0000
0000
0000
,
0000
0000
0000
0000
,
0000
0220
0000
0000
0000
0000
0000
0330
,
0000
2020
0000
0000
0000
0000
0000
3030
,
0000
0202
0000
0000
0000
0000
0000
0000
,
0000
0000
0303
0000
0000
0000
0001
0000
1000
0000
0000
0000
0010
0000
0000
0100
,
0000
0010
0000
0110
0000
0100
0001
0000
,
1000
0010
0000
0100
0000
0010
1000
0000
,
0001
0100
0000
0010
0000
0100
0001
0000
,
1000
0010
0000
0100
0000
0010
1000
0000
,
0001
0100
0001
0100
0000
0010
0100
0000
,
0010
1000
0000
1001
0000
0001
0010
0100
,
1000
0000
0020
0200
0000
0000
0000
0000
,
0000
0000
0000
0330
0000
0010
0100
0000
,
0001
0000
0000
1000
0000
0000
0002
0000
0000
0000
0000
0000
1003
0000
0000
0000
,
0100
0010
0100
1000
,
0100
0010
0110
0001
,
0010
0100
0010
0001
,
0010
0100
0110
1000
,
0010
0100
0010
1000
,
0010
0100
0110
0001
,
0100
0000
0010
0000
0100
0001
0100
0000
,
0010
0000
0100
0001
0000
1000
0010
0000
,
0100
0001
0010
0001
,
1000
0000
0100
0000
1000
0000
0010
0100
,
0000
0100
0010
0000
1000
0000
0001
0000
,
0100
0000
0010
1000
0010
0000
0100
0001
,
0100
0000
0010
1000
0010
0000
1000
0000
,
0001
0000
0010
0001
0010
0000
0100
1000
,
0100
0000
0010
0001
0010
0000
0001
0000
,
1000
0000
0100
1000
0100
0000
1000
0010
,
1000
0000
0010
0100
0010
0000
0100
0001
,
0100
0000
0001
0010
0001
0000
1000
0001
,
1000
0000
0010
1000
0000
0100
0000
0010
,
0000
0001
0100
0001
0100
0000
0010
1000
,
0010
0000
0100
0010
0100
0010
0100
0000
,
0001
1000
0001
0000
0010
0000
0100
0000
,
1000
0000
0010
0100
0000
0001
0000
1000
,
0000
0100
0010
0100
0000
1000
0000
1100
,
0000
0100
0010
0100
0000
0010
0000
0011
,
0000
0001
1000
0001
0000
0100
0000
1010
,
0000
1000
0001
1000
0000
0010
0000
0101
,
0000
0001
0010
0100
2000
0000
0000
3010
,
0100
0000
0100
0001
0000
0000
0001
1000
,
0000
1000
0010
1000
0000
0010
0100
0001
,
0100
0010
0100
0001
0000
1000
1000
0000
,
2002
3003
0000
0220
0330
0000
0010
0000
,
1000
0100
0010
0000
0100
0000
1000
0000
,
0001
0010
0100
0000
0010
0000
0001
0000
,
1000
0010
0100
0000
0001
0000
1000
0000
,
0001
0010
0100
1000
0010
0000
0110
0000
,
0100
0001
1000
0100
0010
0000
0110
0000
,
0100
0010
0001
1000
0000
1000
0020
0000
,
0230
0000
0302
0000
1003
0100
1000
0001
,
0100
0010
0000
2002
3003
0000
1000
0010
,
0100
0000
0010
1000
0100
0000
0010
0001
,
0100
0000
0010
0100
0001
0000
0010
0100
,
1000
0000
0001
0010
0100
0000
1000
0010
,
0100
0001
1000
0200
0000
0320
0000
0032
,
0000
1003
0010
0200
0000
0302
0000
2003
,
0000
3100
0010
0002
2000
0000
0000
0000
,
3003
0000
0100
0100
0000
0001
0010
0000
,
0100
1000
0000
1001
0000
0001
0100
0000
,
1000
0100
0000
0010
0000
1000
0010
0000
,
0001
0010
0000
0100
0000
0001
0010
0000
,
1000
0100
0000
0010
0000
0100
1000
0000
,
0010
0001
0010
0001
0000
1000
0010
0000
,
0001
0100
0000
1100
0000
0001
0010
0100
,
1000
0000
0001
0200
0000
0000
0000
0000
,
0000
0000
0000
0000
0000
0310
0010
0000
,
1000
0000
0000
0001
0000
0000
2002
0000
0000
0000
0000
0000
0000
0000
0000
0000
,
0000
0000
0000
0000
,
0000
3003
0000
0000
;

//---------------dance-single - ----------------
#NOTEDATA:;
#CHARTNAME:;
#STEPSTYPE:dance-single;
#DESCRIPTION:;
#CHARTSTYLE:;
#DIFFICULTY:Hard;
#METER:14;
#RADARVALUES:0.691638,0.806523,0.620700,0.589665,0.067243,468.000000,408.000000,60.000000,57.000000,0.000000,0.000000,0.000000,0.000000,0.000000,0.691638,0.806523,0.620700,0.589665,0.067243,468.000000,408.000000,60.000000,57.000000,0.000000,0.000000,0.000000,0.000000,0.000000;
#CREDIT:;
#DISPLAYBPM:190.000000;
#NOTES:
0000
0000
0000
0000
,
0000
0000
0000
0000
,
0000
0000
0000
0000
,
0000
0000
0000
0000
,
0000
1002
0000
0103
0010
0100
0001
1000
,
0000
2001
0000
3010
0100
0010
1000
0001
,
0000
1002
0000
0103
0010
0100
0001
1000
,
0000
0000
2002
0000
3003
0000
0010
0100
0010
0000
0000
0000
1010
0000
0000
0101
,
0000
0110
0000
0220
0330
1000
0100
0001
,
0100
1000
0000
0110
0000
0001
0010
1000
,
0010
0001
0000
0110
0000
1000
0100
0001
,
1000
0010
0000
0110
0000
0001
0100
1000
,
0001
0010
0100
2000
0000
3001
0101
0000
,
0100
0110
0000
1010
0000
1000
0100
0001
,
1000
0010
0001
2002
0000
0000
0000
0000
,
0000
0000
0000
3003
0000
1010
1010
0000
,
0101
0000
0000
0011
0000
0000
2100
0000
0000
0000
0000
0000
3001
0000
0000
0000
,
0002
0100
1000
0010
,
0100
1003
0200
0001
,
0010
1000
0001
0010
,
1000
0301
2000
0010
,
0100
0001
0010
0100
,
0001
3010
0200
1000
,
0010
0000
0001
0000
1300
0010
0110
0000
,
0001
0100
0010
0110
0000
1000
1001
0000
,
0001
0100
0010
0000
0001
0010
0100
0000
,
0001
0010
0100
0000
0010
0001
0100
0000
,
0010
1000
0100
0000
0010
0100
1000
0000
,
0010
0100
1000
0100
0020
0000
1030
0100
,
0002
0000
1003
0010
0002
0000
0103
0010
,
1000
0100
0010
0001
0200
0000
0301
0010
,
2000
0000
0000
0000
3001
0000
0100
0000
1000
0000
0010
0100
0010
0000
1000
0000
,
0100
0010
0001
0101
0000
0100
0010
1000
,
0010
0100
0001
0100
0010
1000
0100
0010
,
0001
0100
0010
1000
0001
0001
0010
0010
,
0100
0100
1000
0020
0000
0130
0001
0020
,
0000
0130
1000
0100
1100
0000
1000
0010
,
0110
0000
0100
0001
1000
0010
1010
0000
,
1000
0100
0020
0000
0031
0100
1000
0100
,
0001
0010
0001
0000
0100
0000
0110
0000
0000
0000
1010
0000
0000
0000
0101
0000
,
0000
0000
0001
0010
0001
0010
0002
0000
0000
0000
0100
0000
0000
0000
0010
0000
,
0000
1003
0100
0020
0000
1000
0000
0100
,
0000
0031
1000
0200
0000
0001
0000
1000
,
0000
0310
0001
2000
0000
0100
0000
0010
,
0000
3001
0100
0010
1010
0000
1000
0100
,
0011
0000
0001
0202
0303
0000
1010
2000
,
0000
0000
3100
0000
0010
0000
0002
0000
0000
0000
0013
0000
0100
0000
1000
0010
,
1000
0001
0010
0200
0000
0010
0320
0000
,
0100
0130
0000
2002
3003
0000
0001
0100
,
1000
0100
0001
0010
1000
0010
0001
0100
,
1000
0100
0010
0100
0001
0010
0100
0010
,
1000
0010
0001
0100
1000
0100
0001
0010
,
0100
1000
0010
0100
0101
0000
0001
0010
,
1000
0001
0100
2000
0000
3010
0100
0001
,
0010
0100
1000
0002
0000
0103
0010
1000
,
0100
0000
0001
0000
1000
0000
0010
0000
0001
0000
0100
0010
0100
0000
0001
0000
,
1000
1100
0000
0022
0033
0000
0101
0100
,
0010
1000
1010
0010
0100
0001
0011
0010
,
0100
1000
1100
0100
0020
0031
0020
1030
,
0020
0031
0020
1030
0020
0100
0130
0010
,
0001
0100
0010
1010
0000
1100
0000
0101
,
0000
0010
0010
0011
0000
0101
0000
1100
,
0000
0000
1000
0010
1000
0010
1000
0010
0200
0000
0000
0000
0000
0000
0000
0000
,
0000
0000
0001
0301
0000
0011
0100
0000
,
1010
0100
0000
0220
0330
0001
0100
1000
,
0001
0010
0000
0220
0330
1000
0100
0001
,
1000
0010
0000
0220
0330
0001
0100
1000
,
0010
0001
0000
0220
0330
1000
0100
0001
,
0010
1000
0001
0200
0000
1300
0010
0100
,
0001
0010
0000
1010
0000
1000
0100
0001
,
1000
0010
0001
0200
0000
0000
0000
0000
,
0000
0000
0000
0300
0000
0110
1001
0000
,
1100
0000
0000
0101
0000
0000
0022
0000
0000
0000
0000
0000
0000
0000
0000
0000
,
0000
0000
0000
0000
,
0000
0033
0000
0000
;

//---------------dance-double - ----------------
#NOTEDATA:;
#CHARTNAME:;
#STEPSTYPE:dance-double;
#DESCRIPTION:;
#CHARTSTYLE:;
#DIFFICULTY:Hard;
#METER:14;
#RADARVALUES:0.687204,0.729711,0.600010,0.362075,0.067243,465.000000,407.000000,58.000000,35.000000,0.000000,0.000000,0.000000,0.000000,0.000000,0.687204,0.729711,0.600010,0.362075,0.067243,465.000000,407.000000,58.000000,35.000000,0.000000,0.000000,0.000000,0.000000,0.000000;
#CREDIT:;
#DISPLAYBPM:190.000000;
#NOTES:
00000000
00000000
00000000
00000000
,
00000000
00000000
00000000
00000000
,
00000000
00000000
00000000
00000000
,
00000000
00000000
00000000
00000000
,
00000000
00011000
00000000
00010000
00000100
00001000
00000010
00010000
,
00000000
00011000
00000000
00001000
00100000
00010000
01000000
00001000
,
00000000
00011000
00000000
00010000
00000010
00001000
00000100
00010000
,
00000000
00000000
00011000
00000000
00000000
00000000
00001000
01000000
00001000
00000000
00000000
00000000
00101000
00000000
00000000
00010010
,
00000000
01001000
00000000
00020200
00030300
00000100
00000010
00000001
,
00000100
00001000
00000000
00101000
00000000
00100000
01000000
10000000
,
00100000
00010000
00000000
00010010
00000000
00000010
00000100
00000001
,
00000010
00001000
00000000
01001000
00000000
01000000
00100000
10000000
,
01000000
00010000
00001000
00000020
00000000
00000031
00000101
00000000
,
00001000
00001100
00000000
00010100
00000000
00010000
00001000
00010000
,
01000000
10000000
00010000
20020000
00000000
00000000
00000000
00000000
,
00000000
00000000
00000000
30030000
00000000
10000000
11000000
00000000
,
01010000
00000000
00000000
00011000
00000000
00000000
00001200
00000000
00000000
00000000
00000000
00000000
00000301
00000000
00000000
00000000
,
00000001
00000010
00001000
00010000
,
01000000
10000000
01100000
00010000
,
10000000
01000000
00010000
00001000
,
00000010
00000001
00000110
00001000
,
00000001
00000100
00001000
00010000
,
00100000
10000000
01100000
00010000
,
10000000
00000000
01000000
00000000
00010000
00001000
00011000
00000000
,
00010000
00000100
00001000
00001010
00000000
00000001
00000101
00000000
,
00000100
00001000
00010000
00000000
00001000
00000100
00000001
00000000
,
00000010
00001000
00010000
00000000
00001000
00000010
00000001
00000000
,
00000100
00001000
00010000
00000000
00100000
10000000
01000000
00000000
,
00010000
00001000
00000010
00000100
00002000
00000000
00003001
00000010
,
00000200
00000000
00010300
00001000
00200000
00000000
01300000
10000000
,
00010000
00100000
01000000
10000000
00200000
00000000
00310000
00001000
,
00000020
00000000
00000000
00000000
00000031
00000000
00000100
00000000
00001000
00000000
00010000
00001000
00010000
00000000
00100000
00000000
,
10000000
01000000
00100000
01100000
00000000
01000000
00010000
00001000
,
00010000
01000000
00010000
00001000
00000100
00001000
00010000
00001000
,
00000100
00000001
00000010
00000100
00010000
00010000
00001000
00001000
,
00100000
00100000
01000000
20000000
00000000
30100000
00010000
00002000
,
00000000
00013000
00001000
00000100
00000101
00000000
00000001
00000010
,
00001010
00000000
00001000
00010000
00100000
10000000
11000000
00000000
,
01000000
00100000
00020000
00000000
01030000
00100000
00010000
00001000
,
00000100
00000010
00000100
00000000
00000001
00000000
00000011
00000000
00000000
00000000
00001010
00000000
00000000
00000000
00011000
00000000
,
00000000
00000000
00010000
00001000
00010000
00001000
00020000
00000000
00000000
00000000
00001000
00000000
00000000
00000000
00000100
00000000
,
00000000
01030000
00010000
00002000
00000000
00010000
00000000
00000010
,
00000000
00103000
00001000
00020000
00000000
00001000
00000000
00000010
,
00000000
00130000
00010000
00002000
00000000
00010000
00000000
01000000
,
00000000
00003100
00001000
00010000
00010100
00000000
00010000
00001000
,
01001000
00000000
01000000
02020000
03030000
00000000
10100000
02000000
,
00000000
00000000
03010000
00000000
00100000
00000000
02000000
00000000
00000000
00000000
03010000
00000000
00001000
00000000
00000100
00000010
,
00000100
00000001
00000010
00002000
00000000
00010000
00023000
00000000
,
00001000
00031000
00000000
00022000
00033000
00000000
00001000
00010000
,
00100000
10000000
01000000
00100000
00010000
01000000
00100000
00010000
,
00001000
00000100
00000010
00001000
00000100
00000010
00000001
00000100
,
00001000
00010000
00001000
00000100
00001000
00010000
00100000
10000000
,
01000000
00100000
00010000
01000000
01001000
00000000
00001000
00010000
,
00000100
00000010
00000001
00000200
00000000
00000000
00000310
00001000
,
00000100
00000010
00001000
00020000
00000000
01030000
10000000
00010000
,
00100000
00000000
01000000
00000000
10000000
00000000
00100000
00000000
00010000
00000000
00001000
00010000
00001000
00000000
00000100
00000000
,
00000001
00000011
00000000
00002200
00003300
00000000
00011000
00010000
,
00000100
00000010
00001000
00010000
01000000
00100000
00010000
01000000
,
10000000
01000000
00100000
00010000
00001000
00000100
00001000
00010000
,
00100000
00010000
00001000
00000010
00001000
00010000
01000000
00010000
,
00001000
00000100
00000001
00000011
00000000
00001010
00000000
00011000
,
00000000
00010000
01000000
11000000
00000000
10100000
00000000
00110000
,
00000000
00000000
00010000
00001000
00010000
00001000
00010000
00001000
00020000
00000000
00000000
00000000
00000000
00000000
00000000
00000000
,
00000000
00000000
00001000
00031000
00000000
00010000
00010010
00000000
,
00001000
01001000
00000000
10010000
00000000
01000000
00100000
00010000
,
00001000
00000100
00000000
00001001
00000000
00000010
00000100
00001000
,
00010000
00100000
00000000
10010000
00000000
00100000
01000000
00010000
,
00001000
00000010
00000000
00001001
00000000
00000100
00000010
00001000
,
00010000
01000000
00100000
00020000
00000000
10030000
00100000
00010000
,
00001000
00000100
00000000
00000011
00000000
00000001
00000010
00000100
,
00001000
00010000
00100000
02000000
00000000
00000000
00000000
00000000
,
00000000
00000000
00000000
03000000
00000000
11000000
00010000
00000000
,
00110000
00000000
00000000
00011000
00000000
00000000
00020020
00000000
00000000
00000000
00000000
00000000
00000000
00000000
00000000
00000000
,
00000000
00000000
00000000
00000000
,
00000000
00030030
00000000
00000000
;

//---------------dance-double - ----------------
#NOTEDATA:;
#CHARTNAME:;
#STEPSTYPE:dance-double;
#DESCRIPTION:;
#CHARTSTYLE:;
#DIFFICULTY:Easy;
#METER:7;
#RADARVALUES:0.261581,0.337506,0.072415,0.165520,0.000000,177.000000,170.000000,7.000000,16.000000,0.000000,0.000000,0.000000,0.000000,0.000000,0.261581,0.337506,0.072415,0.165520,0.000000,177.000000,170.000000,7.000000,16.000000,0.000000,0.000000,0.000000,0.000000,0.000000;
#CREDIT:;
#DISPLAYBPM:190.000000;
#NOTES:
00000000
00000000
00000000
00000000
,
00000000
00000000
00000000
00000000
,
00000000
00000000
00000000
00000000
,
00000000
00000000
00000000
00000000
,
00000000
00000000
00000000
00000000
,
00000000
00000000
00000000
00000000
,
00000000
00000000
00000000
00000000
,
00000000
00000000
00000000
00000000
,
00000000
00000000
01000000
00000000
,
00001000
00000000
00010000
00000000
,
00000010
00000000
00010000
00000000
,
00001000
00000000
01000000
00000000
,
00001000
00010000
00002000
00003000
,
00020000
00030000
00001000
00010000
,
00001000
00000000
00022000
00000000
,
00000000
00033000
00000000
00010000
,
00010000
00000000
00001000
00000000
,
00000100
00000000
00000001
00000000
,
00000010
00000000
00001000
00000000
,
00010000
00000000
01000000
00000000
,
10000000
00000000
00100000
00000000
,
01000000
00100000
01000000
00000000
,
00010000
00000000
00001000
00000000
,
00000010
00000000
00000100
00000010
,
00000100
00000000
00000001
00000000
,
00000100
00000000
00001000
00000000
,
00010000
00000000
00100000
00000000
,
10000000
00000000
01000000
00000000
,
00010000
00000000
00001000
00010000
,
00000100
00010000
00001000
00000000
,
00011000
00000000
00010000
00001000
,
00100000
00001000
00010000
00000000
,
00011000
00000000
00001000
00010000
,
00000100
00000000
00010000
00001000
,
00100000
00000000
00001000
00010000
,
00000010
00000000
00010000
00001000
,
01000000
00000000
00001000
00010000
,
00100000
00000000
00010000
00001000
,
00000100
00000000
00001000
00010000
,
01000000
00000000
00010000
00001000
,
00000100
00000001
00002000
00000000
,
00003000
00000010
00020000
00000000
,
00030000
00001000
00200000
00000000
,
00300000
00010000
02000000
00000000
,
03000000
00100000
00100000
00000000
,
10000000
00000000
01000000
00000000
,
00100000
00000000
00001000
00010000
,
00001000
00010000
00022000
00000000
,
00033000
00000000
00001000
00100000
,
00010000
00100000
00001000
00010000
,
00001000
00000010
00000001
00000000
,
00000001
00000100
00001000
00000000
,
00010000
00001000
00011000
00000000
,
00010000
00001000
00020000
00030000
,
00100000
10000000
01000000
00100000
,
01000000
00010000
00011000
00000000
,
00000010
00000010
00001000
00000100
,
00000010
00000100
00000010
00000001
,
00001000
00000001
00001000
00000100
,
00010000
00000100
00010000
00001000
,
01000000
00001000
01000000
00100000
,
00100000
10000000
01000000
00100000
,
00010000
01000000
00002000
00000000
,
00000000
00000000
00020000
00000000
,
00033000
00000000
00000100
00000000
,
00010000
00000000
00001000
00000000
,
00100000
00000000
00001000
00000000
,
00010000
00000000
00000100
00000000
,
00010000
00001000
00000200
00000300
,
00000001
00000010
00000100
00001000
,
00000100
00020000
00002000
00000000
,
00000000
00000000
00033000
00001000
,
00010000
00000000
00011000
00000000
;

//---------------dance-double - ----------------
#NOTEDATA:;
#CHARTNAME:;
#STEPSTYPE:dance-double;
#DESCRIPTION:;
#CHARTSTYLE:;
#DIFFICULTY:Medium;
#METER:10;
#RADARVALUES:0.503950,0.576088,0.217245,0.258625,0.015518,341.000000,320.000000,21.000000,25.000000,0.000000,0.000000,0.000000,0.000000,0.000000,0.503950,0.576088,0.217245,0.258625,0.015518,341.000000,320.000000,21.000000,25.000000,0.000000,0.000000,0.000000,0.000000,0.000000;
#CREDIT:;
#DISPLAYBPM:190.000000;
#NOTES:
// measure 0
00000000
00000000
00000000
00000000
,  // measure 1
00000000
00000000
00000000
00000000
,  // measure 2
00000000
00000000
00000000
00000000
,  // measure 3
00000000
00000000
00000000
00000000
,  // measure 4
00000000
02002000
00000000
00000000
00000000
00000000
00000000
03003000
,  // measure 5
00000000
00022000
00000000
00000000
00000000
00000000
00000000
00033000
,  // measure 6
00000000
00020200
00000000
00000000
00000000
00000000
00000000
00000000
,  // measure 7
00000000
00000000
00030300
00000000
00000000
00000000
00010000
00000000
00001000
00000000
00000000
00000000
00010000
00000000
00000000
00001000
,  // measure 8
00000000
00010000
00000000
00011000
00000000
00001000
00100000
00000000
,  // measure 9
00010000
01000000
00000000
00001000
00000000
00010000
00000100
00000000
,  // measure 10
00001000
00000010
00000000
00010000
00000000
00001000
01000000
00000000
,  // measure 11
00010000
00100000
00000000
00001000
00000000
00010000
00000010
00000000
,  // measure 12
00001000
00000100
00001000
00000100
00000000
00000010
00000001
00000000
,  // measure 13
00000100
00000010
00000000
00000110
00000000
00000100
00000001
00001000
,  // measure 14
00000010
00000000
00020000
00002000
00000000
00000000
00000000
00000000
,  // measure 15
00000000
00000000
00000000
00033000
00000000
00010000
00001000
00000000
,  // measure 16
01000000
00000000
00000000
00100000
00000000
00000000
02000000
00000000
00000000
00000000
00000000
00000000
03010000
00000000
00000000
00000000
,  // measure 17
10000000
01000000
00100000
01000000
,  // measure 18
00010000
00001000
00011000
00010000
,  // measure 19
00001000
00000010
00000100
00000010
,  // measure 20
00000001
00001000
00001001
00000001
,  // measure 21
00000100
00000010
00000100
00001000
,  // measure 22
00010000
00001000
00011000
00010000
,  // measure 23
00001000
00000000
01000000
00000000
00100000
10000000
00100000
00000000
,  // measure 24
01000000
00000000
00010000
00100000
00000000
01000000
00010000
00000000
,  // measure 25
00001000
00000010
00000100
00000010
,  // measure 26
00000001
00000000
00000100
00000000
00001000
00000000
00010000
00000100
,  // measure 27
00000000
00000010
00001000
00000000
00010000
00000000
00100000
00000000
,  // measure 28
10000000
00000000
01000000
00100000
01000000
00000000
00010000
00001000
,  // measure 29
00010000
00000000
00000010
00000100
00000010
00000000
00001000
00000000
,  // measure 30
00000001
00000000
00000100
00000010
00000100
00000000
00001000
00010000
,  // measure 31
00001000
00000000
00100000
01000000
00100000
00000000
00010000
00000000
,  // measure 32
10000000
00000000
00100000
01000000
00010000
00000000
00100000
00000000
,  // measure 33
01000000
00000000
00010000
00001000
00000010
00000000
00000001
00000000
,  // measure 34
00001000
00000000
00000010
00000100
00000001
00000000
00000010
00000000
,  // measure 35
00001000
00000000
00010000
00001000
00000000
00100000
00000000
01000000
,  // measure 36
00000000
10000000
00100000
01000000
00100000
00000000
01000000
00010000
,  // measure 37
01000000
00000000
00001000
00010000
00001000
00010000
00001000
00000000
,  // measure 38
00000010
00000100
00000010
00000000
00000001
00000000
00000100
00000000
,  // measure 39
00001000
00000000
00010000
00001000
00000000
00100000
00000000
00010000
,  // measure 40
00000000
10000000
00100000
10000000
00000000
01000000
00000000
01100000
,  // measure 41
00000000
00100000
00001000
00010000
00000000
00001000
00000000
00011000
,  // measure 42
00000000
00010000
00000100
00001000
00000000
00000001
00000000
00000101
,  // measure 43
00000000
00000100
00000010
00000100
00000000
00001000
00000000
00011000
,  // measure 44
00000000
00010000
00001000
00100000
00020000
00000000
00000000
01030000
,  // measure 45
00100000
00000000
00100000
10000000
00000000
00000000
10000000
01000000
,  // measure 46
00000000
01000000
00010000
00001000
00000000
00010000
00000100
00001000
,  // measure 47
00000100
00010000
00000100
00001000
00000000
00000001
00001000
00000000
,  // measure 48
00000020
00000000
00000000
00000200
00000330
00000000
00000010
00000000
,  // measure 49
00001000
00000100
00001000
00000000
00000001
00000000
00000100
00000000
,  // measure 50
00001000
00010000
00001000
00000000
00100000
00000000
01000000
00000000
,  // measure 51
10000000
00010000
10000000
00000000
00100000
00000000
00010000
00000000
,  // measure 52
00001000
00010000
00001000
00010000
00000100
00000000
00001100
00000000
,  // measure 53
00001000
00000001
00000100
00000000
00001000
00000000
00011000
00000000
,  // measure 54
00010000
00100000
01000000
00100000
00000000
10000000
02000000
00000000
,  // measure 55
03200000
00000000
00320000
00000000
01030000
00001000
00010000
00000000
,  // measure 56
00001000
00000100
00000000
00000220
00000330
00000000
00000001
00000100
,  // measure 57
00001000
00000000
00000100
00001000
00010000
00000000
00001000
00010000
,  // measure 58
01000000
00000000
00010000
01000000
10000000
00000000
10100000
00000000
,  // measure 59
00010000
00000000
00110000
00000000
01001000
00000000
00001000
00010000
,  // measure 60
00000100
00001000
00000100
00000020
00000000
00000031
00000000
00000200
,  // measure 61
00000000
00000310
00010000
00002000
00000000
00103000
00000000
00020000
,  // measure 62
00000000
10030000
01000000
00010000
00002000
00000000
00000000
00000000
,  // measure 63
00003000
00000000
00100000
00100000
00000000
01000000
00010000
00000000
,  // measure 64
00001000
00000010
00000000
00000110
00000000
00000001
00000100
00000000
,  // measure 65
00001000
00010000
00000000
00100000
00000000
10000000
01000000
00000000
,  // measure 66
00010000
00001000
00000000
00000100
00000000
00000001
00000010
00000000
,  // measure 67
00001000
00010000
00000000
01000000
00000000
10000000
00100000
00000000
,  // measure 68
00010000
00001000
00010000
00001000
00000000
00000100
00000010
00000000
,  // measure 69
00000100
00000001
00000000
00000011
00000000
00000010
00001000
00010000
,  // measure 70
01000000
00000000
01000000
20000000
00000000
00000000
00000000
00000000
,  // measure 71
00000000
00000000
00000000
00000000
00000000
30100000
00100000
00000000
,  // measure 72
00010000
00000000
00000000
00001000
00000000
00000000
00022000
00000000
00000000
00000000
00000000
00000000
00000000
00000000
00000000
00000000
,  // measure 73
00000000
00000000
00000000
00000000
,  // measure 74
00000000
00033000
00000000
00000000
;
