#VERSION:0.83;
#TITLE:Invitation II;
#SUBTITLE:;
#ARTIST:Warak;
#TITLETRANSLIT:;
#SUBTITLETRANSLIT:;
#ARTISTTRANSLIT:;
#GENRE:VARIETY;
#ORIGIN:;
#CREDIT:MUINELIM;
#BANNER:Invitation II.png;
#BACKGROUND:Invitation II-bg.png;
#PREVIEWVID:;
#JACKET:Invitation II-jacket.png;
#CDIMAGE:;
#DISCIMAGE:;
#LYRICSPATH:;
#CDTITLE:;
#MUSIC:Invitation II.ogg;
#OFFSET:-0.053000;
#SAMPLESTART:15.275287;
#SAMPLELENGTH:15.408570;
#SELECTABLE:YES;
#DISPLAYBPM:140.000000;
#BPMS:0.000=140.000;
#STOPS:;
#DELAYS:;
#WARPS:;
#TIMESIGNATURES:0.000=4=4;
#TICKCOUNTS:0.000=4;
#COMBOS:0.000=1;
#SPEEDS:0.000=1.000=0.000=0;
#SCROLLS:0.000=1.000;
#FAKES:;
#LABELS:0.000=Song Start;
#BGCHANGES:;
#KEYSOUNDS:;
#ATTACKS:
;

//---------------dance-single - ----------------
#NOTEDATA:;
#CHARTNAME:;
#STEPSTYPE:dance-single;
#DESCRIPTION:;
#CHARTSTYLE:;
#DIFFICULTY:Beginner;
#METER:3;
#RADARVALUES:0.137152,0.199513,0.024002,0.000000,0.000000,120.000000,117.000000,3.000000,0.000000,0.000000,0.000000,0.000000,0.000000,0.000000,0.137152,0.199513,0.024002,0.000000,0.000000,120.000000,117.000000,3.000000,0.000000,0.000000,0.000000,0.000000,0.000000,0.000000;
#CREDIT:;
#DISPLAYBPM:140.000000;
#NOTES:
0000
0000
0000
0000
,
0000
0010
0000
0000
,
0000
0010
0000
0000
,
0000
0010
0000
0010
,
0000
0010
0000
0000
,
0000
0100
0000
0100
,
0000
0100
0000
0100
,
0000
0010
0000
0100
,
0000
0010
0000
0000
,
0000
1000
0000
0000
,
1000
1000
0000
0000
,
0000
1000
0000
1000
,
0000
1000
0000
0000
,
0000
0001
0000
0001
,
0000
0001
0000
0001
,
0000
1000
0000
1000
,
0000
1000
1000
1000
,
0000
0001
0000
0000
,
0000
0100
0000
0000
,
0000
0010
0000
0000
,
0000
1000
0000
0000
,
0000
0100
0000
0000
,
0000
0010
0000
0000
,
0000
0001
0000
0000
,
0000
0000
0100
0100
,
0000
0010
0000
1000
,
0000
0010
0000
1000
,
0000
0010
0000
1000
,
0000
0010
0000
0010
,
0000
0100
0000
0001
,
0000
0100
0000
0001
,
0000
0100
0000
0001
,
0000
0100
0100
0100
,
0000
1001
0000
0000
,
0000
0000
0000
0000
,
0000
0001
0000
0000
,
0000
1000
0000
0000
,
0000
0001
0000
0010
,
0000
0100
0000
1000
,
0000
0010
0000
0000
,
0000
0100
0000
0000
,
0000
0010
0000
1000
,
0000
0001
0000
0100
,
0000
0010
0000
0010
,
0000
1000
0000
1000
,
0000
0100
0000
0100
,
0000
0010
0000
0010
,
0000
0001
0000
0000
,
0001
0001
0000
0000
,
0000
1000
0000
0000
,
1000
1000
0000
0000
,
0000
0010
0000
0100
,
0000
0010
0000
0100
,
0000
0001
0000
1000
,
0000
0001
0000
1000
,
0000
0100
0000
0100
,
0000
0010
0000
0010
,
0000
0001
0000
1000
,
0000
1001
0000
0000
,
0000
0001
0000
0000
,
0000
1000
0000
0000
,
0000
0001
0000
1000
,
0000
0001
0000
0000
,
0000
0100
0000
0010
,
0000
0100
0000
0010
,
0000
0100
0000
0100
,
0000
0000
0001
0001
,
0000
1000
0000
0010
,
0000
0000
0100
0100
,
0000
1001
0000
0000
,
0000
0010
0000
0100
,
0100
0100
0000
0000
;

//---------------dance-single - ----------------
#NOTEDATA:;
#CHARTNAME:;
#STEPSTYPE:dance-single;
#DESCRIPTION:;
#CHARTSTYLE:;
#DIFFICULTY:Easy;
#METER:7;
#RADARVALUES:0.276589,0.342622,0.160010,0.168011,0.000000,242.000000,222.000000,20.000000,21.000000,0.000000,0.000000,0.000000,0.000000,0.000000,0.276589,0.342622,0.160010,0.168011,0.000000,242.000000,222.000000,20.000000,21.000000,0.000000,0.000000,0.000000,0.000000,0.000000;
#CREDIT:;
#DISPLAYBPM:140.000000;
#NOTES:
0000
0000
0000
0000
,
0000
0010
0100
0010
,
0000
1000
0001
1000
,
0000
0010
0100
0010
,
1000
0001
1000
1001
,
0000
0001
0000
0100
,
0000
1000
0000
0010
,
0000
0001
1000
0001
,
0100
0010
0100
0220
,
0330
0010
1000
0100
,
0000
0010
0001
0100
,
0000
0010
1000
0100
,
0010
0001
1000
0001
,
0001
1000
0000
0010
,
0000
0001
0000
0100
,
0000
1000
0001
1000
,
0010
0100
0010
0220
,
0330
1000
0000
0001
,
0000
1000
1000
0001
,
0001
0100
0000
0010
,
0000
0100
0100
0010
,
0010
1000
0000
0001
,
0000
0010
0000
0100
,
0000
1000
0010
0001
,
0100
1000
0001
2002
,
3003
1000
0100
0010
,
0000
0001
0010
0100
,
0000
1000
0100
0010
,
0001
0010
0100
1000
,
0010
0100
0000
0010
,
0000
1000
0001
1001
,
0000
1000
0001
0010
,
0100
1000
0010
0200
,
0310
2000
0000
0000
,
3000
0002
0000
0000
,
0003
1000
0100
1000
,
0100
0010
0001
0010
,
0001
1000
0100
0010
,
0001
0020
0030
0001
,
0100
0110
0010
1000
,
0100
1000
0010
0001
,
0010
1000
0100
0010
,
0001
0100
1000
0100
,
0001
0020
0030
0001
,
0100
0110
1001
0110
,
1001
0020
0000
0000
,
0030
1000
0001
0010
,
0100
2000
0000
3000
,
0001
0001
0000
0000
0000
0000
0100
0000
,
0010
0200
0000
0300
,
0010
0010
0000
0000
0000
1001
0000
1001
,
0000
2000
3001
1000
,
0010
0200
0310
0010
,
1000
1100
0100
0010
,
0001
0011
0010
0100
,
1000
0001
0001
1000
,
1000
1001
0010
0110
,
1000
0002
0003
2000
,
3000
0000
0010
0100
0010
0000
0110
0000
,
0000
1000
0010
0001
,
0000
0001
0100
1000
,
0000
1000
0001
1000
,
0010
0100
0010
1000
,
0001
0010
0001
0100
,
1000
0100
0001
0020
,
0030
0100
1000
0010
,
0100
0010
1000
1001
,
0000
0010
0001
0100
,
0010
0100
0001
1001
,
0000
0020
0000
0000
,
0030
0200
0000
0000
,
0300
0000
0000
0110
0000
0000
0000
0000
;

//---------------dance-single - ----------------
#NOTEDATA:;
#CHARTNAME:;
#STEPSTYPE:dance-single;
#DESCRIPTION:;
#CHARTSTYLE:;
#DIFFICULTY:Medium;
#METER:11;
#RADARVALUES:0.470887,0.487931,0.280018,0.272017,0.128008,412.000000,377.000000,35.000000,34.000000,0.000000,0.000000,0.000000,0.000000,0.000000,0.470887,0.487931,0.280018,0.272017,0.128008,412.000000,377.000000,35.000000,34.000000,0.000000,0.000000,0.000000,0.000000,0.000000;
#CREDIT:;
#DISPLAYBPM:140.000000;
#NOTES:
0000
0000
0000
0000
,
0000
0000
0010
0100
0000
0100
0000
0100
,
0001
1000
0010
0100
0000
0100
0000
0100
,
0001
1000
0010
0000
1000
0001
0100
0000
,
0001
0000
1000
0000
0020
0000
0000
0000
0130
0000
0000
0100
0000
0000
0001
0000
,
1000
0000
0000
0000
0100
0000
0000
0100
0000
0000
0100
0000
0010
0000
0000
0010
,
0000
0000
0010
0000
0001
0000
0000
0001
0000
0000
0001
0000
1000
0000
0000
0000
,
0010
0000
0100
0000
0000
0000
0100
0000
0001
0000
0000
0001
0000
0000
0001
0000
,
1000
0000
0000
1000
0000
0000
1000
0000
0010
0000
0000
0110
0000
0000
0100
0000
,
0001
0010
0100
1000
0000
1000
0000
1000
,
0001
0010
0100
1000
0000
1000
0000
1000
,
0001
0010
0100
0000
1000
0100
0010
0000
,
0001
0100
0010
0000
1000
0100
0000
1000
,
0001
0000
0010
0000
0100
0000
0000
0100
0000
0000
0100
0000
1000
0000
0000
1000
,
0000
0000
1000
0000
0001
0000
0000
0001
0000
0000
0001
0000
0010
0000
0200
0000
,
0000
0000
0320
0000
0000
0000
0031
0000
1000
0000
0000
0100
0000
0000
0010
0000
,
0001
0000
0200
0000
0000
0000
0010
0000
0000
0010
0000
0000
0310
0000
0000
0000
,
2002
3003
0000
0001
0100
1000
0000
1000
,
0100
0001
0010
0100
0000
1000
0010
0000
,
0202
0303
0000
1000
0010
0001
0000
0001
,
0010
1000
0100
0010
0000
0001
0200
0300
,
0000
1010
0000
1000
0100
0001
0000
0001
,
0100
1000
0010
0100
0000
0001
1000
0000
,
0100
0010
0000
0001
1000
0001
0010
0100
,
1000
0000
0020
0000
0000
0000
0130
0000
0000
0100
0000
0000
0100
0000
0100
0000
,
0001
1000
0100
0010
0000
0010
0000
0010
,
0001
1000
0100
0010
0000
0010
0000
0010
,
0001
1000
0010
0000
1000
0001
0100
0000
,
0001
0000
1000
0000
0020
0000
0000
0000
0130
0000
0000
0100
0000
0000
0001
0000
,
0010
0000
0100
0000
1000
0000
0000
1000
0000
0000
1000
0000
0010
0000
0000
0010
,
0000
0000
0010
0000
0100
0000
0000
0100
0000
0000
0100
0000
0001
0000
0001
0000
,
0000
0000
0011
0000
0000
0000
1000
0000
0100
0000
0000
0100
0000
0000
0001
0000
,
0010
0000
0100
0000
0000
0000
1100
0000
0000
0010
0000
0000
0101
0000
0000
0000
,
1010
2002
0000
0000
,
0000
0000
0000
0000
,
3003
1001
0001
1000
,
0010
0001
0100
1000
,
0001
0000
0100
0010
1000
0001
0010
0100
,
1000
0000
0010
0000
0100
0000
0000
0100
0000
0000
0100
0000
0001
0000
1000
0000
,
0100
0010
1001
0000
0001
0000
1000
0000
,
0100
0001
0010
1000
,
0001
0010
0100
1000
,
0010
0000
0100
0001
1000
0100
0010
0010
,
0010
0000
0110
0000
1000
0010
0100
0001
,
0010
0100
2000
0000
3020
0000
0230
0000
,
0302
0000
0000
0000
1003
0000
0000
0010
0000
0000
0001
0000
0000
0100
0000
0000
,
1000
0010
0110
0000
0001
0000
1001
0000
,
1000
0220
0000
0330
,
1000
0000
0001
0000
0000
0000
0000
0000
0000
0000
0000
0100
0000
0010
0000
0000
,
0110
0000
2002
0000
0000
3003
0000
0010
,
0010
0000
0000
0110
0000
0000
0000
0000
0000
0000
1010
0000
0000
0000
0202
0000
,
0303
0000
0001
0010
1000
0000
0001
0100
,
1000
0000
1000
0010
0001
0000
1000
0100
,
0001
0000
0001
0010
0001
1000
0100
1000
,
0001
0100
0001
1000
0010
1000
0100
0010
,
0100
1100
1010
0011
,
0101
0000
0110
0000
0010
1000
0001
0000
,
0100
0000
0001
0000
1000
0000
0000
0001
0000
0000
0000
0000
2002
0000
0000
0000
,
3003
0220
0000
0000
,
0330
0000
1000
0100
0010
1000
0010
0001
,
0010
0000
0001
0010
0100
0001
0100
1000
,
0100
0000
1000
0010
0001
0000
1000
0100
,
0001
0000
0001
0010
1000
0001
0100
1000
,
0001
0000
0000
0000
1000
0000
0000
0010
0000
0000
0001
0000
0100
0000
0000
0001
,
0000
0000
0010
0000
1000
0000
0000
0100
0000
0000
1000
0000
0010
0000
0200
0000
,
0000
0000
0301
0000
0000
0000
0001
0000
0010
0000
0000
1000
0000
0000
0100
0000
,
0001
0000
0010
0000
0000
0000
1010
0000
0000
0101
0000
0000
1001
0000
0000
0000
,
1000
0010
0000
0010
0001
0100
0000
0100
,
1000
0000
0001
0000
0000
0000
0011
0000
0000
1100
0000
0000
0110
0000
0000
0000
,
2002
3003
0000
0010
0020
0000
1030
0100
,
0001
1000
0010
0002
0000
0103
1000
0001
,
0010
1000
0000
0220
0000
0000
0330
0000
;

//---------------dance-single - ----------------
#NOTEDATA:;
#CHARTNAME:;
#STEPSTYPE:dance-single;
#DESCRIPTION:;
#CHARTSTYLE:;
#DIFFICULTY:Hard;
#METER:15;
#RADARVALUES:0.817195,0.918459,0.792051,0.640041,0.912058,715.000000,616.000000,99.000000,80.000000,0.000000,0.000000,0.000000,0.000000,0.000000,0.817195,0.918459,0.792051,0.640041,0.912058,715.000000,616.000000,99.000000,80.000000,0.000000,0.000000,0.000000,0.000000,0.000000;
#CREDIT:;
#DISPLAYBPM:140.000000;
#NOTES:
0000
0000
0000
0000
0000
0000
0000
0001
,
1000
0000
0001
0100
0000
0220
0000
0000
0000
0000
0000
0000
0330
0000
1000
0000
,
0001
0000
1000
0010
0000
0220
0000
0000
0000
0000
0000
0000
0330
0000
0001
0000
,
1000
0000
0001
0010
0000
0000
1000
0000
0001
0000
1000
0100
0000
0000
0001
0000
,
1000
0000
0001
0020
0000
0000
0000
0000
0130
0000
1000
0010
0000
0100
0001
0100
,
0010
0100
0001
0000
0011
0000
0000
0110
0000
0000
1100
0000
1010
0000
0000
0110
,
0000
0000
0101
0000
0011
0000
0000
1010
0000
0000
1100
0000
1001
0000
0000
0000
,
0001
0000
0100
0020
0000
0000
1030
0000
1000
0000
0010
0200
0000
0000
0301
0000
,
0001
0000
1000
0010
0000
0000
0110
0000
0110
0000
0000
1001
0000
0000
1000
0000
,
0001
0000
0100
0010
0000
0200
0000
0000
0310
0000
1010
0000
0000
0000
1000
0000
,
0001
0100
0010
1000
0000
0020
0000
0000
0130
0000
0101
0000
0000
0000
0001
0000
,
1000
0000
0100
0020
0000
0031
0100
0010
1000
0000
0100
0020
0000
0000
0031
0000
,
0100
0000
0010
2000
0000
0000
0000
0000
3001
0000
1001
0000
0000
0001
1000
0010
,
0100
0001
1000
0000
1010
0000
0000
0110
0000
0000
0101
0000
0011
0000
0000
1001
,
0000
0000
1100
0000
1010
0000
0000
0011
0000
0000
0101
0000
1001
0000
0200
0000
,
0000
0000
0320
0000
0000
0000
1030
0000
0100
0000
0010
0001
0000
0000
0101
0000
,
0100
0000
1010
0000
0000
0000
1100
0000
0000
0011
0000
0000
1001
0000
0000
0000
,
0220
0000
0330
0000
0010
0000
1000
0100
1000
0100
0020
0000
0000
0031
0100
0010
,
0100
0010
1000
0100
0010
0001
2000
0000
0000
0000
3010
0100
0002
0000
0013
0100
,
2000
0000
3000
0000
1010
0000
0010
0100
0010
0100
0002
0000
0000
1003
0100
1000
,
0100
0010
0001
0010
0001
0010
0200
0000
0000
0000
1300
0010
0200
0000
0000
0000
,
0000
0000
0301
0000
0000
0000
0001
1000
0001
1000
0020
0000
0000
0130
0001
0100
,
0001
1000
0010
1000
0010
0100
0020
0000
0000
0000
1030
0100
0020
0000
0000
0000
,
0031
0100
0020
0000
0000
0000
1030
0001
0010
0100
1000
0010
0200
0000
0302
0000
,
2003
0000
3010
0100
0010
0000
1010
0000
0000
0101
0000
0000
1001
0000
1000
0000
,
0001
0000
0100
0010
0000
2000
0000
0000
3001
0000
0011
0000
0000
0000
0001
0000
,
1000
0000
0010
0100
0000
0002
0000
0000
1003
0000
1100
0000
0000
0000
1000
0000
,
0001
0000
1000
0010
0000
0000
0001
0000
1000
0000
0001
0100
0000
0000
1000
0000
,
0001
0000
1000
0020
0000
0000
0030
0000
0110
0000
0100
0001
0000
1000
0010
0100
,
0010
1000
0010
0000
1010
0000
0000
1100
0000
0000
0101
0000
0011
0000
0000
0101
,
0000
0000
1100
0000
1010
0000
0000
1100
0000
0000
0101
0000
0100
0000
0020
0000
,
0000
0000
2030
0000
0000
0000
3001
0000
0010
0000
0100
0020
0000
0000
0031
0000
,
0100
0000
0010
1000
0000
0000
1100
0000
0000
0011
0000
0000
0110
0000
0000
0000
,
2002
0000
3003
0000
0000
1000
0010
0100
0010
0000
0100
0001
0000
0010
0001
0010
,
0001
0010
0100
1000
0200
0000
0320
0000
0000
0031
0100
0010
1000
0000
0001
0010
,
0100
0000
1000
0100
0020
0000
0000
0000
0030
0000
0001
0100
0000
0110
0000
0010
,
1000
0010
0100
0001
1000
0000
0000
1001
0000
0001
0100
0001
0100
0010
1000
0010
,
1000
0100
0010
0100
0020
0000
0032
0000
2003
0000
3020
0000
0230
0000
0302
0000
,
0023
0000
0230
0000
2300
0000
0000
3010
0000
0010
0100
0001
0100
0010
1000
0100
,
0020
0000
0031
0000
0101
0000
0100
0000
0010
1000
0001
0000
0100
0000
0010
0000
,
0100
0001
1000
0000
0010
0000
0000
0110
0000
0100
0001
0100
0001
0010
0100
0010
,
0100
1000
0010
1000
0010
0100
0001
1000
0000
1010
0000
0101
0000
0001
0010
0100
,
1000
0010
0100
0001
1000
0100
0000
0110
0000
0001
0000
1001
0000
1000
0020
0000
,
0000
0000
0130
0000
0101
0000
0001
1000
0010
0000
1000
0001
0100
0000
0010
1000
,
0100
0000
0011
0000
0001
0100
0010
0000
1000
0100
0010
0000
0001
0010
0100
0000
,
1000
0010
0100
0000
0001
0010
0000
0100
0010
0000
1000
0010
0000
0100
0010
0000
,
0001
0010
0001
0010
0100
1000
0100
0010
0000
0010
0001
0100
0000
0100
0010
1000
,
0001
0100
0220
0000
0000
0000
0330
0000
,
1010
0000
0202
0000
0000
0000
0303
0000
0000
0000
0001
0010
0000
1100
0000
0000
,
1000
0001
0100
0000
0110
0000
0000
1010
0000
0000
1000
0100
0000
0000
0011
0000
,
0101
0000
0000
0110
0000
0000
0010
1000
0001
0100
0020
0000
0030
0000
0110
0000
,
1000
0100
0010
0001
0100
0000
0010
1000
0100
0000
0100
0010
0001
0000
1000
0100
,
0010
0000
0010
0001
0100
0010
0200
0000
0000
0000
0310
1000
0001
0000
0001
0010
,
0100
0000
0100
1000
0010
0000
0010
0100
0001
0000
0001
1000
0100
0000
0100
0010
,
0001
0000
0001
0100
0010
1000
0100
0020
0000
0130
1000
0002
0000
0013
0100
1000
,
0200
0000
0300
0000
0110
0000
0010
0001
0100
0000
0100
0010
1000
0000
1000
0001
,
0010
0100
1000
0001
0100
0000
0100
0010
1000
0000
1000
0001
0010
0000
0010
0100
,
1000
0000
1000
0010
0200
0000
0000
0302
0000
0000
0000
0000
2000
0000
0000
0000
,
3003
0000
0000
0000
1001
0000
0001
0000
1000
0000
0100
0020
0000
0000
0031
0000
,
0100
0000
0010
1000
0000
0002
0000
0000
0013
0000
0110
0000
0000
0000
1000
0000
,
0010
0000
0100
0001
0000
2000
0000
0000
3100
0000
0110
0000
0000
0000
0001
0000
,
0100
0000
0010
2000
0000
3001
0010
0100
1000
0000
0010
0200
0000
0000
0301
0000
,
1000
0000
0100
0020
0000
0000
0030
0000
0011
0000
1100
0000
0000
0100
1000
0001
,
0010
0100
1000
0000
1100
0000
0000
0101
0000
0000
1010
0000
0011
0000
0000
1100
,
0000
0000
0101
0000
1010
0000
0000
1001
0000
0000
0110
0000
0100
0000
0020
0000
,
0000
0000
2030
0000
0000
0000
3001
0000
0100
0000
0010
0200
0000
0000
0301
0000
,
0011
0000
1000
0100
0000
0000
1100
0000
0000
0101
0000
0000
0011
0000
0000
0010
,
0100
1000
0020
0000
0000
0000
0130
0000
0101
0000
0010
2000
0000
0000
3100
0000
,
0010
0000
0001
0100
0000
0000
0110
0000
0000
1010
0000
0000
0101
0000
0000
0000
,
2200
0000
3300
0000
0100
0010
0001
0100
0010
0000
0001
0010
0000
1000
0100
0010
,
0100
0010
0001
0100
0010
1000
0002
0000
0000
0000
0013
0100
1000
0001
0100
0010
,
1000
0100
0010
0001
0000
0000
2002
0000
0000
0000
0000
0000
3003
0000
0000
0000
;

//---------------dance-double - ----------------
#NOTEDATA:;
#CHARTNAME:;
#STEPSTYPE:dance-double;
#DESCRIPTION:;
#CHARTSTYLE:;
#DIFFICULTY:Hard;
#METER:15;
#RADARVALUES:0.754334,0.803652,0.496032,0.824053,0.836054,660.000000,598.000000,62.000000,103.000000,0.000000,0.000000,0.000000,0.000000,0.000000,0.754334,0.803652,0.496032,0.824053,0.836054,660.000000,598.000000,62.000000,103.000000,0.000000,0.000000,0.000000,0.000000,0.000000;
#CREDIT:;
#DISPLAYBPM:140.000000;
#NOTES:
// measure 0
00000000
00000000
00000000
00000000
00000000
00000000
00000000
00001000
,  // measure 1
00010000
00000000
00000100
00010000
00000000
00022000
00000000
00000000
00000000
00000000
00000000
00000000
00033000
00000000
00010000
00000000
,  // measure 2
00001000
00000000
00100000
00001000
00000000
00022000
00000000
00000000
00000000
00000000
00000000
00000000
00033000
00000000
00001000
00000000
,  // measure 3
00010000
00000000
00000010
00010000
00000000
00000000
00001000
00000000
01000000
00000000
00001000
00010000
00000000
00000000
00001000
00000000
,  // measure 4
00010000
00000000
00000100
00020000
00000000
00000000
00000000
00000000
00031000
00000000
00001000
01000000
00000000
00010000
01000000
00100000
,  // measure 5
01000000
00100000
10000000
00000000
12000000
00000000
00000000
03020000
00000000
00000000
00032000
00000000
00023000
00000000
00000000
02030000
,  // measure 6
00000000
00000000
03020000
00000000
00032000
00000000
00000000
00003200
00000000
00000000
00000302
00000000
00001003
00000000
00000000
00000000
,  // measure 7
00001000
00000000
00000010
00000200
00000000
00000000
00000301
00000000
00000001
00000000
00000100
00000020
00000000
00000000
00001030
00000000
,  // measure 8
00001000
00000000
00000100
00010000
00000000
00000000
00001000
00000000
01001000
00000000
00000000
00010100
00000000
00000000
00010000
00000000
,  // measure 9
00001000
00000000
00100000
00010000
00000000
02000000
00000000
00000000
03100000
00000000
10100000
00000000
00000000
00000000
10000000
00000000
,  // measure 10
01000000
00100000
01000000
00010000
00000000
00002000
00000000
00000000
00003010
00000000
00000110
00000000
00000000
00000000
00000100
00000000
,  // measure 11
00000010
00000000
00000001
00000200
00000000
00000310
00010000
00001000
00010000
00000000
00100000
02000000
00000000
00000000
03010000
00000000
,  // measure 12
10000000
00000000
01000000
00200000
00000000
00000000
00000000
00000000
00310000
00000000
10010000
00000000
00000000
10000000
00100000
01000000
,  // measure 13
00100000
01000000
00010000
00000000
00200000
00000000
00000000
02300000
00000000
00000000
03020000
00000000
00032000
00000000
00000000
00003020
,  // measure 14
00000000
00000000
00000230
00000000
00020300
00000000
00000000
00032000
00000000
00000000
00003020
00000000
00000032
00000000
00000203
00000000
,  // measure 15
00000000
00000000
00000320
00000000
00000000
00000000
00001030
00000000
00000100
00000000
00000010
00001000
00000000
00000000
00011000
00000000
,  // measure 16
00010000
00000000
01000000
00000000
00000000
00000000
11000000
00000000
00000000
10100000
00000000
00000000
01010000
00000000
00000000
00000000
,  // measure 17
20020000
00000000
30030000
00000000
10000000
00000000
00100000
01000000
00100000
01000000
00020000
00000000
00000000
00130000
00001000
00010000
,  // measure 18
00001000
00010000
00000100
00001000
00000100
00001000
00000002
00000000
00000000
00000000
00000103
00000010
00000100
00000000
00000010
00001000
,  // measure 19
00000010
00000000
00000000
00000000
00010010
00000000
00010000
00001000
00010000
00001000
00200000
00000000
00000000
00310000
01000000
00010000
,  // measure 20
01000000
00100000
10000000
00100000
10000000
01000000
00200000
00000000
00000000
00000000
00301000
00010000
00000200
00000000
00000000
00000000
,  // measure 21
00000000
00000000
00000310
00000000
00000000
00000000
00000010
00000001
00000010
00000001
00000200
00000000
00000000
00000310
00001000
00000010
,  // measure 22
00001000
00000100
00010000
00000100
00010000
00001000
00200000
00000000
00000000
00000000
00301000
00010000
00000020
00000000
00000000
00000000
,  // measure 23
00010030
00001000
02000000
00000000
00000000
00000000
03010000
00100000
01000000
10000000
00100000
01000000
00100000
00000000
00010000
00000000
,  // measure 24
00001000
00000000
00000100
00000010
00000100
00000000
00000101
00000000
00000000
00001010
00000000
00000000
00001001
00000000
00000001
00000000
,  // measure 25
00000100
00000000
00001000
00010000
00000000
00200000
00000000
00000000
10300000
00000000
11000000
00000000
00000000
00000000
10000000
00000000
,  // measure 26
01000000
00000000
00010000
00001000
00000000
00000020
00000000
00000000
00000031
00000000
00000101
00000000
00000000
00000000
00000100
00000000
,  // measure 27
00000010
00000000
00001000
00000100
00000000
00000000
00000010
00000000
00001000
00000000
00010000
00100000
00000000
00000000
10000000
00000000
,  // measure 28
01000000
00000000
00100000
00020000
00000000
00000000
00030000
00000000
01010000
00000000
01000000
00001000
00000000
00010000
00000100
00001000
,  // measure 29
00000100
00001000
00000001
00000000
00000020
00000000
00000000
00002030
00000000
00000000
00023000
00000000
00230000
00000000
00000000
00320000
,  // measure 30
00000000
00000000
00032000
00000000
00023000
00000000
00000000
02030000
00000000
00000000
23000000
00000000
30020000
00000000
00230000
00000000
,  // measure 31
00000000
00302000
00000000
00003010
00000001
00000010
00000200
00000310
,  // measure 32
00000011
00000000
00000001
00000100
00000000
00000000
00001100
00000000
00000000
00011000
00000000
00000000
01010000
00000000
00000000
00000000
,  // measure 33
20020000
00000000
30030000
00000000
00000000
10000000
00100000
01000000
00100000
00000000
01000000
00010000
00000000
00100000
00001000
00100000
,  // measure 34
00001000
00010000
00000100
00001000
00000002
00000000
00000203
00000000
00000000
00000310
00001000
00000010
00010000
00000000
00001000
00010000
,  // measure 35
00100000
00000000
00010000
00100000
02000000
00000000
00000000
00000000
03000000
00000000
00100000
10000000
00000000
11000000
00000000
01000000
,  // measure 36
00100000
01000000
00010000
00001000
00000010
00000000
00000000
00000110
00000000
00000100
00000010
00000001
00000100
00000000
00000010
00001000
,  // measure 37
00000100
00000000
00000010
00000001
00000100
00000000
00001000
00000000
00010000
00000000
01000000
00000000
00010000
00000000
00001000
00000000
,  // measure 38
00000010
00000000
00001000
00000000
00010000
00000000
00000000
00110000
00000000
00100000
10000000
01000000
00100000
01000000
10000000
01000000
,  // measure 39
00200000
00310000
01010000
01000000
00001000
00010000
00100000
00001000
,  // measure 40
00000010
00000000
00000100
00000000
00000001
00000000
00000000
00000011
00000000
00000010
00000100
00000010
00001000
00000000
00010000
00001000
,  // measure 41
00010000
00000000
01000000
00100000
00010000
00000000
01000000
00100000
00000000
10100000
00000000
10000000
00000000
01000000
00010000
00001000
,  // measure 42
00010000
00001000
00000100
00000010
00000100
00000001
00000000
00000011
00000000
00000100
00000000
00001100
00000000
00001000
00000020
00000000
,  // measure 43
00000000
00000000
00010030
00000000
00011000
00000000
00001000
00100000
00010000
00000000
00100000
01000000
10000000
00000000
00100000
00010000
,  // measure 44
00001000
00000000
00011000
00000000
00010000
00000100
00001000
00000000
00000100
00000010
00000001
00000000
00000100
00001000
00010000
00000000
,  // measure 45
00001000
00010000
01000000
00000000
10000000
00100000
00000000
00100000
00010000
00000000
00010000
00001000
00000000
00001000
00100000
00000000
,  // measure 46
01000000
00010000
00001000
00000000
00010000
00000100
00001000
00000100
00000000
00000100
00000010
00000001
00000000
00000001
00000100
00001000
,  // measure 47
00010000
00001000
00022000
00000000
00000000
00000000
00033000
00000000
,  // measure 48
00010010
00000000
02002000
00000000
00000000
00000000
03003000
00000000
00000000
00000000
00001000
00100000
00000000
00110000
00000000
00000000
,  // measure 49
00010000
01000000
00100000
00000000
10100000
00000000
00000000
11000000
00000000
00000000
01000000
00010000
00000000
00000000
00001000
00000000
,  // measure 50
00011000
00000000
00000000
00010100
00000000
00000000
00000100
00000010
00000001
00001000
00000200
00000000
00000300
00000000
00000110
00000000
,  // measure 51
00000001
00000010
00000100
00001000
00000100
00000000
00010000
00000000
00001000
00000000
00000100
00000000
00001000
00000000
00010000
00000000
,  // measure 52
01000000
00000000
00010000
00000000
00001000
00010000
00200000
00000000
00000000
00000000
10300000
01000000
00100000
00000000
01000000
00010000
,  // measure 53
00001000
00010000
00011000
00001000
00000100
00000001
00000010
00000100
,  // measure 54
00001000
00000000
00000010
00010000
00001000
00010000
00001000
00100000
00000000
00100000
00010000
01000000
00000000
01000000
00100000
10000000
,  // measure 55
02000000
00000000
03000000
00000000
01100000
00000000
00100000
00010000
01000000
00000000
00100000
00010000
00001000
00000000
00010000
00000100
,  // measure 56
00001000
00000100
00010000
00000000
00011000
00000000
00001000
00000100
00000010
00000000
00000100
00000001
00000010
00000000
00001000
00010000
,  // measure 57
01000000
00000000
10000000
00100000
02000000
00000000
00000000
03002000
00000000
00000000
00000000
00000000
00020000
00000000
00000000
00000000
,  // measure 58
00033000
00000000
00000000
00000000
00011000
00000000
00010000
00000000
00000100
00000000
00001000
00000002
00000000
00000000
00000103
00000000
,  // measure 59
00001000
00000000
00010000
00100000
00000000
20000000
00000000
00000000
31000000
00000000
01100000
00000000
00000000
00000000
00100000
00000000
,  // measure 60
00001000
00000000
00010000
00000100
00000000
00000020
00000000
00000000
00000031
00000000
00001001
00000000
00000000
00000000
00001000
00000000
,  // measure 61
00000010
00000000
00010000
00002000
00000000
00103000
00010000
00100000
01000000
00000000
10000000
00200000
00000000
00000000
01300000
00000000
,  // measure 62
00001000
00000000
00010000
00000200
00000000
00000000
00000300
00000000
00000110
00000000
00001001
00000000
00000000
00000001
00001000
00000010
,  // measure 63
00000100
00000010
00000100
00000000
00000002
00000000
00000000
00000023
00000000
00000000
00002030
00000000
00023000
00000000
00000000
00230000
,  // measure 64
00000000
00000000
00320000
00000000
00032000
00000000
00000000
00023000
00000000
00000000
02030000
00000000
23000000
00000000
30020000
00000000
,  // measure 65
00000000
00000000
00230000
00000000
00000000
00000000
01300000
00000000
00010000
00000000
00001000
00000020
00000000
00000000
00000130
00000000
,  // measure 66
00001100
00000000
00000001
00000100
00000000
00000000
00001010
00000000
00000000
00011000
00000000
00000000
00110000
00000000
00000000
00000000
,  // measure 67
00100000
10000000
02000000
00000000
00000000
00000000
03100000
00000000
00110000
00000000
00010000
02000000
00000000
00000000
03001000
00000000
,  // measure 68
00010000
00000000
00000100
00000010
00000000
00000000
00000011
00000000
00000000
00001100
00000000
00000000
00001001
00000000
00000000
00000000
,  // measure 69
00000220
00000000
00000330
00000000
00000010
00001000
00000100
00000010
00000001
00000000
00000001
00000100
00000000
00000100
00001000
00010000
,  // measure 70
00001000
00010000
00100000
10000000
01000000
00100000
02000000
00000000
00000000
00000000
03010000
00001000
00010000
00000100
00000010
00000100
,  // measure 71
00001000
00000001
00000010
00000100
00000000
00000000
00022000
00000000
00000000
00000000
00000000
00000000
00033000
00000000
00000000
00000000
;

//---------------dance-double - ----------------
#NOTEDATA:;
#CHARTNAME:;
#STEPSTYPE:dance-double;
#DESCRIPTION:;
#CHARTSTYLE:;
#DIFFICULTY:Medium;
#METER:11;
#RADARVALUES:0.460601,0.487931,0.232015,0.304019,0.128008,403.000000,374.000000,29.000000,38.000000,0.000000,0.000000,0.000000,0.000000,0.000000,0.460601,0.487931,0.232015,0.304019,0.128008,403.000000,374.000000,29.000000,38.000000,0.000000,0.000000,0.000000,0.000000,0.000000;
#CREDIT:;
#DISPLAYBPM:140.000000;
#NOTES:
// measure 0
00000000
00000000
00000000
00000000
,  // measure 1
00000000
00000000
00001000
00010000
00000000
00010000
00000000
01000000
,  // measure 2
00010000
00000000
00010000
00001000
00000000
00001000
00000000
00000100
,  // measure 3
00001000
00010000
00000100
00000000
00010000
00001000
00100000
00000000
,  // measure 4
00001000
00000000
00010000
00000000
00000020
00000000
00000000
00000000
00001030
00000000
00000000
00001000
00000000
00000000
00001000
00000000
,  // measure 5
00000001
00000000
00000000
00000000
00000100
00000000
00000000
00000100
00000000
00000000
00000100
00000000
00001000
00000000
00000000
00001000
,  // measure 6
00000000
00000000
00001000
00000000
00010000
00000000
00000000
00010000
00000000
00000000
00010000
00000000
00100000
00000000
00000000
00000000
,  // measure 7
10000000
00000000
01000000
00000000
00000000
00000000
01000000
00000000
00010000
00000000
00000000
00010000
00000000
00000000
00010000
00000000
,  // measure 8
00001000
00000000
00000000
00001000
00000000
00000000
00001000
00000000
00000010
00000000
00000000
00000110
00000000
00000000
00000100
00000000
,  // measure 9
00001000
00000001
00000100
00001000
00000000
00001000
00000000
00010000
,  // measure 10
00100000
00000000
00010000
00001000
00000000
00010000
00000000
00010000
,  // measure 11
00001000
00000010
00000001
00000000
00000100
00001000
00010000
00000000
,  // measure 12
00100000
10000000
01000000
00000000
00010000
00001000
00000000
00100000
,  // measure 13
01000000
00000000
00010000
00000000
00001000
00000000
00000000
00001000
00000000
00000000
00001000
00000000
00000010
00000000
00000000
00000010
,  // measure 14
00000000
00000000
00000010
00000000
00000001
00000000
00000000
00000001
00000000
00000000
00000001
00000000
00000100
00000000
00002000
00000000
,  // measure 15
00000000
00000000
00023000
00000000
00000000
00000000
01030000
00000000
10000000
00000000
00000000
00100000
00000000
00000000
01000000
00000000
,  // measure 16
00001000
00000000
00020000
00000000
00000000
00000000
00001000
00000000
00000000
00001000
00000000
00000000
00031000
00000000
00000000
00000000
,  // measure 17
00022000
00033000
00000000
00001000
00000100
00000001
00000000
00000001
,  // measure 18
00000100
00001000
00000100
00000010
00000000
00000010
00010000
00000000
,  // measure 19
00022000
00033000
00000000
00010000
01000000
10000000
00000000
10000000
,  // measure 20
01000000
00010000
01000000
00100000
00000000
00100000
00002000
00003000
,  // measure 21
00000000
00011000
00000000
00010000
00001000
00000010
00000000
00001000
,  // measure 22
00010000
00100000
00010000
00001000
00000000
00100000
01000000
00000000
,  // measure 23
00010000
00001000
00000000
00000010
00000100
00000010
00000001
00000100
,  // measure 24
00001000
00000000
00020000
00000000
00000000
00000000
00031000
00000000
00000000
00001000
00000000
00000000
00001000
00000000
00001000
00000000
,  // measure 25
00010000
00100000
10000000
01000000
00000000
00100000
00000000
00100000
,  // measure 26
00001000
00000000
00010000
00000100
00000000
00000010
00000000
00000010
,  // measure 27
00000001
00000100
00001000
00000000
00010000
00100000
10000000
00000000
,  // measure 28
01000000
00000000
00100000
00000000
00020000
00000000
00000000
00000000
01030000
00000000
00000000
01000000
00000000
00000000
00001000
00000000
,  // measure 29
00010000
00000000
00100000
00000000
00001000
00000000
00000000
00001000
00000000
00000000
00001000
00000000
00000010
00000000
00000000
00000010
,  // measure 30
00000000
00000000
00000010
00000000
00000100
00000000
00000000
00000100
00000000
00000000
00000100
00000000
00000001
00000000
00000001
00000000
,  // measure 31
00000000
00000000
00000011
00000000
00000000
00000000
00000010
00000000
00001000
00000000
00000000
00001000
00000000
00000000
00010000
00000000
,  // measure 32
00100000
00000000
10000000
00000000
00000000
00000000
11000000
00000000
00000000
01000000
00000000
00000000
01010000
00000000
00000000
00000000
,  // measure 33
00011000
00020020
00000000
00000000
,  // measure 34
00000000
00000000
00000000
00000000
,  // measure 35
00030030
01001000
00001000
00010000
,  // measure 36
00100000
10000000
01000000
00010000
,  // measure 37
00001000
00000000
00000010
00000001
00000010
00000100
00001000
00000100
,  // measure 38
00010000
00000000
00001000
00000000
00100000
00000000
00000000
00100000
00000000
00000000
00100000
00000000
01000000
00000000
10000000
00000000
,  // measure 39
00100000
00010000
00011000
00000000
00001000
00000000
00000100
00000000
,  // measure 40
00000001
00000010
00000100
00010000
,  // measure 41
00001000
00100000
01000000
10000000
,  // measure 42
00010000
00000000
01000000
00100000
00010000
00001000
00000100
00000010
,  // measure 43
00001000
00000000
00001001
00000000
00000001
00000100
00001000
00010000
,  // measure 44
00100000
10000000
02000000
00000000
03200000
00000000
00302000
00000000
,  // measure 45
00023000
00000000
00000000
00000000
00030100
00000000
00000000
00000010
00000000
00000000
00000100
00000000
00000000
00001000
00000000
00000000
,  // measure 46
00000001
00001000
00001001
00000000
00000010
00000000
00000110
00000000
,  // measure 47
00001000
00022000
00000000
00033000
,  // measure 48
00010000
00000000
01000000
00000000
00000000
00000000
00000000
00000000
00000000
00000000
00000000
10000000
00000000
10000000
00000000
00000000
,  // measure 49
10100000
00000000
02002000
00000000
00000000
03003000
00000000
00001000
,  // measure 50
00001000
00000000
00000000
00010100
00000000
00000000
00000000
00000000
00000000
00000000
00000110
00000000
00000000
00000000
00002002
00000000
,  // measure 51
00003003
00000000
00000001
00000100
00001000
00000000
00000100
00001000
,  // measure 52
00010000
00000000
00001000
00010000
00100000
00000000
00010000
00100000
,  // measure 53
10000000
00000000
01000000
00100000
01000000
00010000
00001000
00010000
,  // measure 54
01000000
00100000
01000000
00010000
00001000
00000010
00000100
00000010
,  // measure 55
00000001
00000201
00002300
00023000
,  // measure 56
00230000
00000000
10300000
00000000
10000000
01000000
00100000
00000000
,  // measure 57
01000000
00000000
00010000
00000000
00001000
00000000
00000000
00010000
00000000
00000000
00000000
00000000
00020200
00000000
00000000
00000000
,  // measure 58
00030300
00202000
00000000
00000000
,  // measure 59
00303000
00000000
00100000
01000000
10000000
00100000
00010000
00001000
,  // measure 60
00000010
00000000
00000100
00000010
00000001
00000100
00001000
00010000
,  // measure 61
01000000
00000000
10000000
00100000
00010000
00000000
00001000
00000100
,  // measure 62
00000001
00000000
00000001
00000010
00001000
00010000
01000000
10000000
,  // measure 63
00010000
00000000
00000000
00000000
01000000
00000000
00000000
00100000
00000000
00000000
00010000
00000000
00001000
00000000
00000000
00000100
,  // measure 64
00000000
00000000
00000010
00000000
00010000
00000000
00000000
00001000
00000000
00000000
00000100
00000000
00000001
00000000
00000020
00000000
,  // measure 65
00000000
00000000
00001030
00000000
00000000
00000000
00001000
00000000
00010000
00000000
00000000
00100000
00000000
00000000
10000000
00000000
,  // measure 66
01000000
00000000
00100000
00000000
00000000
00000000
01100000
00000000
00000000
00010000
00000000
00000000
00011000
00000000
00000000
00000000
,  // measure 67
00001000
00000100
00000000
00000001
00000010
00000100
00000000
00000010
,  // measure 68
00001000
00000000
00010000
00000000
00000000
00000000
00011000
00000000
00000000
00100000
00000000
00000000
01100000
00000000
00000000
00000000
,  // measure 69
20020000
30030000
00000000
01000000
02000000
00000000
03001000
00010000
,  // measure 70
00000100
00000010
00000001
00002000
00000000
00003010
00000100
00001000
,  // measure 71
00010000
00100000
00000000
02200000
00000000
00000000
03300000
00000000
;

//---------------dance-double - ----------------
#NOTEDATA:;
#CHARTNAME:;
#STEPSTYPE:dance-double;
#DESCRIPTION:;
#CHARTSTYLE:;
#DIFFICULTY:Easy;
#METER:7;
#RADARVALUES:0.268589,0.285518,0.120008,0.176011,0.000000,235.000000,220.000000,15.000000,22.000000,0.000000,0.000000,0.000000,0.000000,0.000000,0.268589,0.285518,0.120008,0.176011,0.000000,235.000000,220.000000,15.000000,22.000000,0.000000,0.000000,0.000000,0.000000,0.000000;
#CREDIT:;
#DISPLAYBPM:140.000000;
#NOTES:
// measure 0
00000000
00000000
00000000
00000000
,  // measure 1
00000000
00001000
00010000
00000100
,  // measure 2
00000000
00010000
00001000
00100000
,  // measure 3
00000000
00001000
01000000
00001000
,  // measure 4
00010000
00000010
00010000
00011000
,  // measure 5
00000000
00001000
00000000
00010000
,  // measure 6
00000000
01000000
00000000
10000000
,  // measure 7
00000000
00100000
00010000
00001000
,  // measure 8
00000010
00000001
00000100
00000220
,  // measure 9
00000330
00000001
00000100
00001000
,  // measure 10
00000000
00000100
00001000
00010000
,  // measure 11
00000000
00001000
00010000
00100000
,  // measure 12
10000000
01000000
00100000
01000000
,  // measure 13
00010000
00001000
00000000
00010000
,  // measure 14
00000000
00001000
00000000
00000100
,  // measure 15
00000000
00000001
00001000
00000001
,  // measure 16
00000100
00000010
00000100
00000220
,  // measure 17
00000330
00000001
00000000
00000010
,  // measure 18
00000000
00001000
00001000
00010000
,  // measure 19
00010000
01000000
00000000
10000000
,  // measure 20
00000000
00100000
00100000
01000000
,  // measure 21
01000000
00010000
00000000
10000000
,  // measure 22
00000000
01000000
00000000
00010000
,  // measure 23
00000000
00001000
00000010
00000001
,  // measure 24
00000100
00001000
00010000
00022000
,  // measure 25
00033000
00001000
00010000
01000000
,  // measure 26
00000000
00010000
00001000
00000100
,  // measure 27
00000000
00001000
00010000
00100000
,  // measure 28
00010000
00001000
00000010
00000001
,  // measure 29
00001000
00000100
00000000
00010000
,  // measure 30
00000000
01000000
00100000
01100000
,  // measure 31
00000000
10000000
01000000
00010000
,  // measure 32
00001000
00000010
00000001
00002000
,  // measure 33
00003010
00000020
00000000
00000000
,  // measure 34
00000030
00000200
00000000
00000000
,  // measure 35
00000300
00000001
00001000
00000001
,  // measure 36
00001000
00000100
00000010
00000100
,  // measure 37
00000010
00001000
00010000
01000000
,  // measure 38
00100000
00020000
00030000
10000000
,  // measure 39
00100000
01100000
01000000
00010000
,  // measure 40
00100000
01000000
00010000
00001000
,  // measure 41
00000010
00000100
00001000
00000001
,  // measure 42
00000100
00001000
00010000
00100000
,  // measure 43
10000000
00020000
00030000
01000000
,  // measure 44
00100000
00010000
00001000
00000100
,  // measure 45
00000010
00002002
00000000
00000000
,  // measure 46
00003003
00000001
00000010
00001000
,  // measure 47
00010000
00200000
00000000
00300000
,  // measure 48
10000000
10000000
00000000
00000000
00000000
00000000
01000000
00000000
,  // measure 49
00010000
00002000
00000000
00003000
,  // measure 50
00010000
00010000
00000000
00000000
00000000
00011000
00000000
00011000
,  // measure 51
00000000
00002000
00013000
00001000
,  // measure 52
00000100
00000020
00001030
00001000
,  // measure 53
00000100
00000001
00000100
00000010
,  // measure 54
00000001
00000100
00001000
00010000
,  // measure 55
00100000
10000000
10000000
00010000
,  // measure 56
00010000
10010000
10000000
01000000
,  // measure 57
00010000
00002000
00003000
00020000
,  // measure 58
00030000
00001000
00010000
00011000
,  // measure 59
00000000
00001000
00000100
00000001
,  // measure 60
00000000
00000010
00001000
00010000
,  // measure 61
00000000
01000000
10000000
01000000
,  // measure 62
00100000
00010000
10000000
10010000
,  // measure 63
00000000
00100000
00010000
00001000
,  // measure 64
00000100
00000010
00001000
00000002
,  // measure 65
00000003
00000100
00001000
00010000
,  // measure 66
00100000
10000000
00010000
10010000
,  // measure 67
00000000
01000000
00010000
00001000
,  // measure 68
00000010
00000001
00001000
00001001
,  // measure 69
00000000
00000020
00000000
00000000
,  // measure 70
00000030
00000200
00000000
00000000
,  // measure 71
00000300
00000000
00000000
00000110
00000000
00000000
00000000
00000000
;
