#TITLE:Into the I-LAND;
#SUBTITLE:;
#ARTIST:IU;
#TITLETRANSLIT:;
#SUBTITLETRANSLIT:;
#ARTISTTRANSLIT:;
#GENRE:K-POP;
#CREDIT:MUINELIM;
#BANNER:Into the I-LAND.png;
#BACKGROUND:Into the I-LAND-bg.png;
#LYRICSPATH:;
#CDTITLE:;
#MUSIC:Into the I-LAND.ogg;
#OFFSET:0.290000;
#SAMPLESTART:49.881935;
#SAMPLELENGTH:14.754105;
#SELECTABLE:YES;
#DISPLAYBPM:122.000000;
#BPMS:0.000000=122.000000
;
#STOPS:
;
#BGCHANGES:;
#KEYSOUNDS:;
#ATTACKS:;

//---------------dance-single - ----------------
#NOTES:
     dance-single:
     :
     Beginner:
     3:
     0.105615,0.150972,0.021960,0.051239,0.000000,101.000000,98.000000,3.000000,7.000000,0.000000,0.000000,0.105615,0.150972,0.021960,0.051239,0.000000,101.000000,98.000000,3.000000,7.000000,0.000000,0.000000:
0000
0000
0000
0000
,
0000
0000
0000
1000
,
0000
0001
0000
1000
,
0000
0001
0000
1000
,
0000
0001
0000
1000
,
0000
0000
0000
0010
,
0000
0100
0000
0010
,
0000
0100
0000
0010
,
0000
0100
0000
0010
,
0000
0000
0000
1000
,
0000
0000
0000
0100
,
0000
0000
0000
0001
,
0000
0000
0000
0010
,
0000
0000
0000
1000
,
0000
0000
0000
0100
,
0000
0000
0000
0001
,
0000
0000
0000
0010
,
0000
0000
0000
1000
,
0000
0000
0000
0001
,
0000
0000
0000
1000
,
0000
0000
0000
0001
,
0000
0000
0000
0010
,
0000
0000
0000
0100
,
0000
0000
0000
0010
,
0000
0000
0000
0100
,
0000
0000
0000
1000
,
0000
1000
0000
1000
,
0000
1000
0000
1000
,
0000
1000
1000
2000
,
0000
3000
0000
0001
,
0000
0001
0000
0001
,
0000
0001
0000
0001
,
0000
0001
0001
0002
,
0000
0003
0000
0100
,
0000
0010
0000
0100
,
0000
0010
0000
0100
,
0000
0100
0000
0010
,
0000
0010
0000
1000
,
0000
0001
0000
1000
,
0000
0001
0000
1000
,
0000
0001
0001
0002
,
0000
0003
0000
1001
,
0000
0000
0000
1000
,
0000
0000
0000
0010
,
0000
0000
0000
0001
,
0000
0000
0000
0100
,
0000
0000
0000
1000
,
0000
0000
0000
0010
,
0000
0000
0000
0001
,
0000
0000
0000
0100
,
0000
0000
0000
1000
,
0000
0000
0000
0001
,
0000
0000
0000
0100
,
0000
0000
0000
0010
,
0000
0000
0000
0100
,
0000
0000
0000
0001
,
0000
1000
0000
1001
,
0000
0000
0000
0010
,
0000
0010
0000
0010
,
0000
0010
0000
0010
,
0000
0010
0010
0020
,
0000
0030
0000
0100
,
0000
0100
0000
0100
,
0000
0100
0000
0100
,
0000
0100
0100
0200
,
0000
0300
0000
0001
,
0000
0000
0000
1000
,
0000
0000
0000
2002
,
0000
0000
0000
3003
;

//---------------dance-single - ----------------
#NOTES:
     dance-single:
     :
     Easy:
     4:
     0.155808,0.226458,0.131757,0.124437,0.000000,149.000000,131.000000,18.000000,17.000000,0.000000,0.000000,0.155808,0.226458,0.131757,0.124437,0.000000,149.000000,131.000000,18.000000,17.000000,0.000000,0.000000:
0000
0000
0000
0000
,
0000
0000
0000
1000
,
0000
0001
0000
1000
,
0000
0001
0000
1000
,
0000
0001
0000
1000
,
0000
1000
0000
0010
,
0000
0100
0000
0010
,
0000
0100
0000
0010
,
0000
0100
0000
0010
,
0000
0010
0000
1000
,
0000
1000
0000
0100
,
0000
0100
0000
0001
,
0000
0001
0000
0010
,
0000
0010
0000
1000
,
0000
0100
0000
0001
,
0000
0010
0000
1000
,
0000
0001
0000
1000
,
0000
1001
0000
0020
,
0030
0100
0010
0100
,
0000
0010
0100
0020
,
0000
0030
0000
0110
,
0000
0000
0000
2000
,
3000
0001
1000
0001
,
0000
1000
0001
2000
,
0000
3000
0000
1001
,
0000
0000
0000
0001
,
0000
0100
0000
1000
,
0000
0100
0000
0001
,
0000
1000
0001
2002
,
0000
3003
0000
1000
,
0000
0010
0000
0001
,
0000
0010
0000
1000
,
0000
0001
1000
2002
,
0000
3003
0000
0001
,
0100
0010
0000
0100
,
0001
1000
0000
0010
,
1000
0001
0000
1000
,
0010
0100
0000
0010
,
0000
1000
0000
0001
,
0000
0100
0000
0010
,
0000
1000
0001
2002
,
0000
3003
0000
1001
,
0000
0000
0000
0001
,
0000
0000
0000
0100
,
0000
0000
0000
1000
,
0000
0000
0000
0010
,
0000
0000
0000
0001
,
0000
0000
0000
1000
,
0000
0000
0000
0010
,
0000
0000
0000
0110
,
0000
1000
0000
0110
,
0000
0001
0000
1001
,
0000
0100
0000
1001
,
0000
0010
0000
0110
,
0000
0001
0000
0110
,
0000
1000
0000
1001
,
0010
0010
0100
0020
,
0000
0000
0030
1000
,
0000
0100
0000
0001
,
0000
0010
0000
1000
,
0000
0100
0010
0220
,
0000
0330
0000
0001
,
0000
0010
0000
1000
,
0000
0100
0000
0001
,
0000
0010
0100
0220
,
0000
0330
0000
1001
,
0000
1000
0000
0001
,
0000
0100
0010
0220
,
0000
0000
0000
0330
;

//---------------dance-double - ----------------
#NOTES:
     dance-double:
     :
     Easy:
     4:
     0.154762,0.226458,0.131757,0.124437,0.000000,148.000000,130.000000,18.000000,17.000000,0.000000,0.000000,0.154762,0.226458,0.131757,0.124437,0.000000,148.000000,130.000000,18.000000,17.000000,0.000000,0.000000:
00000000
00000000
00000000
00000000
,
00000000
00000000
00000000
00001000
,
00000000
01000000
00000000
00001000
,
00000000
01000000
00000000
00001000
,
00000000
01000000
00000000
00001000
,
00000000
00001000
00000000
00010000
,
00000000
00000010
00000000
00010000
,
00000000
00000010
00000000
00010000
,
00000000
00000010
00000000
00010000
,
00000000
00010000
00000000
00001000
,
00000000
00000100
00000000
00000001
,
00000000
00000010
00000000
00001000
,
00000000
00010000
00000000
00100000
,
00000000
10000000
00000000
01000000
,
00000000
00010000
00000000
00001000
,
00000000
00000010
00000000
00000001
,
00000000
00000100
00000000
00001000
,
00000000
00011000
00000000
00200000
,
00300000
00010000
00010000
01000000
,
00000000
00001000
00001000
00020000
,
00000000
00030000
00000000
00011000
,
00000000
00000000
00000000
00000200
,
00000300
00001000
00001000
00000010
,
00000000
00010000
00010000
00002000
,
00000000
00003000
00000000
00011000
,
00000000
00000000
00000000
00010000
,
00000000
01000000
00000000
10000000
,
00000000
00100000
00000000
00010000
,
00000000
00001000
00010000
00022000
,
00000000
00033000
00000000
00001000
,
00000000
00000100
00000000
00000001
,
00000000
00000010
00000000
00001000
,
00000000
00010000
00001000
00022000
,
00000000
00033000
00000000
00010000
,
01000000
10000000
00000000
10000000
,
00100000
00010000
00000000
00001000
,
00000100
00000001
00000000
00000001
,
00000010
00001000
00000000
00010000
,
00000000
00100000
00000000
10000000
,
00000000
01000000
00000000
00010000
,
00000000
00001000
00010000
00022000
,
00000000
00033000
00000000
00011000
,
00000000
00000000
00000000
00010000
,
00000000
00000000
00000000
00000010
,
00000000
00000000
00000000
00001000
,
00000000
00000000
00000000
00100000
,
00000000
00000000
00000000
00010000
,
00000000
00000000
00000000
00001000
,
00000000
00000000
00000000
00000100
,
00000000
00000000
00000000
00000110
,
00000000
00000001
00000000
00000110
,
00000000
00001000
00000000
00011000
,
00000000
00000100
00000000
00011000
,
00000000
00100000
00000000
01100000
,
00000000
10000000
00000000
01100000
,
00000000
00010000
00000000
00011000
,
00001000
00010000
00001000
00020000
,
00000000
00000000
00030000
00001000
,
00000000
00000100
00000000
00000001
,
00000000
00000010
00000000
00001000
,
00000000
00010000
01000000
22000000
,
00000000
33000000
00000000
00010000
,
00000000
00100000
00000000
10000000
,
00000000
01000000
00000000
00010000
,
00000000
00001000
00000010
00000022
,
00000000
00000033
00000000
00001001
,
00000000
00000010
00000000
00000100
,
00000000
00001000
00000000
00022000
,
00000000
00000000
00000000
00033000
;

//---------------dance-single - ----------------
#NOTES:
     dance-single:
     :
     Hard:
     11:
     0.405728,0.528401,0.666105,0.380632,0.208615,388.000000,297.000000,91.000000,52.000000,0.000000,0.000000,0.405728,0.528401,0.666105,0.380632,0.208615,388.000000,297.000000,91.000000,52.000000,0.000000,0.000000:
0000
0000
0000
0000
,
0000
0000
0000
1000
,
0010
1000
0010
0100
,
0001
0100
0001
1000
,
0010
0100
0001
1001
,
0100
0010
0100
0001
,
0010
0001
0010
0100
,
1000
0100
1000
0001
,
0010
0100
1000
1001
,
0010
0100
0010
0110
,
0100
0001
0100
0000
0010
0000
0110
0000
,
0010
1000
0010
0000
0100
0000
0110
0000
,
0100
1001
0010
0110
,
1000
0001
0100
0102
,
1003
1000
0010
2010
,
3001
0001
0010
0012
,
1003
2100
3001
0201
,
0320
2030
3002
0103
,
0000
0100
0001
0010
0100
1000
0010
0000
,
0000
0010
1000
0100
0010
0001
0200
0000
,
0000
0000
0300
0000
0000
0000
0101
0000
0000
0011
0000
0000
2002
0000
0000
0000
,
3003
1000
0010
0210
,
0000
0301
0010
0100
1000
0001
0100
0000
,
0000
1000
0100
0010
0001
1000
0020
0000
,
0000
0000
0030
0000
2000
0002
0000
0000
,
0000
0000
0000
0000
3003
0000
0000
0000
0010
0000
0000
0100
0010
0000
0100
0000
,
0000
1001
0000
0000
0010
0000
0000
1001
0000
0000
0110
0000
0000
0000
0010
0000
,
0000
1001
0000
0000
0100
0000
0000
1001
0000
0000
0110
0000
0000
0000
1000
0000
,
0000
0110
0000
0000
0001
0000
0000
0110
0000
0000
1000
0000
2002
0000
0000
0000
,
0000
0000
0000
0000
3003
0000
0000
0000
0001
0000
0000
1000
0001
0000
1000
0000
,
0000
1010
0000
0000
0001
0000
0000
0011
0000
0000
1100
0000
0000
0000
0001
0000
,
0000
0101
0000
0000
1000
0000
0000
1100
0000
0000
0011
0000
0000
0000
0100
0000
,
0000
0101
0000
0000
0010
0000
0000
1010
0000
0000
0100
0000
0220
0000
0000
0000
,
0000
0000
0000
0000
0330
0000
0000
0000
0010
0000
0000
0100
0010
0000
0000
0000
,
1000
0100
0001
0100
1000
0000
0110
0000
,
0001
0000
0010
0000
1000
0000
0010
0000
0001
0000
0000
0000
0110
0000
0000
1100
,
0000
0000
0022
0000
0000
0000
0000
0000
0033
0000
0000
0000
0101
0000
0000
1010
,
0000
2002
0000
0000
3003
0000
0000
1000
,
0000
1100
0000
0000
1010
0000
0000
0011
0000
0000
0101
0000
0000
0000
0001
0000
,
0000
0011
0000
0000
0101
0000
0000
1100
0000
0000
1010
0000
0000
0000
1000
0000
,
0000
1010
0000
0000
0011
0000
0000
1100
0000
0000
0101
0000
2002
0000
0000
0000
,
0000
0000
0000
0000
3003
0000
0000
0000
0110
0000
0000
0010
0100
0000
0000
0000
,
0002
0023
0230
2300
,
0000
0000
3010
0100
0010
0000
0000
0100
0000
0000
0001
0000
0010
0000
0000
0011
,
0000
0000
0000
0000
0001
0000
0000
0100
0000
0000
0010
0000
1000
0100
1000
0000
,
0200
0000
0000
0000
0320
0000
0000
0000
0031
0000
0000
0000
0001
0000
0000
0100
,
0000
0000
1000
0000
0000
0010
0000
0000
0001
0000
0000
0100
0000
0000
1000
0000
,
0000
0010
0000
0000
0001
0000
0000
1001
0000
0000
0000
0000
1000
0000
0000
0100
,
0000
0000
0001
0000
0000
0010
0000
0000
1000
0000
0000
0100
0000
0000
0001
0000
,
0000
0010
0000
0000
1000
0000
0000
1001
0000
0000
0000
0000
0220
0000
0030
0000
,
0000
0302
2000
0000
0000
0003
0000
0010
,
3010
1100
0022
0033
,
1001
0000
0001
0100
1000
0000
0110
0000
,
1000
0010
0001
0000
0110
0000
2002
0003
,
0000
3020
0200
0000
0000
0030
0000
0001
,
0301
0000
0000
0000
0011
0000
0000
0000
1100
0000
0000
0000
1000
0010
0000
0100
,
0001
0000
0010
0100
0010
0100
2002
0000
,
0000
0000
0000
0000
3003
0000
1000
0001
,
0000
0101
0000
0000
0010
0000
0000
1010
0000
0000
1000
0000
0100
0000
0010
0000
,
0000
0011
0000
0000
1000
0000
0000
1100
0000
0000
0100
0000
0010
0000
0001
0000
,
0000
0101
0000
0000
1100
0000
0000
0011
0000
0000
1010
0000
2002
0000
0000
0000
,
0000
0000
0000
0000
3003
0000
0000
0000
1010
0000
0000
0100
0001
0000
0010
0000
,
0000
0110
0000
0000
1100
0000
0000
1010
0000
0000
0010
0000
0100
0000
0001
0000
,
0000
1001
0000
0000
1010
0000
0000
0011
0000
0000
0001
0000
0010
0000
0100
0000
,
0000
1100
0000
0000
1010
0000
0000
0011
0000
0000
0101
0000
0220
0000
0000
0000
,
0000
0000
0000
0000
0330
0000
0000
0000
1100
0000
0000
0010
0002
0000
0000
0000
,
0000
0203
0000
2300
,
0000
0000
0000
0000
3010
0000
0000
0100
0000
0000
0010
0000
2002
0000
0000
0000
,
0000
0000
0000
3003
;

//---------------dance-double - ----------------
#NOTES:
     dance-double:
     :
     Hard:
     10:
     0.349261,0.427753,0.307433,0.307433,0.197636,334.000000,292.000000,42.000000,42.000000,0.000000,0.000000,0.349261,0.427753,0.307433,0.307433,0.197636,334.000000,292.000000,42.000000,42.000000,0.000000,0.000000:
// measure 0
00000000
00000000
00000000
00000000
,  // measure 1
00000000
00000000
00000000
01000000
,  // measure 2
00100000
00010000
00001000
01000000
,  // measure 3
00010000
00100000
00001000
01000000
,  // measure 4
00100000
00010000
00001000
00011000
,  // measure 5
00010000
00001000
00010000
00000010
,  // measure 6
00001000
00000100
00010000
00000010
,  // measure 7
00000100
00001000
00010000
00000010
,  // measure 8
00001000
00000100
00010000
00011000
,  // measure 9
00001000
00010000
00001000
00100000
,  // measure 10
01000000
00010000
00001000
00000010
,  // measure 11
00000100
00010000
00001000
00011000
,  // measure 12
01000000
00011000
00000010
00011000
,  // measure 13
00010000
01000000
10000000
11000000
,  // measure 14
01000000
00100000
00010000
00011000
,  // measure 15
00001000
00000100
00000001
00000101
,  // measure 16
00000100
00001000
00010000
00011000
,  // measure 17
00000100
00011000
00100000
00011000
,  // measure 18
00000000
00001000
00010000
00100000
01000000
00010000
00100000
00000000
,  // measure 19
00000000
00100000
00010000
01000000
00100000
00010000
00002000
00000000
,  // measure 20
00000000
00000000
00003000
00000000
00000000
00000000
00011000
00000000
00000000
01001000
00000000
00000000
00020200
00000000
00000000
00000000
,  // measure 21
00030300
00000100
00001000
00001002
,  // measure 22
00000000
00000103
00000010
00001000
00000100
00010000
00001000
00000000
,  // measure 23
00000000
00100000
00010000
01000000
00100000
10000000
02000000
00000000
,  // measure 24
00000000
00000000
03000000
00000000
00020000
00002000
00000000
00000000
,  // measure 25
00000000
00000000
00000000
00000000
00033000
00000000
00000000
00000000
00001000
00000000
00000000
00010000
00001000
00000000
00010000
00000000
,  // measure 26
00000000
01000000
00000000
00000000
10000000
00000000
00000000
00100000
00000000
00000000
00010000
00000000
00000000
00000000
00001000
00000000
,  // measure 27
00000000
00000100
00000000
00000000
00000001
00000000
00000000
00000010
00000000
00000000
00001000
00000000
00000000
00000000
00010000
00000000
,  // measure 28
00000000
00010100
00000000
00000000
00001000
00000000
00000000
01001000
00000000
00000000
00010000
00000000
00022000
00000000
00000000
00000000
,  // measure 29
00000000
00000000
00000000
00000000
00033000
00000000
00000000
00000000
00010000
00000000
00000000
00001000
00010000
00000000
00001000
00000000
,  // measure 30
00000000
00000100
00000000
00000000
00000001
00000000
00000000
00000010
00000000
00000000
00001000
00000000
00000000
00000000
00010000
00000000
,  // measure 31
00000000
01000000
00000000
00000000
10000000
00000000
00000000
00100000
00000000
00000000
00010000
00000000
00000000
00000000
00001000
00000000
,  // measure 32
00000000
01001000
00000000
00000000
00010000
00000000
00000000
00010100
00000000
00000000
00001000
00000000
00022000
00000000
00000000
00000000
,  // measure 33
00000000
00000000
00000000
00000000
00033000
00000000
00000000
00000000
00010000
00000000
00000000
00001000
00010000
00000000
00000000
00000000
,  // measure 34
00000100
00001000
00000001
00000100
00001000
00000000
00011000
00000000
,  // measure 35
00100000
00000000
00010000
00000000
10000000
00000000
00100000
00000000
00010000
00000000
00000000
00000000
00011000
00000000
00000000
00101000
,  // measure 36
00000000
00000000
00020020
00000000
00000000
00000000
00000000
00000000
00030030
00000000
00000000
00000000
00011000
00000000
00000000
00010100
,  // measure 37
00000000
02002000
00000000
00000000
03003000
00000000
00000000
01000000
,  // measure 38
00000000
00100000
00000000
00000000
00010000
00000000
00000000
00001000
00000000
00000000
00000010
00000000
00000000
00000000
00000100
00000000
,  // measure 39
00000000
00000010
00000000
00000000
00001000
00000000
00000000
00010000
00000000
00000000
00100000
00000000
00000000
00000000
10000000
00000000
,  // measure 40
00000000
01000000
00000000
00000000
00010000
00000000
00000000
00001000
00000000
00000000
00000010
00000000
00000220
00000000
00000000
00000000
,  // measure 41
00000000
00000000
00000000
00000000
00000330
00000000
00000000
00000000
00001001
00000000
00000000
00001000
00000001
00000000
00000000
00000000
,  // measure 42
00000200
00002300
00023000
00230000
,  // measure 43
00000000
00000000
10300000
00000000
01000000
00000000
00000000
00010000
00000000
00000000
00001000
00000000
00000010
00000000
00000000
00000011
,  // measure 44
00000000
00000000
00000000
00000000
00000001
00000000
00000000
00000100
00000000
00000000
00001000
00000000
00010000
00000000
00100000
00000000
,  // measure 45
20000000
00000000
00000000
00000000
30020000
00000000
00000000
00000000
01030000
00000000
00000000
00000000
01000000
00000000
00000000
00100000
,  // measure 46
00000000
00000000
00010000
00000000
00000000
00001000
00000000
00000000
00000100
00000000
00000000
00000010
00000000
00000000
00001000
00000000
,  // measure 47
00000000
00000100
00000000
00000000
00000010
00000000
00000000
00001001
00000000
00000000
00000000
00000000
00000100
00000000
00000000
00000010
,  // measure 48
00000000
00000000
00001000
00000000
00000000
00010000
00000000
00000000
01000000
00000000
00000000
00100000
00000000
00000000
00010000
00000000
,  // measure 49
00000000
01000000
00000000
00000000
00100000
00000000
00000000
10010000
00000000
00000000
00000000
00000000
02200000
00000000
00300000
00000000
,  // measure 50
00000000
00010000
00020000
00000000
00000000
00030000
00000000
00001000
,  // measure 51
03001000
00010000
00022000
00033000
,  // measure 52
00011000
00000000
00001000
00000100
00000001
00000000
00000010
00000000
,  // measure 53
00001000
00000100
00000001
00000000
00000010
00000000
00000220
00000030
,  // measure 54
00000000
00001000
00002000
00000000
00000000
00003000
00000000
00010000
,  // measure 55
00010300
00000000
00000000
00000000
00001000
00000000
00000000
00000000
00011000
00000000
00000000
00000000
00010000
00000000
00000000
00001000
,  // measure 56
00000000
00010000
01000000
10000000
00100000
00010000
00022000
00000000
,  // measure 57
00000000
00000000
00000000
00000000
00033000
00000000
00010000
00001000
,  // measure 58
00000000
00000100
00000000
00000000
00000001
00000000
00000000
00000010
00000000
00000000
00001000
00000000
00010000
00000000
00001000
00000000
,  // measure 59
00000000
00000100
00000000
00000000
00001000
00000000
00000000
00010000
00000000
00000000
01000000
00000000
00010000
00000000
00001000
00000000
,  // measure 60
00000000
00010000
00000000
00000000
01000000
00000000
00000000
10000000
00000000
00000000
00100000
00000000
02200000
00000000
00000000
00000000
,  // measure 61
00000000
00000000
00000000
00000000
03300000
00000000
00000000
00000000
00100000
00000000
00000000
00010000
00001000
00000000
00010000
00000000
,  // measure 62
00000000
01000000
00000000
00000000
10000000
00000000
00000000
00100000
00000000
00000000
00010000
00000000
00001000
00000000
00010000
00000000
,  // measure 63
00000000
01000000
00000000
00000000
00010000
00000000
00000000
00001000
00000000
00000000
00000100
00000000
00001000
00000000
00010000
00000000
,  // measure 64
00000000
00001000
00000000
00000000
00000100
00000000
00000000
00000001
00000000
00000000
00000010
00000000
00000220
00000000
00000000
00000000
,  // measure 65
00000000
00000000
00000000
00000000
00000330
00000000
00000000
00000000
00000100
00000000
00000000
00010000
00002000
00000000
00000000
00000000
,  // measure 66
00000000
00203000
00000000
02300000
,  // measure 67
00000000
00000000
00000000
00000000
13000000
00000000
00000000
00100000
00000000
00000000
00010000
00000000
00022000
00000000
00000000
00000000
,  // measure 68
00000000
00000000
00000000
00033000
;

//---------------dance-single - ----------------
#NOTES:
     dance-single:
     :
     Medium:
     7:
     0.295931,0.377429,0.241555,0.212275,0.047579,283.000000,250.000000,33.000000,29.000000,0.000000,0.000000,0.295931,0.377429,0.241555,0.212275,0.047579,283.000000,250.000000,33.000000,29.000000,0.000000,0.000000:
0000
0000
0000
0000
,
0000
0000
0000
1000
,
0001
1000
0001
0100
,
0010
0100
0010
1000
,
0001
0100
0010
0220
,
0000
0000
0330
0001
,
1000
0001
1000
0010
,
0100
0010
0100
0001
,
1000
0010
0100
0220
,
0000
0000
0330
0010
,
1000
1010
0000
0100
,
0001
0101
0000
0010
,
1000
0100
0010
0002
,
1003
0010
0100
0020
,
1030
0100
0010
0200
,
0301
0010
0100
0020
,
0031
0200
1300
2002
,
0003
0001
0001
3001
,
0000
0001
0001
0000
0100
0000
1000
0000
,
0000
1000
1000
0000
0100
0000
0001
0000
,
0000
0000
0000
0000
0000
0000
0010
0000
0000
0100
0000
0000
0010
0000
0000
0000
,
0000
0001
1000
1001
,
0000
0010
0010
0000
1000
0000
0100
0000
,
0000
0100
0100
0000
0001
0000
0010
0000
,
0000
0000
0000
0000
0020
0200
0000
0000
,
0000
0330
1100
0011
,
0001
0000
0100
0000
0010
0100
0010
0000
,
0100
0000
0001
0000
0010
0100
0010
0000
,
0001
0000
0100
0000
0010
0100
0220
0000
,
0000
0330
0101
1010
,
1000
0000
0100
0000
0010
0100
0010
0000
,
0100
0000
1000
0000
0010
0100
0010
0000
,
1000
0000
0100
0000
0010
0100
0220
0000
,
0000
0330
1001
0110
,
0001
0100
0001
0100
0001
0000
0001
0000
,
1000
0000
0010
0000
1000
0000
0010
0000
1000
0000
0000
0000
1000
0000
0000
0100
,
0000
0000
0001
0000
0000
0000
0000
0000
0011
0000
0000
0000
0001
0000
0000
0100
,
0000
1000
0000
0000
1100
0000
1000
0000
,
0010
0000
0100
0010
0100
0000
0001
0000
,
0100
0000
0010
0100
0010
0000
1000
0000
,
0001
0000
0100
0010
0100
0010
0220
0000
,
0000
0000
0330
1001
,
0000
1000
0000
0010
,
0000
0001
0000
0100
,
0000
1000
0000
0010
,
0000
0000
0000
0000
0100
0000
0000
0000
0000
0000
0000
0000
0001
0000
0000
0001
,
0000
0000
0010
0000
0000
0010
0000
0000
0100
0000
0000
0100
0000
0000
1000
0000
,
0000
1000
0000
0000
1001
0000
0000
0000
0000
0000
0000
0000
1000
0000
0000
1000
,
0000
0000
0010
0000
0000
0010
0000
0000
0100
0000
0000
0100
0000
0000
0001
0000
,
0000
0001
0000
0000
1001
0000
0000
0000
0000
0000
0000
0000
0110
0000
0000
0000
,
0000
0100
0200
0000
0000
0000
0301
0000
,
0100
0010
1000
0100
,
0010
0000
0001
0010
0001
0000
0001
0000
,
1000
0100
1000
0000
1000
0000
1001
0000
,
0000
0010
0020
0000
0000
0000
1030
0000
,
0010
0000
0000
0000
0100
0000
0000
0000
0001
0000
0000
0000
0010
0000
0000
0100
,
0000
0010
0100
1000
0001
0000
2002
0000
,
0000
0000
3003
1001
,
1000
0000
0010
0000
0001
0100
0001
0000
,
0010
0000
1000
0000
0100
0001
0100
0000
,
1000
0000
0010
0000
0100
0010
0220
0000
,
0000
0330
1010
0101
,
0001
0000
0010
0000
1000
0100
1000
0000
,
0010
0000
0001
0000
0100
1000
0100
0000
,
0001
0000
0010
0000
0100
0010
0220
0000
,
0000
0330
1100
0011
,
0000
0101
0000
1010
,
0000
0000
0000
0000
1000
0000
0000
0001
0000
0000
1000
0000
2002
0000
0000
0000
,
0000
0000
0000
3003
;

//---------------dance-double - ----------------
#NOTES:
     dance-double:
     :
     Medium:
     7:
     0.285474,0.402591,0.226915,0.212275,0.047579,273.000000,242.000000,31.000000,29.000000,0.000000,0.000000,0.285474,0.402591,0.226915,0.212275,0.047579,273.000000,242.000000,31.000000,29.000000,0.000000,0.000000:
00000000
00000000
00000000
00000000
,
00000000
00000000
00000000
01000000
,
00100000
01000000
00100000
00010000
,
00001000
00010000
00001000
01000000
,
00100000
00010000
00001000
00022000
,
00000000
00000000
00033000
00000100
,
00000010
00000100
00000010
00001000
,
00010000
00001000
00010000
00000100
,
00000010
00001000
00010000
00022000
,
00000000
00000000
00033000
00001000
,
01000000
01001000
00000000
00010000
,
00000010
00010010
00000000
00010000
,
00001000
00000100
00000001
00000020
,
00000130
00000010
00000001
00000200
,
00001300
00000100
00001000
00020000
,
00031000
00010000
00001000
00200000
,
00310000
20000000
31000000
20200000
,
30000000
00010000
00010000
00310000
,
00000000
00010000
00010000
00000000
00001000
00000000
00000010
00000000
,
00000000
00001000
00001000
00000000
00010000
00000000
01000000
00000000
,
00000000
00000000
00000000
00000000
00000000
00000000
00010000
00000000
00000000
00001000
00000000
00000000
00010000
00000000
00000000
00000000
,
00000000
00001000
00010000
00011000
,
00000000
00001000
00001000
00000000
00010000
00000000
00100000
00000000
,
00000000
00010000
00010000
00000000
00001000
00000000
00000100
00000000
,
00000000
00000000
00000000
00000000
00002000
00020000
00000000
00000000
,
00000000
00033000
00011000
00011000
,
00010000
01000000
10000000
00100000
,
00010000
00001000
00010000
01000000
,
10000000
00000000
00100000
00000000
00010000
00001000
00022000
00000000
,
00000000
00033000
00011000
00011000
,
00001000
00000100
00000001
00000010
,
00001000
00010000
00001000
00000100
,
00000001
00000000
00000010
00000000
00001000
00010000
00022000
00000000
,
00000000
00033000
00011000
00011000
,
00010000
01000000
10000000
01000000
00010000
00000000
00011000
00000000
,
00001000
00000000
00000010
00000000
00000001
00000000
00000010
00000000
00001000
00000000
00000000
00000000
00010000
00000000
00000000
00001000
,
00000000
00000000
00000100
00000000
00000000
00000000
00000000
00000000
00001000
00000000
00000000
00000000
00001000
00000000
00000000
00010000
,
00000000
00100000
00000000
00000000
01100000
00000000
10000000
00000000
,
01000000
00010000
00001000
00000010
,
00000001
00000100
00001000
00010000
,
00100000
00000000
10000000
00000000
01000000
00100000
02200000
00000000
,
00000000
00000000
03300000
10010000
,
00000000
10000000
00000000
01000000
,
00000000
00100000
00000000
00010000
,
00000000
00001000
00000000
00000010
,
00000000
00000000
00000000
00000000
00000100
00000000
00000000
00000000
00000000
00000000
00000000
00000000
00000001
00000000
00000000
00000001
,
00000000
00000000
00000010
00000000
00000000
00000010
00000000
00000000
00000100
00000000
00000000
00000100
00000000
00000000
00010000
00000000
,
00000000
00010000
00000000
00000000
00001000
00000000
00000000
00000000
00000000
00000000
00000000
00000000
00010000
00000000
00000000
00010000
,
00000000
00000000
00001000
00000000
00000000
00001000
00000000
00000000
00100000
00000000
00000000
00100000
00000000
00000000
01000000
00000000
,
00000000
01000000
00000000
00000000
10000000
00000000
00000000
00000000
00000000
00000000
00000000
00000000
10010000
00000000
00000000
00000000
,
00000000
01000000
02000000
00000000
00000000
00000000
03100000
00000000
,
00010000
00001000
00000100
00000010
,
00000100
00000000
00000001
00000010
00000001
00000000
00000100
00000000
,
00001000
00010000
00001000
00000000
00010000
00000000
00011000
00000000
,
00000000
00000010
00000020
00000000
00000000
00000000
00000130
00000000
,
00001000
00000000
00000000
00000000
00010000
00000000
00000000
00000000
00100000
00000000
00000000
00000000
01000000
00000000
00000000
00100000
,
00000000
10000000
01000000
00000000
00010000
00000000
00022000
00000000
,
00000000
00000000
00033000
00011000
,
00001000
00000000
00000100
00000000
00000001
00000010
00000001
00000000
,
00000100
00000000
00001000
00000000
00010000
00001000
00010000
00000000
,
01000000
00000000
10000000
00000000
00100000
00010000
00022000
00000000
,
00000000
00033000
00011000
00011000
,
00010000
00000000
01000000
00000000
10000000
00100000
10000000
00000000
,
01000000
00000000
00010000
00000000
00001000
00010000
00001000
00000000
,
00000100
00000000
00000001
00000000
00000010
00001000
00022000
00000000
,
00000000
00033000
00011000
00011000
,
00000000
01001000
00000000
00010010
,
00000000
00000000
00000000
00000000
00010000
00000000
00000000
00001000
00000000
00000000
00010000
00000000
00022000
00000000
00000000
00000000
,
00000000
00000000
00000000
00033000
;
