#VERSION:0.83;
#TITLE:I AM;
#SUBTITLE:;
#ARTIST:IVE;
#TITLETRANSLIT:;
#SUBTITLETRANSLIT:;
#ARTISTTRANSLIT:;
#GENRE:K-POP;
#ORIGIN:;
#CREDIT:MUINELIM;
#BANNER:I AM.png;
#BACKGROUND:I AM-bg.png;
#PREVIEWVID:;
#JACKET:I AM-jacket.png;
#CDIMAGE:;
#DISCIMAGE:;
#LYRICSPATH:;
#CDTITLE:;
#MUSIC:I AM.ogg;
#OFFSET:-0.450000;
#SAMPLESTART:52.601151;
#SAMPLELENGTH:15.245907;
#SELECTABLE:YES;
#DISPLAYBPM:122.000000;
#BPMS:0.000=122.000;
#STOPS:104.000=0.492,
173.000=2.459;
#DELAYS:;
#WARPS:;
#TIMESIGNATURES:0.000=4=4;
#TICKCOUNTS:0.000=4;
#COMBOS:0.000=1;
#SPEEDS:0.000=1.000=0.000=0;
#SCROLLS:0.000=1.000;
#FAKES:;
#LABELS:0.000=Song Start;
#BGCHANGES:0.000=I AM-bg.png=1.000=0=0=1====#000000=#000000,
2.000=I AM.mp4=1.000=1=0=0=StretchNoLoop==CrossFade==,
99999=-nosongbg-=1.000=0=0=0 // don't automatically add -songbackground-
;
#KEYSOUNDS:;
#ATTACKS:
;

//---------------dance-single - ----------------
#NOTEDATA:;
#CHARTNAME:;
#STEPSTYPE:dance-single;
#DESCRIPTION:;
#CHARTSTYLE:;
#DIFFICULTY:Beginner;
#METER:3;
#RADARVALUES:0.095681,0.164961,0.008269,0.033075,0.000000,81.000000,80.000000,1.000000,4.000000,0.000000,0.000000,0.000000,0.000000,0.000000,0.095681,0.164961,0.008269,0.033075,0.000000,81.000000,80.000000,1.000000,4.000000,0.000000,0.000000,0.000000,0.000000,0.000000;
#CREDIT:;
#DISPLAYBPM:122.000000;
#NOTES:
0000
0000
0000
0000
,
0000
0000
0000
0000
,
0000
0000
1000
0000
,
0000
0000
1000
0000
,
0000
0000
1000
0000
,
0000
0000
1000
0000
,
0000
0000
0001
0000
,
0000
0000
0001
0000
,
0000
0000
0001
0000
,
0000
0000
0001
0000
,
0000
0000
1000
0000
,
1000
0000
1000
0000
,
0000
0000
0100
0000
,
0000
0000
0010
0000
,
0000
0000
0001
0000
,
0001
0000
0001
0000
,
0000
0000
0010
0000
,
0000
0000
0100
0000
,
0000
0000
1000
0000
,
0000
0000
0001
0000
,
0000
0000
1000
0000
,
0000
0000
0001
0000
,
0000
0000
0100
0000
,
0000
0000
0010
0000
,
0000
0000
0100
0000
,
0000
0000
0010
0000
,
0000
1000
0000
1000
,
0000
1000
0000
1000
,
0000
0001
0000
0001
,
0000
0001
0000
0001
,
0000
1000
0000
0001
,
0000
1000
0000
0001
,
0000
0100
0000
0010
,
0000
0200
0000
0300
,
0000
0001
0000
0000
,
0000
0010
0000
0000
,
0000
0100
0000
0000
,
0000
1000
0000
0000
,
0000
0010
0000
0100
,
0000
0010
0000
0100
,
0000
0010
0000
0010
,
0000
0010
0000
0020
,
0000
0000
0000
0000
,
0030
0000
0000
0000
,
1000
0000
0001
0000
,
0100
0000
0010
0000
,
1000
0000
0001
0000
,
0100
0000
0010
0000
,
0100
0100
0100
0100
,
0100
0000
0000
0000
,
0001
0000
0010
0000
,
0100
0000
1000
0000
,
0100
0000
0010
0000
,
0001
0000
1000
0000
,
0010
0000
0100
0000
,
0010
0010
0010
0000
,
2002
0000
0000
0000
,
3003
0000
0000
0000
;

//---------------dance-single - ----------------
#NOTEDATA:;
#CHARTNAME:;
#STEPSTYPE:dance-single;
#DESCRIPTION:;
#CHARTSTYLE:;
#DIFFICULTY:Easy;
#METER:5;
#RADARVALUES:0.163012,0.235658,0.074418,0.132299,0.000000,138.000000,129.000000,9.000000,16.000000,0.000000,0.000000,0.000000,0.000000,0.000000,0.163012,0.235658,0.074418,0.132299,0.000000,138.000000,129.000000,9.000000,16.000000,0.000000,0.000000,0.000000,0.000000,0.000000;
#CREDIT:;
#DISPLAYBPM:122.000000;
#NOTES:
0000
0000
0000
0000
,
0000
0000
0000
0000
,
0000
0000
1000
0000
,
1000
0000
0001
0000
,
0001
0000
1000
0000
,
0001
0000
1000
0000
,
1001
0000
0010
0000
,
0010
0000
0100
0000
,
0100
0000
0010
0000
,
0100
0000
0010
0000
,
0110
0000
1000
0000
,
0100
0000
0010
0000
,
0001
0000
0100
0010
,
0100
0100
0200
0300
,
0000
0000
0001
0000
,
0010
0000
0100
0000
,
1000
0000
0010
0100
,
0010
0010
0020
0030
,
0000
0000
1000
0000
,
0000
0000
0100
0000
,
0000
0000
0001
0000
,
0000
0000
0010
0000
,
0000
0000
1000
0000
,
0100
0000
0001
0000
,
0010
0000
1000
0000
,
0001
0000
2002
0000
,
3003
1000
0100
1000
,
0100
1000
1000
1000
,
0000
0001
0010
0001
,
0010
0001
0001
0001
,
0000
0100
0001
0100
,
0001
0100
0100
0100
,
0000
0010
1000
0010
,
1000
0020
0000
0030
,
0100
0010
0000
0000
,
0100
0010
0000
0000
,
1000
0001
0000
0000
,
1000
0001
0000
0000
,
1000
2000
3000
0020
,
0030
0200
0300
0002
,
0003
1001
0000
0110
,
0000
1001
0000
0220
,
0000
0000
0000
0000
,
0330
0000
0000
0000
,
1000
0010
0100
0001
,
1000
1000
1000
0000
,
0001
0100
0010
1000
,
0001
0001
0001
0000
,
2000
3000
0002
0003
,
0200
0300
0010
0010
,
1000
0100
0010
0001
,
0100
0010
0100
0000
,
0001
0010
0100
1000
,
0010
0100
0010
0000
,
1000
0001
1000
0010
,
0100
0010
0110
0000
,
2002
0000
0000
0000
,
3003
0000
0000
0000
;

//---------------dance-single - ----------------
#NOTEDATA:;
#CHARTNAME:;
#STEPSTYPE:dance-single;
#DESCRIPTION:;
#CHARTSTYLE:;
#DIFFICULTY:Challenge;
#METER:15;
#RADARVALUES:0.640234,0.639067,0.322479,0.305942,1.252708,542.000000,503.000000,39.000000,37.000000,0.000000,0.000000,0.000000,0.000000,0.000000,0.640234,0.639067,0.322479,0.305942,1.252708,542.000000,503.000000,39.000000,37.000000,0.000000,0.000000,0.000000,0.000000,0.000000;
#CREDIT:HUCAR;
#DISPLAYBPM:122.000000;
#NOTES:
0000
0000
0000
0000
,
0000
0000
0000
0000
0000
0000
0000
0000
0000
0000
0000
0000
1000
0000
0010
0000
0100
0000
0001
0000
0010
0000
0100
1000
,
0100
0000
0010
0000
0001
0000
0100
0000
0001
0000
1000
0010
1000
0000
0000
0000
1010
0000
0000
0000
1000
0000
0010
0000
,
0100
0010
1000
0100
0010
0001
0100
0000
0101
0000
0001
0100
,
0010
0100
0001
0010
0100
1000
0010
0000
0110
0000
0000
0100
,
0010
1000
0100
0020
0030
0100
1000
0001
0100
0020
0030
0000
,
1001
0000
0011
0000
1100
0000
0001
0000
0101
0000
0001
0100
,
0010
0100
0001
0010
0100
1000
0010
0000
1010
0000
1000
0010
,
0100
0010
1000
0100
0010
0001
0100
0000
0110
0000
1000
0010
,
0100
0001
0010
0200
0300
0010
0001
1000
0010
0200
0300
0000
,
1001
0000
1100
0000
0011
0000
1000
0100
0010
1000
0010
0100
,
1000
0010
0100
0001
0010
0100
0001
0100
0010
0001
0010
0100
,
1000
0000
0100
0000
0010
0000
0002
0000
0000
0000
0003
0000
0100
0000
0010
0000
1000
0000
0001
0100
0001
0000
1000
0000
,
0010
0000
1000
0000
0100
0000
0010
0001
0010
0100
1000
0010
0200
0000
0000
0000
0000
0000
0000
0000
0300
0000
0000
0000
,
1001
0000
0011
0000
1100
0000
0001
0010
0100
0001
0100
0010
,
0001
0100
0010
1000
0100
0010
1000
0010
0100
1000
0100
0010
,
0001
0000
0010
0000
0100
0000
2000
0000
0000
0000
3000
0000
0010
0000
0100
0000
0001
0000
1000
0010
1000
0000
0001
0000
,
0100
0000
0001
0000
0010
0000
0100
1000
0100
0010
0001
0100
0020
0000
0030
0000
0000
0000
1010
0000
0000
0000
0000
0000
,
0200
0300
0000
0101
0000
0000
2000
3000
0000
1100
0000
0000
,
0010
0000
1000
0100
0000
0010
0001
0000
0000
0011
0000
0000
,
1100
0000
0000
0010
0000
1000
0010
0000
0000
0101
0000
0000
,
0010
0000
0001
1000
0000
0010
0100
0000
0000
1010
0000
0000
,
0101
0000
0000
0001
0000
0010
0002
0003
0000
0011
0000
0000
,
0100
0000
0001
0010
0000
0100
1000
0000
0000
1100
0000
0000
,
0011
0000
0000
1100
0000
0000
0202
0303
0000
2200
3300
0000
,
2020
3030
0000
0022
0033
0000
2002
0000
0000
0000
0000
0000
,
3003
0000
0000
1000
0010
0100
0001
0010
0100
0001
0100
0010
,
0001
0100
0010
0001
0010
0100
0001
0010
0100
1000
0100
0010
,
0001
0100
0010
0001
0010
0100
0001
0010
0100
0001
0100
0010
,
0001
0010
0100
1000
0010
0100
1000
0100
0010
0100
0001
2000
,
3100
0000
0000
0000
0100
1000
0001
0000
0100
0000
0010
0000
1000
0000
0100
0000
0010
0000
1000
0000
0010
0000
0100
0000
,
1000
0010
0100
1000
0100
0010
1000
0100
0010
0001
0010
0100
,
1000
0010
0100
1000
0100
0010
1000
0100
0010
1000
0010
0100
,
1000
0000
0100
0000
0010
0000
0001
0000
0100
0000
0010
0000
0001
0000
0010
0000
1000
0100
1000
0000
0010
0000
0100
0000
,
0001
0000
0010
0000
0100
1000
0020
0000
0000
0000
0000
0000
0100
0000
0000
0000
0000
0000
0000
0000
0000
0000
0000
0000
,
0130
2000
0100
0000
,
3100
0002
0100
0000
,
0103
2000
0010
0000
,
3010
0000
0000
1000
0100
0010
0001
0000
0000
0001
0010
0100
,
1000
0000
0000
1000
0100
0010
0001
0010
0100
1000
0100
0010
,
0001
0000
0000
1000
0000
1010
0000
1100
0000
0001
0000
0101
,
0000
0011
0000
0010
0000
0101
0000
1010
0000
0002
0000
0020
,
0000
0000
0000
0000
,
0000
0000
0000
0000
0000
0000
0033
0000
0000
0000
0010
0001
0100
0000
0010
0000
1000
0000
0100
0000
0010
0000
0001
0000
,
0100
0010
0100
0001
0010
0100
1000
0010
0100
1000
0100
0010
,
1000
0000
0100
0000
0010
0000
0001
0000
0100
0000
0010
0000
0001
0000
0010
0000
2000
0000
3100
0000
0000
0000
0100
1000
,
0010
0100
0010
1000
0100
0010
0001
0100
0010
0001
0010
0100
,
0001
0010
0100
1000
0010
0100
1000
0100
0002
0013
0000
0010
,
0001
0100
0010
1000
0100
1000
0010
1000
0100
1000
0010
0100
,
0001
0000
0010
0000
0100
0000
1000
0000
0100
0000
0010
0001
0100
0000
0010
0000
0001
0000
0010
0000
1000
0000
0100
0010
,
0001
0100
1000
0100
0010
1000
0100
0010
0001
0100
0010
0001
,
0010
0100
0001
0010
0100
0001
0100
1000
0010
0001
0010
0100
,
0001
1000
0100
0010
1000
0010
0100
1000
0010
0100
1000
0100
,
0010
0000
1000
0000
0100
0000
0010
0000
0001
0000
0100
0000
1000
0000
0100
0000
0010
0000
1000
0000
0100
0000
0010
0001
,
1000
0010
0001
0010
0100
0001
0010
0100
1000
0010
0100
1000
,
0100
0010
1000
0100
0010
1000
0010
0001
0100
2000
3000
0100
,
0002
0000
0003
0020
0000
0030
2000
0000
3000
0200
0300
0000
,
2002
3003
0000
0000
;

//---------------dance-double - ----------------
#NOTEDATA:;
#CHARTNAME:;
#STEPSTYPE:dance-double;
#DESCRIPTION:;
#CHARTSTYLE:;
#DIFFICULTY:Easy;
#METER:5;
#RADARVALUES:0.164193,0.212092,0.074418,0.140568,0.000000,139.000000,130.000000,9.000000,17.000000,0.000000,0.000000,0.000000,0.000000,0.000000,0.164193,0.212092,0.074418,0.140568,0.000000,139.000000,130.000000,9.000000,17.000000,0.000000,0.000000,0.000000,0.000000,0.000000;
#CREDIT:;
#DISPLAYBPM:122.000000;
#NOTES:
00000000
00000000
00000000
00000000
,
00000000
00000000
00000000
00000000
,
00000000
00000000
00001000
00000000
,
00001000
00000000
01000000
00000000
,
01000000
00000000
00001000
00000000
,
01000000
00000000
00001000
00000000
,
00011000
00000000
00010000
00000000
,
00010000
00000000
00000100
00000000
,
00000100
00000000
00010000
00000000
,
00000100
00000000
00010000
00000000
,
00011000
00000000
00001000
00000000
,
00100000
00000000
00010000
00000000
,
01000000
00000000
00001000
00010000
,
00001000
00010000
00002000
00003000
,
00000000
00000000
00010000
00000000
,
00000010
00000000
00001000
00000000
,
00000100
00000000
00010000
00001000
,
00010000
00001000
00020000
00030000
,
00000000
00000000
00001000
00000000
,
00010000
00000000
01000000
00000000
,
10000000
00000000
00100000
00000000
,
00010000
00000000
00001000
00000000
,
00000100
00000000
00000001
00000000
,
00000010
00000000
00001000
00000000
,
00010000
00000000
01000000
00000000
,
10000000
00000000
20020000
00000000
,
30030000
00010000
00100000
01000000
,
00000000
00010000
00001000
00011000
,
00000000
00001000
00000100
00000010
,
00000000
00001000
00010000
00011000
,
00000000
00010000
01000000
10000000
,
00000000
00100000
00010000
00011000
,
00000000
00001000
00000010
00000001
,
00000000
00002002
00000000
00003003
,
00001000
00000010
00000000
00000000
,
00010000
00001000
00000000
00000000
,
01000000
00010000
00000000
00000000
,
00100000
01000000
00000000
00000000
,
10000000
00200000
00300000
00020000
,
00030000
00002000
00003000
00000200
,
00000300
00000001
00000010
00000100
,
00001000
00000010
00010000
00022000
,
00000000
00000000
00000000
00000000
,
00033000
00000000
00000000
00000000
,
00001000
00010000
01000000
00000000
,
00010000
00001000
00000100
00000000
,
00001000
00010000
00100000
00000000
,
00010000
00001000
00000010
00000000
,
00000002
00000003
00000200
00000300
,
00002000
00003000
00010000
00010000
,
00000100
00001000
00000010
00010000
,
00001000
00100000
00010000
00000000
,
00100000
00010000
01000000
00001000
,
00010000
00000100
00001000
00000000
,
00000010
00010000
00001000
01000000
,
00010000
00100000
00001000
00000000
,
00022000
00000000
00000000
00000000
,
00033000
00000000
00000000
00000000
;

//---------------dance-single - ----------------
#NOTEDATA:;
#CHARTNAME:;
#STEPSTYPE:dance-single;
#DESCRIPTION:;
#CHARTSTYLE:;
#DIFFICULTY:Hard;
#METER:12;
#RADARVALUES:0.473678,0.544390,0.487853,0.181911,0.628421,401.000000,342.000000,59.000000,22.000000,0.000000,0.000000,0.000000,0.000000,0.000000,0.473678,0.544390,0.487853,0.181911,0.628421,401.000000,342.000000,59.000000,22.000000,0.000000,0.000000,0.000000,0.000000,0.000000;
#CREDIT:;
#DISPLAYBPM:122.000000;
#NOTES:
0000
0000
0000
0000
,
0000
0000
2002
0000
,
0000
0000
0000
3003
0000
0000
1010
0000
1010
0000
1000
0100
,
0010
0100
1000
0100
0000
0000
0011
0000
0011
0000
0001
0100
,
0010
0100
0001
0100
0000
0100
0010
0000
1010
0000
0000
1000
,
0100
0010
0001
0010
0000
0010
0001
0000
0001
0100
0000
0000
,
0100
0000
0110
0000
1010
0000
0101
0000
0101
0000
0001
0010
,
0100
0010
0001
0010
0000
0000
1100
0000
1100
0000
1000
0010
,
0100
0010
1000
0010
0000
0010
0100
0000
0101
0000
0001
0010
,
0100
1000
0010
0200
0000
0000
0301
1000
0100
0010
0000
0000
,
0011
0000
0101
0000
1100
0000
1010
0000
0010
0100
0000
0100
,
0001
0000
0001
1000
0000
1000
0010
0000
0010
0100
0000
0100
,
0001
0000
0001
0010
0000
0010
0100
0000
1100
0000
0010
0000
,
0011
0000
0100
0000
0110
0000
1001
0000
0000
0110
0000
0000
,
1010
0000
1100
0000
0101
0000
0011
0000
0010
0100
0000
0100
,
1000
0000
1000
0001
0000
0001
0100
0000
0100
0010
0000
0010
,
1000
0000
1000
0100
0000
0100
0010
0000
0011
0000
0100
0000
,
1100
0000
0010
0000
0110
0000
2002
0000
0000
0000
0000
0000
,
0000
3003
1000
0010
,
0001
0000
0010
0100
0000
0010
1000
0000
0000
0100
0000
0000
,
0001
0000
0000
0100
0000
1000
0001
0000
0000
0010
0000
0000
,
1000
0000
0010
0100
0000
0010
0001
0000
0000
0100
0000
0000
,
1000
0000
0000
0100
0000
0001
1000
0000
0000
0100
0000
0000
,
0001
0000
0100
1000
0000
0100
0010
0000
0000
0001
0000
0000
,
0200
0310
1000
0001
,
0010
0100
2002
3003
,
1001
0000
0000
1010
0000
0000
0101
0000
0000
0100
0000
0010
,
1000
0000
0100
1000
0000
0000
1100
0000
0000
0011
0000
0000
,
0001
0000
0100
0020
0000
0000
1030
0000
0000
1000
0000
0001
,
0010
0000
0100
0010
0000
0000
0011
0000
0000
1100
0000
0000
,
1000
0010
0100
0001
0000
0001
0010
0000
0010
0100
0000
0100
,
1000
0000
1000
0010
0000
0010
0100
0000
0100
0001
0000
0000
,
1001
0000
1000
0010
0000
0010
0100
0000
0100
0001
0000
0001
,
0010
0000
0010
0100
1000
0100
0010
0100
0010
0001
0100
0010
,
1000
0100
0010
0002
0000
0000
0100
0000
0000
0000
0000
0000
,
0103
2000
0010
0000
,
3010
0002
0010
0000
,
0013
2000
0100
0000
,
3100
0000
0000
0100
0010
0001
0100
0000
0000
0100
0010
1000
,
0100
0000
0000
0100
0010
0001
1000
0010
0100
0001
0010
0100
,
1000
0000
0000
1010
0000
0010
0000
0110
0000
0101
0000
0001
,
0000
0011
0000
0110
0000
0100
0000
1100
0000
1000
0000
2002
,
0000
0000
0000
0000
,
3003
0000
0000
1001
0000
0000
0001
0100
0010
1000
0001
0010
,
0100
0000
1000
0010
0000
0000
0010
0000
0001
0100
0000
0000
,
0100
0000
1000
0010
0000
0010
0100
0000
0100
0001
0010
0100
,
1000
0000
0010
0001
0000
0000
0001
0000
0100
1000
0000
0000
,
1000
0000
0100
0001
0000
0010
1000
0000
0000
0110
0000
0000
,
1100
0011
0101
1010
,
2002
3003
1100
0011
,
1001
0000
1000
0010
0000
0010
0001
0000
0001
0010
0000
0010
,
1000
0000
1000
0100
0000
0100
0010
0000
0010
0100
0000
0000
,
1001
0000
0001
0100
0000
0100
1000
0000
1000
0100
0000
0100
,
0001
0000
0001
0010
0000
0010
0100
0000
0100
0010
0000
0000
,
1001
0000
1000
0010
0000
0010
0001
0000
0001
1000
0000
1000
,
0100
0000
0100
0001
0000
0010
0100
0000
0100
0010
0000
0000
,
0012
0203
2300
3020
,
0032
0003
0000
0000
;

//---------------dance-double - ----------------
#NOTEDATA:;
#CHARTNAME:;
#STEPSTYPE:dance-double;
#DESCRIPTION:;
#CHARTSTYLE:;
#DIFFICULTY:Hard;
#METER:12;
#RADARVALUES:0.452416,0.520721,0.339017,0.157105,0.628421,383.000000,342.000000,41.000000,19.000000,0.000000,0.000000,0.000000,0.000000,0.000000,0.452416,0.520721,0.339017,0.157105,0.628421,383.000000,342.000000,41.000000,19.000000,0.000000,0.000000,0.000000,0.000000,0.000000;
#CREDIT:;
#DISPLAYBPM:122.000000;
#NOTES:
// measure 0
00000000
00000000
00000000
00000000
,  // measure 1
00000000
00000000
00022000
00000000
,  // measure 2
00000000
00000000
00000000
00033000
00000000
00000000
00101000
00000000
00101000
00000000
00100000
00010000
,  // measure 3
00100000
01000000
10000000
01000000
00000000
00000000
11000000
00000000
11000000
00000000
10000000
00100000
,  // measure 4
01000000
00100000
00010000
00100000
00000000
00100000
00010000
00000000
00011000
00000000
00000000
00001000
,  // measure 5
00000100
00000010
00000100
00001000
00000000
00001000
00000100
00000000
00000100
00000001
00000000
00000000
,  // measure 6
00000010
00000000
00001000
00000000
00010000
00000000
00010010
00000000
00010010
00000000
00000010
00001000
,  // measure 7
00000010
00000100
00000001
00000100
00000000
00000000
00000101
00000000
00000101
00000000
00000001
00000010
,  // measure 8
00000100
00000010
00001000
00000010
00000000
00000010
00001000
00000000
00011000
00000000
00010000
01000000
,  // measure 9
00100000
01000000
00010000
00002000
00000000
00000000
00103000
01000000
10000000
00100000
00000000
00000000
,  // measure 10
00010000
00000000
00001000
00000000
00000100
00000000
00000101
00000000
00000001
00000010
00000000
00000010
,  // measure 11
00000100
00000000
00000100
00010000
00000000
00010000
00001000
00000000
00001000
01000000
00000000
01000000
,  // measure 12
00010000
00000000
00010000
00100000
00000000
00100000
01000000
00000000
10000000
00000000
00100000
00000000
,  // measure 13
00010000
00000000
00001000
00000000
00010000
00000000
00010010
00000000
00000000
00101000
00000000
00000000
,  // measure 14
00001000
00000000
00010000
00000000
01000000
00000000
11000000
00000000
10000000
00100000
00000000
00100000
,  // measure 15
01000000
00000000
01000000
00001000
00000000
00001000
00010000
00000000
00010000
00000100
00000000
00000100
,  // measure 16
00001000
00000000
00001000
00000001
00000000
00000001
00000100
00000000
00001000
00000000
00010000
00000000
,  // measure 17
01000000
00000000
00010000
00000000
00001000
00000000
00022000
00000000
00000000
00000000
00000000
00000000
,  // measure 18
00000000
00033000
00010000
00100000
,  // measure 19
10000000
00000000
01000000
00010000
00000000
00001000
00010000
00000000
00000000
00100000
00000000
00000000
,  // measure 20
00010000
00000000
00000000
00001000
00000000
00000100
00000001
00000000
00000000
00000010
00000000
00000000
,  // measure 21
00001000
00000000
00010000
00001000
00000000
00000100
00001000
00000000
00000000
00010000
00000000
00000000
,  // measure 22
01000000
00000000
00000000
10000000
00000000
00100000
00010000
00000000
00000000
00001000
00000000
00000000
,  // measure 23
00000100
00000000
00001000
00010000
00000000
00001000
00000010
00000000
00000000
00000001
00000000
00000000
,  // measure 24
00000200
00000310
00000010
00010000
,  // measure 25
00001000
01000000
20020000
30030000
,  // measure 26
10010000
00000000
00000000
10100000
00000000
00000000
01010000
00000000
00000000
00010000
00000000
00100000
,  // measure 27
01000000
00000000
00100000
00001000
00000000
00000000
00010000
00000000
00000000
00011000
00000000
00000000
,  // measure 28
00000100
00000000
00001000
00000020
00000000
00000000
00000130
00000000
00000000
00000001
00000000
00000010
,  // measure 29
00000100
00000000
00000010
00001000
00000000
00000000
00000010
00000000
00000000
00000011
00000000
00000000
,  // measure 30
00000001
00000100
00001000
00010000
00000000
00010000
00100000
00000000
00100000
10000000
00000000
10000000
,  // measure 31
01000000
00000000
01000000
00100000
00000000
00100000
00001000
00000000
00001000
00010000
00000000
00000000
,  // measure 32
00011000
00000000
00001000
00000010
00000000
00000010
00000001
00000000
00000001
00001000
00000000
00001000
,  // measure 33
00000010
00000000
00000010
00010000
00001000
00100000
00001000
00010000
00000100
00010000
00001000
01000000
,  // measure 34
00001000
00010000
00100000
20000000
00000000
00000000
01000000
00000000
00000000
00000000
00000000
00000000
,  // measure 35
31000000
02000000
00010000
00000000
,  // measure 36
03010000
00020000
00001000
00000000
,  // measure 37
00031000
00002000
00000010
00000000
,  // measure 38
00003010
00000000
00000000
00000010
00000001
00000100
00000010
00000000
00000000
00000010
00010000
00001000
,  // measure 39
00100000
00000000
00000000
00100000
00010000
00100000
01000000
10000000
00100000
01000000
00010000
00100000
,  // measure 40
00001000
00000000
00000000
00011000
00000000
00001000
00000000
00000010
00000000
00001010
00000000
00001000
,  // measure 41
00000000
00010000
00000000
00110000
00000000
00010000
00000000
00001000
00000000
01001000
00000000
00020200
,  // measure 42
00000000
00000000
00000000
00000000
,  // measure 43
00030300
00000000
00000000
00011000
00000000
00000000
00010000
00000100
00001000
00000100
00000010
00000001
,  // measure 44
00000100
00000000
00000010
00001000
00000000
00000000
00100000
00000000
01000000
00010000
00000000
00000000
,  // measure 45
00000100
00000000
00000001
00000010
00000000
00000010
00001000
00000000
00001000
00010000
00000000
00010000
,  // measure 46
01000000
00000000
00100000
00010000
00000000
00000000
00000010
00000000
00000100
00001000
00000000
00000000
,  // measure 47
01000000
00000000
00100000
00010000
00000000
00001000
00000100
00000000
00000000
00000110
00000000
00000000
,  // measure 48
00000011
00000101
00001010
00011000
,  // measure 49
02020000
03030000
01100000
10010000
,  // measure 50
11000000
00000000
01000000
00100000
00000000
00100000
00010000
00000000
00010000
01000000
00000000
01000000
,  // measure 51
00001000
00000000
00001000
00000100
00000000
00000100
00000001
00000000
00000001
00000010
00000000
00000000
,  // measure 52
00000011
00000000
00000001
00000100
00000000
00000100
00000010
00000000
00000010
00001000
00000000
00001000
,  // measure 53
00000100
00000000
00000100
00010000
00000000
00010000
01000000
00000000
01000000
10000000
00000000
00000000
,  // measure 54
10100000
00000000
00100000
00010000
00000000
00010000
00001000
00000000
00001000
00000100
00000000
00000100
,  // measure 55
00000001
00000000
00000001
00000010
00000000
00000010
00000100
00000000
00000100
00001000
00000000
00001000
,  // measure 56
00010000
01000000
10000000
00010000
,  // measure 57
00022000
00033000
00000000
00000000
;

//---------------dance-single - ----------------
#NOTEDATA:;
#CHARTNAME:;
#STEPSTYPE:dance-single;
#DESCRIPTION:;
#CHARTSTYLE:;
#DIFFICULTY:Medium;
#METER:8;
#RADARVALUES:0.333110,0.378706,0.214986,0.223255,0.326614,282.000000,256.000000,26.000000,27.000000,0.000000,0.000000,0.000000,0.000000,0.000000,0.333110,0.378706,0.214986,0.223255,0.326614,282.000000,256.000000,26.000000,27.000000,0.000000,0.000000,0.000000,0.000000,0.000000;
#CREDIT:;
#DISPLAYBPM:122.000000;
#NOTES:
0000
0000
0000
0000
,
0000
0000
0000
0000
,
0000
0000
0000
0000
0000
0000
1000
0000
2000
0000
0000
0000
,
3001
0000
0001
0100
0000
0000
0001
0000
0002
0000
0000
0000
,
1003
0000
1000
0010
0000
0000
0100
0000
0200
0000
0000
0000
,
0310
0000
0010
0100
0000
0000
0010
0000
0010
0100
0000
0000
,
0001
0000
1000
0000
0001
0000
0100
0000
0200
0000
0000
0000
,
0301
0000
0001
1000
0000
0000
0010
0000
0020
0000
0000
0000
,
1030
0000
1000
0001
0000
0000
1000
0000
2000
0000
0000
0000
,
3001
0000
0001
0100
0000
0000
1000
0000
1000
0010
0000
0000
,
0001
0000
0100
0000
0010
0000
1000
0000
0100
1000
0000
0000
,
0001
0000
0010
0001
0000
0000
1000
0000
0010
1000
0000
0000
,
0001
0000
0100
0001
0000
0000
1000
0000
0010
0000
0010
0000
,
0001
0000
0100
0000
0100
0000
1000
0000
0000
1001
0000
0000
,
0001
0000
1000
0000
0100
0000
0010
0000
0001
0100
0000
0000
,
0010
0000
1000
0100
0000
0000
0100
0000
1000
0010
0000
0000
,
0100
0000
0001
0010
0000
0000
0100
0000
1000
0000
1000
0000
,
0010
0000
0001
0000
0001
0000
2002
0000
0000
0000
0000
0000
,
0000
3003
1000
0000
,
0100
0000
0001
0010
,
1000
0000
0001
0000
,
0100
0000
1000
0010
,
0001
0000
1000
0000
,
0100
0000
0001
0010
,
1000
0000
0001
0100
,
1000
0010
2002
3003
,
1001
0000
0000
0001
0000
0000
0100
0000
0000
0110
0000
0010
,
1000
0000
0010
0100
0000
0000
0001
0000
0000
1001
0000
0000
,
1000
0000
0100
0010
0000
0000
0100
0000
0000
1100
0000
1000
,
0010
0000
1000
0100
0000
0000
0010
0000
0000
0011
0000
0000
,
0001
0000
0100
0010
0000
0000
1000
0000
0000
1001
0000
0001
,
0010
0000
0100
0010
0000
0000
0001
0000
0000
0101
0000
0000
,
1010
0000
0000
1000
0000
0100
0010
0000
0000
0001
0000
0010
,
0100
0000
0000
1000
0000
1000
0010
0000
0010
0100
0000
0100
,
0001
0000
0001
2000
0000
0000
0010
0000
0000
0000
0000
0000
,
3010
0002
0010
0000
,
0013
2000
0100
0000
,
3100
0002
0100
0000
,
0103
1001
0000
0110
,
0000
1010
0011
0101
,
1100
0000
0000
1000
0000
0010
0000
0010
0000
0001
0000
0100
,
0000
0100
0000
1000
0000
0010
0000
0010
0000
0001
0000
2002
,
0000
0000
0000
0000
,
3003
1001
0200
0320
,
0130
0000
0100
0001
0000
0000
0010
0000
0010
1000
0000
0000
,
0100
0000
0100
0010
0000
0010
0100
0000
0000
1000
0000
1000
,
0010
0000
0000
0001
0000
0001
0100
0000
0100
0010
0000
0010
,
1000
1010
0202
0303
,
0002
0023
0230
2300
,
3002
0000
0100
0103
,
0110
0000
0010
1000
0000
0000
0010
0000
0100
0001
0000
0000
,
0010
0000
0100
1000
0000
0010
0100
0000
0000
0101
0000
0001
,
0010
0000
0100
0010
0000
0000
0001
0000
0100
0010
0000
0000
,
1000
0000
0100
0010
0000
0100
1000
0000
0000
1010
0000
0010
,
0100
0000
1000
0100
0000
0000
0001
0000
0010
0100
0000
0000
,
1000
0000
0010
0001
0000
0010
0100
0000
0000
0110
0000
0000
,
1000
0100
0010
0001
,
2002
3003
0000
0000
;

//---------------dance-double - ----------------
#NOTEDATA:;
#CHARTNAME:;
#STEPSTYPE:dance-double;
#DESCRIPTION:;
#CHARTSTYLE:;
#DIFFICULTY:Medium;
#METER:8;
#RADARVALUES:0.320117,0.378706,0.223255,0.190180,0.293539,271.000000,244.000000,27.000000,23.000000,0.000000,0.000000,0.000000,0.000000,0.000000,0.320117,0.378706,0.223255,0.190180,0.293539,271.000000,244.000000,27.000000,23.000000,0.000000,0.000000,0.000000,0.000000,0.000000;
#CREDIT:;
#DISPLAYBPM:122.000000;
#NOTES:
00000000
00000000
00000000
00000000
,
00000000
00000000
00000000
00000000
,
00000000
00000000
00000000
00000000
00000000
00000000
00001000
00000000
00002000
00000000
00000000
00000000
,
01003000
00000000
01000000
00001000
00000000
00000000
00010000
00000000
00020000
00000000
00000000
00000000
,
00030100
00000000
00000100
00010000
00000000
00000000
00001000
00000000
00002000
00000000
00000000
00000000
,
00103000
00000000
00100000
01000000
00000000
00000000
01000000
00000000
01000000
00010000
00000000
00000000
,
00001000
00000000
00010000
00000000
00001000
00000000
00010000
00000000
00020000
00000000
00000000
00000000
,
00030100
00000000
00000100
00010000
00000000
00000000
00001000
00000000
00002000
00000000
00000000
00000000
,
01003000
00000000
01000000
00001000
00000000
00000000
00010000
00000000
00020000
00000000
00000000
00000000
,
00030010
00000000
00000010
00000100
00000000
00000000
00000100
00000000
00000100
00001000
00000000
00000000
,
00001000
00000000
00010000
00000000
00001000
00000000
00010000
00000000
00000000
01000000
00000000
00000000
,
10000000
00100000
00010000
01000000
,
10000000
00000000
00000000
00100000
00000000
00000000
00010000
00000000
00001000
00000000
00001000
00000000
,
00000010
00000000
00001000
00000000
00001000
00000000
00010000
00000000
00000000
00011000
00000000
00000000
,
00010000
00000000
00001000
00000000
00010000
00000000
00001000
00000000
00000000
00000100
00000000
00000000
,
00000001
00000010
00001000
00000100
,
00000001
00000000
00000000
00000010
00000000
00000000
00001000
00000000
00010000
00000000
00010000
00000000
,
00100000
00000000
00010000
00000000
00010000
00000000
00022000
00000000
00000000
00000000
00000000
00000000
,
00000000
00033000
00010000
00000000
,
00001000
00000000
00000100
00000001
,
00000010
00000000
00001000
00000000
,
00010000
00000000
00100000
10000000
,
01000000
00000000
00010000
00000000
,
00001000
00000000
00000010
00000001
,
00000100
00000000
00001000
00010000
,
01000000
10000000
20020000
30030000
,
10010000
00000000
00000000
00010000
00000000
00000000
01000000
00000000
00000000
01100000
00000000
00100000
,
10000000
00000000
10000000
01000000
00000000
00000000
00010000
00000000
00000000
00011000
00000000
00000000
,
00001000
00000000
00100000
00010000
00000000
00000000
01000000
00000000
00000000
01010000
00000000
00010000
,
00100000
00000000
00100000
00001000
00000000
00000000
00010000
00000000
00000000
00010100
00000000
00000000
,
00000100
00000000
00001000
00000010
00000000
00000000
00000100
00000000
00000000
00000101
00000000
00000001
,
00000010
00000000
00000010
00000100
00000000
00000000
00010000
00000000
00000000
00010100
00000000
00000000
,
01001000
00000000
00000000
01000000
00000000
00010000
00100000
00000000
00000000
01000000
00000000
10000000
,
00100000
00000000
00000000
00010000
00000000
00010000
00001000
00000000
00001000
00000100
00000000
00000100
,
00000001
00000000
00000001
00000020
00000000
00000000
00000000
00000000
00000000
00000030
00000000
00000000
,
00001000
00020000
00000000
00030000
,
01000000
20000000
00000000
30000000
,
00100000
00020000
00000000
00030000
,
00001000
01001000
00000000
00010010
,
00000000
00101000
00010100
01001000
,
00010010
00000000
00000000
00000010
00000000
00001000
00000000
00001000
00000000
00100000
00000000
00010000
,
00000000
00010000
00000000
00000100
00000000
00001000
00000000
00001000
00000000
01000000
00000000
20020000
,
00000000
00000000
00000000
00000000
,
30030000
10010000
02000000
03200000
,
00310000
00000000
00010000
00001000
00000000
00000000
00000010
00000000
00000010
00000001
00000000
00000000
,
00000001
00000000
00000001
00000100
00000000
00000100
00000010
00000000
00000000
00001000
00000000
00001000
,
00000100
00000000
00000000
00000100
00000000
00000100
00010000
00000000
00010000
00001000
00000000
00001000
,
01000000
01100000
20020000
30030000
,
10000000
01000000
00010000
00001000
,
00021000
00000000
00000010
00030010
,
00000110
00000000
00000100
00000001
00000000
00000000
00000010
00000000
00000100
00000010
00000000
00000000
,
00001000
00000000
00010000
00001000
00000000
00001000
00100000
00000000
00000000
00110000
00000000
00010000
,
01000000
00000000
00100000
01000000
00000000
00000000
00100000
00000000
10000000
01000000
00000000
00000000
,
00010000
00000000
00001000
00010000
00000000
00001000
00000100
00000000
00000000
00000101
00000000
00000001
,
00000010
00000000
00000100
00000010
00000000
00000000
00001000
00000000
00010000
00001000
00000000
00000000
,
00010000
00000000
01000000
10000000
00000000
01000000
00100000
00000000
00000000
01100000
00000000
00000000
,
01000000
00010000
00001000
00000010
,
00000220
00000330
00000000
00000000
;

//---------------dance-double - ----------------
#NOTEDATA:;
#CHARTNAME:;
#STEPSTYPE:dance-double;
#DESCRIPTION:;
#CHARTSTYLE:;
#DIFFICULTY:Challenge;
#METER:15;
#RADARVALUES:0.620152,0.662736,0.347285,0.355554,1.178290,525.000000,483.000000,42.000000,43.000000,0.000000,0.000000,0.000000,0.000000,0.000000,0.620152,0.662736,0.347285,0.355554,1.178290,525.000000,483.000000,42.000000,43.000000,0.000000,0.000000,0.000000,0.000000,0.000000;
#CREDIT:MILEN;
#DISPLAYBPM:122.000000;
#NOTES:
// measure 0
00000000
00000000
00000000
00000000
,  // measure 1
00000000
00000000
00000000
00000000
00000000
00000000
00000000
00000000
00000000
00000000
00000000
00000000
00001000
00000000
00010000
00000000
00100000
00000000
01000000
00000000
00001000
00000000
00010000
00001000
,  // measure 2
00010000
00000000
00001000
00000000
00000100
00000000
00000010
00000000
00010000
00000000
00001000
00010000
00001000
00000000
00000000
00000000
00011000
00000000
00000000
00000000
00010000
00000000
00001000
00000000
,  // measure 3
00100000
00010000
01000000
00100000
10000000
01000000
00010000
00000000
00011000
00000000
00001000
00010000
,  // measure 4
00000010
00001000
00000100
00000010
00000001
00000100
00001000
00000000
00011000
00000000
00000000
00010000
,  // measure 5
00001000
00100000
00010000
20000000
30000000
01000000
00010000
00001000
00000010
00000002
00000003
00000000
,  // measure 6
00000101
00000000
00000100
00000000
00000110
00000000
00000010
00000000
00001010
00000000
00001000
00000100
,  // measure 7
00000010
00000001
00001000
00000100
00010000
00001000
00100000
00000000
00110000
00000000
00010000
01000000
,  // measure 8
00100000
10000000
00010000
00100000
01000000
00010000
00001000
00000000
00001100
00000000
00000100
00000001
,  // measure 9
00000010
00000100
00001000
00000200
00000300
00000010
00000001
00000100
00001000
00020000
00030000
00000000
,  // measure 10
00011000
00000000
00001000
00000000
01001000
00000000
01000000
00010000
00100000
01000000
00000000
01000000
,  // measure 11
10000000
00100000
00010000
00001000
00000000
00001000
00100000
01000000
00010000
00001000
00000000
00001000
,  // measure 12
00000010
00000000
00000001
00000000
00000100
00000000
00000020
00000000
00000000
00000030
00000000
00000000
00001000
00000000
00000100
00000000
00000010
00000000
00000001
00000100
00000001
00000000
00000010
00000000
,  // measure 13
00001000
00010000
01000000
10000000
00010000
02000000
00200000
00000000
00000000
00000000
03300000
00000000
,  // measure 14
01010000
00000000
00010000
00000000
00101000
00000000
00001000
00010000
00000100
00000010
00000000
00000010
,  // measure 15
00000001
00000100
00001000
00010000
00000000
00010000
00100000
00001000
00000010
00010000
00000000
00010000
,  // measure 16
00100000
00000000
10000000
00000000
01000000
00000000
00200000
00000000
00000000
00000000
00300000
00000000
00010000
00000000
01000000
00000000
00001000
00000000
00010000
00001000
00010000
00000000
00000100
00000000
,  // measure 17
00000010
00000001
00000100
00001000
00010000
00000200
00000020
00000330
00000000
00001001
00000000
00000000
,  // measure 18
00000200
00000300
00000000
00011000
00000000
00000000
02000000
03000000
00000000
10010000
00000000
00000000
,  // measure 19
00020000
00030000
01000000
00100000
00000000
00100000
00010000
00000000
00000000
00011000
00000000
00000000
,  // measure 20
00010010
00000000
00000000
00000020
00000030
00001000
00000100
00000000
00000000
00000110
00000000
00000000
,  // measure 21
00000020
00000030
00000001
00000100
00000000
00000100
00001000
00000000
00000000
00011000
00000000
00000000
,  // measure 22
00010010
00000000
00000000
00020000
00030000
00001000
00100000
00000000
00000000
00110000
00000000
00000000
,  // measure 23
02000000
03000000
10000000
00100000
00000000
00100000
00010000
00000000
00000000
00010100
00000000
00000000
,  // measure 24
01001000
00010010
00020000
00032000
,  // measure 25
00003200
00000302
00002000
00000000
,  // measure 26
00003003
00000000
00000000
00011000
00000000
00000000
00001000
00010000
00100000
01000000
00010000
01000000
,  // measure 27
10000000
01000000
00010000
00100000
01000000
00010000
00001000
00010000
01000000
10000000
00100000
00010000
,  // measure 28
00001000
00000000
00000000
00011000
00000000
00000000
00010000
00001000
00000010
00000100
00001000
00000100
,  // measure 29
00000001
00000100
00001000
00000010
00000100
00001000
00010000
00001000
00000100
00000001
00000010
00001000
,  // measure 30
00010000
00000000
00001000
00000000
00010000
00001000
00010000
00000000
00100000
00000000
10000000
00000000
01000000
00000000
00100000
00000000
00010000
00000000
01000000
00000000
00100000
00000000
00010000
00000000
,  // measure 31
00001000
00000100
00000010
00001000
00000100
00000010
00000001
00000100
00001000
00010000
00100000
10000000
,  // measure 32
10010000
00000000
00010000
00100000
01000000
00010000
00001000
00000010
00000100
00001000
00000010
00010000
,  // measure 33
00001000
00000000
00100000
00000000
00010000
00000000
01000000
00000000
00001000
00000000
00010000
00000000
00000100
00000000
00000010
00000000
00000001
00000100
00000001
00000000
00000100
00000000
00001000
00000000
,  // measure 34
00010000
00001000
00010000
00000000
00001000
00000000
00021000
00000000
00000000
00000000
00000000
00000000
00100000
00000000
00000000
00000000
00000000
00000000
00000000
00000000
00000000
00000000
00000000
00000000
,  // measure 35
00030010
00012000
00000100
00000000
,  // measure 36
01003000
00021000
00000100
00000000
,  // measure 37
01030000
00012000
00000010
00000000
,  // measure 38
00103000
00000000
00000000
00100000
01000000
10000000
00100000
00000000
00000000
00100000
00010000
00001000
,  // measure 39
00000100
00000000
00000000
00000100
00000001
00000010
00000100
00000001
00000100
00001000
00000100
00000010
,  // measure 40
00000001
00000000
00000000
00001001
00000000
00001000
00000000
00001010
00000000
00010010
00000000
00010000
,  // measure 41
00000000
00011000
00000000
00101000
00000000
00100000
00000000
01100000
00000000
20000000
00000000
00020000
,  // measure 42
00000000
00000000
00000000
00000000
,  // measure 43
00000000
00000000
00000000
00000000
00000000
00000000
30030000
00000000
00000000
00000000
10000000
00010000
10000000
00000000
01000000
00000000
00010000
00000000
00001000
00000000
00000100
00000000
00000001
00000000
,  // measure 44
00000010
00000100
00001000
00000100
00000010
00001000
00000010
00000100
00001000
00000100
00000010
00001000
,  // measure 45
00010000
00000000
00100000
00000000
10000000
00000000
01000000
00000000
00100000
00000000
00010000
00000000
01000000
00000000
00100000
00000000
00020000
00000000
00031000
00000000
00000000
00000000
00001000
00010000
,  // measure 46
00100000
01000000
00010000
01000000
00100000
00010000
00100000
01000000
00010000
01000000
00100000
00010000
,  // measure 47
00001000
00000010
00000001
00000100
00000010
00001000
00000100
00000010
00002000
00013000
00000000
00001000
,  // measure 48
00010000
01000000
10000000
00010000
01000000
00100000
00010000
00001000
00000100
00000010
00001000
00000001
,  // measure 49
00000100
00000000
00001000
00000000
00010000
00000000
00100000
00000000
10000000
00000000
01000000
00100000
01000000
00000000
00010000
00000000
00001000
00000000
00000010
00000000
00000001
00000000
00000100
00000010
,  // measure 50
00000100
00001000
00010000
00001000
00000010
00001000
00010000
00001000
00000100
00001000
00010000
00001000
,  // measure 51
00000010
00000000
00001000
00000000
00010000
00000000
00100000
00000000
00010000
00000000
00001000
00000000
00010000
00000000
01000000
00000000
00020000
00000000
00031000
00000000
00000000
00000000
00001000
00010000
,  // measure 52
01000000
00010000
00001000
00010000
00100000
00010000
00001000
00010000
01000000
00010000
00001000
00010000
,  // measure 53
00100000
00010000
00001000
00000010
00001000
00010000
00001000
00000100
00002000
00013000
00000000
00001000
,  // measure 54
00010000
01000000
00100000
00010000
01000000
00001000
00010000
00100000
00001000
00000010
00010000
00001000
,  // measure 55
00000100
00010000
01000000
00001000
00000100
00000001
00000010
00001000
00010000
02000000
03000000
10000000
,  // measure 56
20200000
30300000
00000000
02002000
03003000
00000000
00020200
00030300
00000000
00000022
00000033
00000000
,  // measure 57
00002002
00003003
00000000
00000000
;
