#VERSION:0.83;
#TITLE:Hot!;
#SUBTITLE:;
#ARTIST:LUCY;
#TITLETRANSLIT:;
#SUBTITLETRANSLIT:;
#ARTISTTRANSLIT:;
#GENRE:K-POP;
#ORIGIN:;
#CREDIT:MUINELIM;
#BANNER:Hot!.png;
#BACKGROUND:Hot!-bg.png;
#PREVIEWVID:;
#JACKET:Hot!-jacket.png;
#CDIMAGE:;
#DISCIMAGE:;
#LYRICSPATH:;
#CDTITLE:;
#MUSIC:Hot!.ogg;
#OFFSET:0.640000;
#SAMPLESTART:65.953369;
#SAMPLELENGTH:14.634148;
#SELECTABLE:YES;
#DISPLAYBPM:164.000000;
#BPMS:0.000=164.000;
#STOPS:312.000=2.195;
#DELAYS:;
#WARPS:;
#TIMESIGNATURES:0.000=4=4;
#TICKCOUNTS:0.000=4;
#COMBOS:0.000=1;
#SPEEDS:0.000=1.000=0.000=0;
#SCROLLS:0.000=1.000;
#FAKES:;
#LABELS:0.000=Song Start;
#BGCHANGES:;
#KEYSOUNDS:;
#ATTACKS:
;

//---------------dance-single - ----------------
#NOTEDATA:;
#CHARTNAME:;
#STEPSTYPE:dance-single;
#DESCRIPTION:;
#CHARTSTYLE:;
#DIFFICULTY:Beginner;
#METER:3;
#RADARVALUES:0.141581,0.234139,0.028316,0.049553,0.000000,140.000000,136.000000,4.000000,7.000000,0.000000,0.000000,0.000000,0.000000,0.000000,0.141581,0.234139,0.028316,0.049553,0.000000,140.000000,136.000000,4.000000,7.000000,0.000000,0.000000,0.000000,0.000000,0.000000;
#CREDIT:;
#DISPLAYBPM:164.000000;
#NOTES:
0000
0000
0000
0000
,
0000
0000
0000
0000
,
0000
0000
0000
0000
,
0000
0000
0000
0000
,
0000
0000
0000
0000
,
0000
0000
0000
0000
,
1000
0000
0001
0000
,
1000
0000
0001
0000
,
1000
0000
1000
0000
,
1000
0000
0000
0000
,
0010
0000
0100
0000
,
0010
0000
0100
0000
,
0010
0000
0010
0000
,
0010
0000
0000
0000
,
1000
0000
0000
0000
,
0100
0000
0000
0000
,
0010
0000
0000
0000
,
0001
0000
0000
0000
,
1000
0000
0000
0000
,
0100
0000
0000
0000
,
0010
0000
0000
0000
,
0001
0000
0000
0000
,
1000
0000
0001
0000
,
0100
0000
0000
0000
,
0001
0000
1000
0000
,
0100
0000
0000
0000
,
1000
0000
0001
0000
,
0010
0000
0000
0000
,
0001
0000
1000
0000
,
0010
0000
0100
0000
,
0010
0000
0010
0000
,
0020
0000
0030
0000
,
0200
0000
0300
0000
,
0010
0000
0010
0000
,
1000
0000
0001
0000
,
1000
0000
0001
0000
,
1000
1000
0000
0001
,
0001
0000
1000
0000
,
1001
0000
0000
0000
,
0000
0000
0000
0000
,
1001
0000
0000
0000
,
0000
0000
0000
0000
,
0200
0000
0300
0000
,
0020
0000
0030
0000
,
0100
0000
0100
0000
,
0000
0000
0000
0000
,
0001
0000
0010
0000
,
0001
0000
0010
0000
,
0100
0000
1000
0000
,
0100
0000
1000
0000
,
0010
0000
0100
0000
,
0010
0000
0100
0000
,
0010
0000
0010
0000
,
0010
0010
0010
0000
,
1000
0000
0010
0000
,
1000
0000
0010
0000
,
0100
0000
0001
0000
,
0100
0000
0001
0000
,
1000
0000
0001
0000
,
1000
0000
0001
0000
,
0010
0000
0100
0000
,
1000
0000
0020
0000
,
0030
0000
0000
0000
,
0010
0000
0000
0000
,
0100
0000
0000
0000
,
0001
0000
0000
0000
,
1000
0000
0000
0000
,
0100
0000
0000
0000
,
0010
0000
0000
0000
,
0001
0000
0000
0000
,
1000
0000
0000
0000
,
0010
0000
0000
0000
,
0100
0000
0000
0000
,
0001
0000
0000
0000
,
0010
0000
0000
0000
,
0100
0000
0000
0000
,
1000
0000
0000
0000
,
0001
0000
0000
0000
,
1001
0000
1000
0000
,
0001
0000
1000
0000
,
0001
0000
0010
0000
,
0100
0000
0010
0000
,
0100
0000
0010
0000
,
0010
0000
0010
0010
,
0010
0000
0001
0000
,
0100
0000
0010
0000
,
1000
0000
0100
0000
,
0010
0000
0001
0000
,
0010
0000
0100
0000
,
1000
0000
0010
0000
,
0100
0100
0100
0000
,
0010
0000
1000
0000
,
0001
0000
2002
0000
,
0000
0000
0000
0000
,
0000
0000
3003
0000
;

//---------------dance-single - ----------------
#NOTEDATA:;
#CHARTNAME:;
#STEPSTYPE:dance-single;
#DESCRIPTION:;
#CHARTSTYLE:;
#DIFFICULTY:Easy;
#METER:6;
#RADARVALUES:0.235631,0.334485,0.063711,0.261925,0.000000,233.000000,224.000000,9.000000,37.000000,0.000000,0.000000,0.000000,0.000000,0.000000,0.235631,0.334485,0.063711,0.261925,0.000000,233.000000,224.000000,9.000000,37.000000,0.000000,0.000000,0.000000,0.000000,0.000000;
#CREDIT:;
#DISPLAYBPM:164.000000;
#NOTES:
0000
0000
0000
0000
,
0000
0000
0000
0000
,
0000
0000
0000
0000
,
0000
0000
0000
0000
,
0000
0000
0000
0000
,
0000
0000
0000
0000
,
1000
0000
1000
0000
,
0001
0000
0001
0000
,
1000
0000
0001
0000
,
2000
0000
3001
0000
,
0010
0000
0010
0000
,
0100
0000
0100
0000
,
0010
0000
0100
0000
,
0020
0000
0130
0000
,
0001
0000
0010
0000
,
0100
0000
1000
1000
,
1000
0000
0100
0000
,
0010
0000
0001
0001
,
0001
0000
0100
0000
,
0010
0000
0100
0000
,
0001
1000
0001
0000
,
1000
0001
1000
0000
,
0010
0000
0100
0000
,
0001
0000
1000
0000
,
0100
0000
0010
0000
,
0001
0000
1000
0000
,
0020
0030
0200
0300
,
0020
0000
0030
1000
,
1000
0000
0100
0000
,
0010
0000
0001
0000
,
1000
0000
1001
0000
,
0001
0010
0001
0000
,
1000
0100
1000
0000
,
0001
0000
1000
0000
,
0001
0000
1001
0000
,
1000
0010
1000
0000
,
0001
0100
0001
0000
,
1000
0001
1000
0010
,
0200
0300
0010
1000
,
0010
1000
0100
0000
,
0020
0030
0001
0100
,
0001
0100
0010
1000
,
0001
0000
1000
0000
,
0100
0000
0010
0000
,
0002
0000
2000
0000
,
3003
0000
1000
0001
,
2000
3000
0200
0300
,
0020
0030
0002
0003
,
0020
0030
0200
0300
,
2000
3000
0010
0100
,
0020
0030
2000
3000
,
0002
0003
0200
0300
,
0110
0000
0110
0000
,
0010
0100
0010
1000
,
0002
0003
0020
0030
,
0200
0300
2000
3000
,
0200
0300
0020
0030
,
0002
0003
1000
0001
,
2000
3000
0001
1000
,
0001
0100
0010
0010
,
0010
0000
1000
0001
,
0010
0100
2002
3003
,
1000
0000
0010
0000
,
0001
0000
0001
0000
,
0001
0000
0100
0000
,
1000
0000
1000
0000
,
1000
0000
0010
0000
,
0001
0000
1000
0000
,
0001
0000
0100
0000
,
1000
0000
0001
0000
,
1000
0000
0010
0000
,
0001
0000
0100
0000
,
0001
0000
0010
0000
,
1000
0000
0100
0000
,
2000
0000
3010
0000
,
0200
0000
0301
0000
,
0020
0000
0130
0000
,
2000
0000
3001
0000
,
1001
0000
0010
0100
,
0001
0100
0010
1000
,
0010
0100
0001
0010
,
0100
1000
0100
0010
,
0001
1000
1001
0000
,
1001
0000
0010
0010
,
0200
0310
0010
1000
,
0001
0010
0001
1000
,
0100
1000
0010
0100
,
0001
0100
0010
1000
,
0010
0100
0001
0010
,
1000
0010
0001
0100
,
0010
0010
1000
0100
,
0001
0100
1000
0010
,
0100
0001
2002
0000
,
0000
0000
0000
0000
,
0000
0000
3003
0000
;

//---------------dance-double - ----------------
#NOTEDATA:;
#CHARTNAME:;
#STEPSTYPE:dance-double;
#DESCRIPTION:;
#CHARTSTYLE:;
#DIFFICULTY:Easy;
#METER:6;
#RADARVALUES:0.227541,0.334485,0.070790,0.254846,0.000000,225.000000,215.000000,10.000000,36.000000,0.000000,0.000000,0.000000,0.000000,0.000000,0.227541,0.334485,0.070790,0.254846,0.000000,225.000000,215.000000,10.000000,36.000000,0.000000,0.000000,0.000000,0.000000,0.000000;
#CREDIT:;
#DISPLAYBPM:164.000000;
#NOTES:
// measure 0
00000000
00000000
00000000
00000000
,  // measure 1
00000000
00000000
00000000
00000000
,  // measure 2
00000000
00000000
00000000
00000000
,  // measure 3
00000000
00000000
00000000
00000000
,  // measure 4
00000000
00000000
00000000
00000000
,  // measure 5
00000000
00000000
00000000
00000000
,  // measure 6
00001000
00000000
00001000
00000000
,  // measure 7
00010000
00000000
00010000
00000000
,  // measure 8
00001000
00000000
00010000
00000000
,  // measure 9
00000020
00000000
00010030
00000000
,  // measure 10
00010000
00000000
00010000
00000000
,  // measure 11
00001000
00000000
00001000
00000000
,  // measure 12
00010000
00000000
00001000
00000000
,  // measure 13
00200000
00000000
00301000
00000000
,  // measure 14
00001000
00000000
00010000
00000000
,  // measure 15
01000000
00000000
10000000
00000000
,  // measure 16
10000000
00000000
00100000
00000000
,  // measure 17
00010000
00000000
00001000
00000000
,  // measure 18
00001000
00000000
00000100
00000000
,  // measure 19
00000001
00000000
00000010
00000000
,  // measure 20
00001000
00000000
00001000
00000000
,  // measure 21
00010000
00000000
00010000
00000000
,  // measure 22
00000100
00000000
00000010
00000000
,  // measure 23
00000001
00000000
00001000
00000000
,  // measure 24
00000100
00000000
00000010
00000000
,  // measure 25
00000001
00000000
00000100
00000000
,  // measure 26
00002000
00003000
00020000
00030000
,  // measure 27
00002000
00000000
00003000
00100000
,  // measure 28
00100000
00000000
01000000
00000000
,  // measure 29
10000000
00000000
00100000
00000000
,  // measure 30
00010000
00000000
00011000
00000000
,  // measure 31
00001000
00001000
00001000
00000000
,  // measure 32
00010000
00010000
00010000
00000000
,  // measure 33
00001000
00000000
00000100
00000000
,  // measure 34
00000001
00000000
00001001
00000000
,  // measure 35
00001000
00001000
00001000
00000000
,  // measure 36
00000001
00000001
00000001
00000000
,  // measure 37
00000100
00001000
00010000
00100000
,  // measure 38
20000000
30000000
01000000
00000000
,  // measure 39
00100000
00000000
00001000
00000000
,  // measure 40
00020000
00030000
00000100
00000000
,  // measure 41
00000010
00000000
00000001
00000001
,  // measure 42
00000001
00000000
00000100
00000000
,  // measure 43
00001000
00000000
00010000
00000000
,  // measure 44
00022000
00000000
00000000
00000000
,  // measure 45
00033000
00000000
00001000
00010000
,  // measure 46
00000200
00000300
00000020
00000030
,  // measure 47
00000002
00000003
00000200
00000300
,  // measure 48
00002000
00003000
00020000
00030000
,  // measure 49
00200000
00300000
10000000
01000000
,  // measure 50
00200000
00300000
00002000
00003000
,  // measure 51
00020000
00030000
00000200
00000300
,  // measure 52
00000110
00000000
00000110
00000000
,  // measure 53
00000001
00000100
00001000
00010000
,  // measure 54
00200000
00300000
02000000
03000000
,  // measure 55
20000000
30000000
00200000
00300000
,  // measure 56
00020000
00030000
00002000
00003000
,  // measure 57
00000200
00000300
00000001
00000010
,  // measure 58
00000200
00000300
00001000
00000010
,  // measure 59
00010000
00001000
00100000
00010000
,  // measure 60
01000000
00000000
00100000
10000000
,  // measure 61
01000000
00010000
00022000
00033000
,  // measure 62
00001000
00000000
00000010
00000000
,  // measure 63
00000001
00000000
00000001
00000000
,  // measure 64
00000100
00000000
00001000
00000000
,  // measure 65
00010000
00000000
00010000
00000000
,  // measure 66
00100000
00000000
10000000
00000000
,  // measure 67
01000000
00000000
01000000
00000000
,  // measure 68
00010000
00000000
00001000
00000000
,  // measure 69
00000010
00000000
00000010
00000000
,  // measure 70
00000001
00000000
00001000
00000000
,  // measure 71
00000010
00000000
00010000
00000000
,  // measure 72
00100000
00000000
10000000
00000000
,  // measure 73
01000000
00000000
00010000
00000000
,  // measure 74
00002000
00000000
00103000
00000000
,  // measure 75
00020000
00000000
00030010
00000000
,  // measure 76
00002000
00000000
01003000
00000000
,  // measure 77
00020000
00000000
00030100
00000000
,  // measure 78
00011000
00000000
00001000
00100000
,  // measure 79
00010000
00100000
01000000
10000000
,  // measure 80
01000000
00100000
00001000
00010000
,  // measure 81
00000100
00001000
00000100
00000010
,  // measure 82
00000001
00001000
00001001
00000000
,  // measure 83
00001001
00000000
00000001
00000001
,  // measure 84
00000100
00001000
00010000
00100000
,  // measure 85
10000000
01000000
00100000
01000000
,  // measure 86
00010000
00001000
00000010
00000100
,  // measure 87
00000010
00000001
00001000
00000010
,  // measure 88
00010000
00100000
10000000
01000000
,  // measure 89
00100000
00010000
01000000
00001000
,  // measure 90
00000100
00000001
00000010
00000100
,  // measure 91
00010000
01000000
10000000
00100000
,  // measure 92
00010000
00001000
00022000
00000000
,  // measure 93
00000000
00000000
00000000
00000000
,  // measure 94
00000000
00000000
00033000
00000000
;

//---------------dance-single - ----------------
#NOTEDATA:;
#CHARTNAME:;
#STEPSTYPE:dance-single;
#DESCRIPTION:;
#CHARTSTYLE:;
#DIFFICULTY:Medium;
#METER:9;
#RADARVALUES:0.398449,0.501727,0.261925,0.233608,0.017698,394.000000,357.000000,37.000000,33.000000,0.000000,0.000000,0.000000,0.000000,0.000000,0.398449,0.501727,0.261925,0.233608,0.017698,394.000000,357.000000,37.000000,33.000000,0.000000,0.000000,0.000000,0.000000,0.000000;
#CREDIT:;
#DISPLAYBPM:164.000000;
#NOTES:
0000
0000
0000
0000
,
0000
0000
0000
0000
,
0000
0000
0000
0000
0000
0000
0000
2002
,
0000
0000
0000
0000
,
0000
0000
0000
0000
,
3003
0000
0000
0000
,
1000
0001
1000
1010
,
0010
0000
0100
0000
0010
0100
0010
0000
,
0100
0001
0100
0101
,
0001
0000
1000
0000
0001
0000
1000
0001
,
1000
1001
0001
0101
,
0100
0110
0010
1010
,
1000
1100
0010
0011
,
0100
0110
0001
1001
,
2000
3000
0010
0100
,
0002
0003
0100
0010
,
2000
3000
0100
0010
,
0002
0003
0010
0100
,
2000
3000
0001
0100
,
0020
0030
1000
0010
,
0200
0300
0001
1000
,
0020
0030
1000
0001
,
0100
0110
0010
1000
,
0010
1010
1000
0100
,
1000
1100
0010
0001
,
0010
0011
0001
0100
,
0001
0101
1000
0001
,
1000
1001
0010
0100
,
0010
0110
1000
0001
,
2000
3010
0002
0103
,
0200
0000
0000
0310
0010
0000
0000
0010
,
1000
0000
0100
0000
1100
0000
0000
1000
,
0001
0000
1000
0000
1001
0000
0000
0001
,
0100
0001
0010
0100
,
1000
1010
1000
1100
,
0001
0011
0001
0101
,
0100
0010
0100
0000
0010
0000
0100
0010
,
0100
0001
0010
0100
,
1000
0000
0000
1000
0000
0000
0000
0000
0010
0000
0000
0000
1000
0000
0000
0000
,
0100
0000
0010
0100
0010
0000
0000
0001
,
0001
0000
0000
0001
0000
0000
0000
0000
0100
0000
0000
0000
0001
0000
0010
0000
,
0001
0010
0100
1000
,
0010
0000
0000
0100
0000
0000
0020
0000
0000
0000
0000
0000
1030
0000
0000
0000
,
0100
0010
0001
1000
,
2002
0000
3003
0000
,
0220
0000
0000
0330
,
0110
0000
0010
1000
0010
0000
1000
0100
,
1000
0000
0001
0010
0001
0000
0100
0001
,
0100
0000
0010
0100
0010
0000
1000
0001
,
1000
0100
0010
0001
,
2000
3010
1000
0010
,
0200
0000
0301
0000
0100
0000
0000
0100
,
0001
0000
0000
0001
0010
0000
0000
0010
,
0100
0000
1100
0000
1000
0001
1000
0000
,
1001
0000
0001
0100
0001
0000
0010
0001
,
0010
0000
0100
1000
0100
0000
1000
0010
,
1000
0000
0001
1000
0001
0000
0100
0010
,
0100
0000
0001
0000
1000
0000
0100
0010
,
0200
0000
0300
0000
1000
0010
0100
0001
,
0000
0000
0010
0000
0100
0000
0000
0000
1000
0000
0000
1000
0000
0000
2000
0000
,
0000
0000
3001
0000
0001
0100
0010
1000
,
0000
0100
0010
0000
2002
0000
3003
0000
,
0002
0000
0100
0000
,
0000
0100
0100
0003
,
0200
0000
0010
0000
,
0000
0010
0010
0300
,
0020
0000
1000
0000
,
0000
1000
1000
0030
,
2000
0000
0100
0000
,
0000
0100
0100
3000
,
0200
0000
0001
0000
,
0000
0001
0001
0300
,
0002
0000
0010
0000
,
0000
0010
0010
0003
,
0010
1000
0000
1000
0100
0000
0100
0010
,
0000
0010
0001
0000
0001
1000
0000
1000
,
0010
0000
0010
0100
0000
0100
0001
0000
,
0001
0010
0000
0010
0100
0000
1000
0000
,
1001
0000
0000
0001
0001
0000
0100
0000
,
1000
0000
0100
0001
0100
0000
0010
0000
,
0001
0000
0010
1000
0010
0000
1000
0000
,
0100
0000
0010
0100
0010
0000
0001
0000
,
0100
0000
0010
1000
0001
0000
0100
0001
,
1000
0000
0010
0100
0010
0000
1010
0000
,
0101
0000
1001
0000
1000
0100
0010
0000
,
0001
0100
0010
0000
1000
0010
0100
0000
,
0001
0010
0100
0000
1000
0001
0100
0000
,
0001
1000
0010
0000
0100
0001
0010
0000
,
0100
1000
0100
1000
0020
0000
0030
0000
,
0100
0001
1000
0010
0000
0100
0001
0000
,
0010
0000
0000
0010
0000
0000
0010
0000
0000
0000
0100
0000
1000
0000
0000
0000
,
0001
0100
0010
1000
0000
0100
0010
0001
,
1001
0110
2002
0000
,
0000
0000
0000
0000
,
0000
0000
3003
0000
;

//---------------dance-single - ----------------
#NOTEDATA:;
#CHARTNAME:;
#STEPSTYPE:dance-single;
#DESCRIPTION:;
#CHARTSTYLE:;
#DIFFICULTY:Hard;
#METER:13;
#RADARVALUES:0.628012,0.635521,0.389347,0.269004,0.081409,621.000000,566.000000,55.000000,38.000000,0.000000,0.000000,0.000000,0.000000,0.000000,0.628012,0.635521,0.389347,0.269004,0.081409,621.000000,566.000000,55.000000,38.000000,0.000000,0.000000,0.000000,0.000000,0.000000;
#CREDIT:;
#DISPLAYBPM:164.000000;
#NOTES:
0000
0000
0000
0000
,
0000
0000
0000
0000
,
0000
0000
0000
0000
0000
0000
0000
2002
,
0000
0000
0000
0000
,
0000
0000
0000
3003
,
0220
0000
0000
0330
,
1001
0000
1000
0010
1000
0000
0010
0100
,
0010
0000
0000
0000
0100
0000
0001
0000
0100
0000
0000
0001
1000
0000
0001
0000
,
1001
0000
0000
0000
1000
0000
0100
0000
1000
0000
0000
0000
0001
1000
0001
1000
,
0001
0000
0000
0000
0100
0000
0001
0000
0100
0000
0000
0010
0100
0000
0010
0000
,
1000
0100
0010
0001
0100
0010
1000
0000
,
0001
0010
0100
1000
0010
0100
0001
0000
,
1000
0010
0100
0001
1000
0100
0010
0000
,
0001
0100
0010
1000
0001
0010
0100
0000
,
1000
0001
0100
0000
0001
1000
0100
0000
,
1000
0001
0010
0000
0001
1000
0010
0000
,
1000
0100
0010
0000
0001
0010
0100
0000
,
1000
0010
0100
0000
0001
0100
0010
0000
,
0100
0001
1000
0000
0010
1000
0001
0000
,
0010
0100
1000
0000
0001
0010
0100
0000
,
1000
0010
0100
0000
0001
0100
0010
0000
,
1000
0001
0100
0010
1000
0001
0100
0010
,
1000
0001
1000
0100
1000
0001
0100
0101
,
0000
0011
0010
0100
0010
0001
0020
0000
,
0031
1000
0001
0100
0001
1000
0100
1100
,
0000
1010
0010
0100
0010
1000
0020
0000
,
0130
0001
0100
1000
0100
0001
0010
0011
,
0000
1100
0100
1000
0010
1000
0200
0000
,
0310
0001
0010
1000
0010
0001
0100
0101
,
0000
1010
0010
1000
0100
0010
0001
1000
,
1001
0000
0000
0000
1001
0000
0000
0000
0001
0000
0000
0001
0000
0000
0001
0000
,
0100
0000
0010
0000
0110
0000
0000
0000
1000
0000
0000
1000
0000
0000
1000
0000
,
0010
0000
0100
0000
0110
0000
0000
0000
0010
0000
0000
0010
0000
0000
0010
0000
,
1000
0000
0001
0000
1001
0000
0000
0000
0100
0000
0000
0100
0000
0000
0100
0000
,
0001
1000
1001
0000
0001
0100
0101
0000
,
0001
1000
1001
0000
1000
0010
1010
0000
,
1000
0100
1100
0000
0001
0010
0011
0000
,
0101
1100
0011
1010
,
1000
0000
0000
0001
0000
0000
1000
0000
0010
0000
0000
0100
0010
0000
1000
0000
,
0010
0000
0000
0100
0010
0000
0100
0000
0101
0000
0000
0000
0001
0000
0100
0000
,
0001
0000
0000
1000
0000
0000
0001
0000
0010
0000
0000
0100
0010
0000
0100
0000
,
1100
0000
0000
0000
0011
0000
0000
0000
1001
0000
0000
0000
1000
0001
1000
0001
,
1000
0000
0000
0010
0000
0000
0100
0000
0000
0001
0000
0000
1000
0000
0100
0000
,
0010
0001
0100
1000
0001
0010
1000
0100
,
0020
0000
0200
0330
,
2002
0000
0000
3003
,
0001
0100
0010
1000
0100
0010
0100
0010
,
0001
0100
0010
1000
0100
0010
0100
0010
,
0001
0100
0010
1000
0010
0100
0001
0100
,
0010
1000
0001
1000
0010
0100
0001
0010
,
0100
1000
0100
0010
0100
1000
0010
0100
,
0001
0010
0100
1000
0100
0010
0100
1000
,
0010
0100
0102
0000
0103
0010
2010
0000
,
3001
0000
0000
0000
0110
0000
0000
0000
0010
1000
0010
0000
0100
0001
0100
0000
,
0001
0010
0100
1000
0010
0100
0010
0100
,
0001
0010
0100
1000
0010
0100
0010
0100
,
0001
0010
0100
0010
1000
0010
0001
1000
,
0100
0001
0100
0010
0100
1000
0001
0100
,
0020
0000
1030
0001
0010
0100
1000
1010
,
0000
0000
0101
0000
0100
0000
0001
0000
0010
0000
0000
1000
0000
0000
0010
0000
,
0002
0000
0103
1000
0100
0001
0010
0210
,
0000
1300
0001
1000
2002
0000
3003
0000
,
0120
0000
0000
1000
1000
0000
0001
0000
,
0000
0100
0100
0000
0001
0001
0000
1000
,
2030
0000
0000
0100
0100
0000
0001
0000
,
0000
0010
3010
0100
0020
0000
1030
0001
,
1002
0000
0000
0100
0100
0000
0010
0000
,
0000
1000
1000
0000
0010
0010
0000
0100
,
0203
0000
0000
0001
0001
0000
1000
0000
,
0000
0010
0010
0000
0002
0303
0000
0010
,
2010
0000
0000
0100
0100
0000
0001
0000
,
0000
0010
0010
0000
0001
0001
0000
0100
,
3200
0000
0000
0001
0001
0000
1000
0000
,
0000
0310
0010
0001
2002
3003
1000
0010
,
0100
0100
1000
0100
0100
0001
0100
0100
,
1000
0100
0100
0001
0010
0010
1000
0010
,
0010
0001
0010
0010
0100
0010
0010
0001
,
0100
0100
1000
0010
0010
0001
1000
0010
,
0220
0330
1001
0000
1000
0010
0001
0010
,
1000
0100
0001
0100
1000
0010
0001
1000
,
0100
0001
0010
0100
1000
0100
0001
0100
,
1000
0100
0010
0001
0010
1000
0010
0001
,
0010
0100
1000
0010
0100
0001
0021
0000
,
0130
1000
1020
0000
0130
0000
1001
0000
,
0001
0100
0010
0000
1000
0010
0100
0000
0001
0000
0010
0000
0100
0000
0001
0000
,
0100
1000
0100
0010
1000
0010
0001
0010
,
0100
1000
0010
0100
0001
0010
1000
0001
,
0100
1000
0010
0001
1000
0100
0001
0010
,
0100
1000
0010
0100
0102
0000
1003
0010
,
0100
0001
0010
0210
0000
1300
0010
0100
,
0001
0000
0000
0010
0000
0000
1000
0000
1020
0000
0000
0000
0031
0000
0100
0000
,
1000
0100
0001
0021
0000
0130
1000
0010
,
0101
1100
2002
0000
,
0000
0000
0000
0000
,
0000
0000
3003
0000
;

//---------------dance-single - ----------------
#NOTEDATA:;
#CHARTNAME:;
#STEPSTYPE:dance-single;
#DESCRIPTION:;
#CHARTSTYLE:;
#DIFFICULTY:Challenge;
#METER:16;
#RADARVALUES:0.833305,1.036903,0.580482,0.750379,0.562784,824.000000,742.000000,82.000000,106.000000,0.000000,0.000000,0.000000,0.000000,0.000000,0.833305,1.036903,0.580482,0.750379,0.562784,824.000000,742.000000,82.000000,106.000000,0.000000,0.000000,0.000000,0.000000,0.000000;
#CREDIT:;
#DISPLAYBPM:164.000000;
#NOTES:
0000
0000
0000
0000
,
0000
0000
0000
0000
,
0000
0000
0000
0000
0000
0000
0000
2002
,
0000
0000
0000
0000
,
0000
0000
0000
3003
,
1000
0000
1000
0000
0010
0100
0010
0100
0001
1000
0001
1000
0100
0010
0100
0010
,
0001
0001
0001
0110
,
1000
0000
0000
0000
1000
0000
0000
0000
1000
0000
0010
0100
0010
0000
0110
0000
,
0100
0000
0000
0000
0001
0000
1001
0000
1000
0000
0000
0000
0010
0100
0010
0100
,
0010
0000
1010
0000
1000
0000
0001
0000
0101
0000
0000
0100
0010
0000
1000
0000
,
1100
0010
0011
0001
0100
0010
1010
1000
,
0010
0100
0101
0001
0010
0100
1100
1000
,
0010
0100
0110
0010
1000
0001
1001
1000
,
0001
0100
0110
0010
1000
0100
0110
0010
,
0001
0000
0001
0000
0001
0000
0100
0010
1000
0000
0001
0000
0010
0000
0000
0000
,
0100
0000
0100
0000
0100
0000
1000
0010
0100
0000
0001
0000
1000
0000
0000
0000
,
0010
0000
0010
0000
0010
0000
0100
0001
1000
0000
0100
0000
0010
0000
0000
0000
,
0001
0000
0001
0000
0001
0000
0100
0010
1000
0000
0001
0000
0010
0000
0000
0000
,
0100
0000
0100
0000
0100
0000
1000
0001
0100
0000
0010
0000
1000
0000
0000
0000
,
0010
0000
0010
0000
0010
0000
0100
0001
1000
0000
0100
0000
0010
0000
0000
0000
,
0100
0000
0100
0000
0100
0000
1000
0010
0100
0000
0001
0000
0010
0000
0000
0000
,
0001
0000
0001
0000
0001
0000
1000
0100
0010
0000
0100
0000
1000
0010
0100
0001
,
1000
0100
1100
0000
1000
0010
0110
0200
,
0000
0301
0011
0010
0100
1000
1001
0000
,
0001
0100
0101
0000
0001
0010
0110
0200
,
0000
1300
1010
0010
0100
0001
1001
0000
,
1000
0010
0110
0000
0100
0001
0011
0020
,
0000
0130
1100
1000
0010
0100
0101
0000
,
0001
0010
0110
0000
0100
1000
1010
0020
,
0000
0000
0130
0000
0101
0000
0001
0010
0100
1000
0001
0010
0100
1000
0001
0010
,
0200
0000
0300
0000
1100
0000
0000
0000
1010
0000
0000
0011
0000
0000
1010
0000
,
1000
0000
0100
0000
0020
0000
0030
0000
0011
0000
0000
1010
0000
0000
0011
0000
,
0001
0000
0100
0000
0020
0000
0030
0000
1010
0000
0000
1100
0000
0000
1010
0000
,
0010
0000
0100
0000
0002
0000
0003
0000
0011
0000
0000
0101
0000
0000
0011
0000
,
0010
0100
1100
1000
0010
0100
0110
0010
,
0100
0001
0011
0010
0100
1000
1010
0010
,
0100
0001
0101
0100
0010
1000
1001
0010
,
0110
0101
1010
1001
,
0201
0000
0000
1000
0000
0000
0310
0000
0100
0000
0001
0010
0001
0010
0100
0000
,
0010
0000
0001
0100
0000
0010
0100
0000
0020
0000
0030
0000
1000
0000
0100
0000
,
1200
0000
0000
0001
0000
0000
0310
0000
0100
0000
1000
0010
1000
0010
0100
0000
,
0102
0000
0000
0000
0023
0000
0000
0000
0230
0000
0000
0000
1300
0010
0100
0001
,
1000
0000
0000
1100
0000
0000
1010
0000
0000
0011
0000
0001
0100
0000
0120
0000
,
0000
0000
1030
0000
0001
0000
0010
0000
0100
0000
1000
0010
1000
0010
1000
0010
,
2000
0000
0000
0001
0002
0000
3003
0000
,
0220
0300
0001
1030
,
1000
0100
0020
0000
0130
0000
0010
0000
0100
1000
0020
0000
0130
0000
0010
0000
,
1000
0100
0020
0000
0031
0000
0010
0000
0100
1000
0020
0000
0130
0000
0010
0000
,
0100
0001
0020
0000
0130
0000
0010
0000
0001
0100
0020
0000
0130
0000
0010
0000
,
0100
0001
0020
0000
0130
0000
0010
0000
0001
0000
0100
0000
1000
0000
0001
0000
,
0010
1000
0200
0000
0310
0000
0100
0000
0010
0001
0200
0000
0310
0000
0100
0000
,
0010
1000
0002
0000
0103
0000
0001
0000
0010
0001
2000
0000
3100
0000
1000
0000
,
1010
0010
0101
0000
0011
0100
1100
0000
,
1001
0000
0000
0000
0110
0000
0000
0000
0010
1000
0010
1000
0001
0100
0001
0100
,
0010
1000
0002
0000
0103
0000
0001
0000
0100
0001
2000
0000
3010
0000
1000
0000
,
0100
1000
0002
0000
0013
0000
0001
0000
0010
0001
2000
0000
3100
0000
1000
0000
,
0100
0010
0002
0000
0103
0000
0001
0000
0010
0100
2000
0000
3010
0000
1000
0000
,
0010
0100
0002
0000
1003
0000
0001
0000
0100
0000
0010
0000
1000
0000
0100
0000
,
0120
0000
0031
0100
1000
0100
0001
0021
,
0000
0000
1030
0000
0010
0000
0001
0000
0100
0010
0000
1000
0010
0000
0100
0000
,
0102
0000
0013
1000
0001
0100
1000
0020
,
0000
0000
0130
0000
0100
0000
0100
0000
0001
0010
0001
0010
0100
1000
0100
1000
,
0010
0100
0001
0100
0010
1000
0010
0100
0001
0100
0010
1000
0100
0010
0001
0010
,
0200
0000
0000
0000
2300
3020
0230
0302
,
0000
0000
0000
0000
2003
3200
0320
0032
,
0000
0000
0000
0000
0203
0320
2030
3002
,
0023
0000
0100
0230
0000
1000
1000
1000
,
2300
0000
0000
0000
0000
0000
0000
0000
3010
0100
0001
1000
0100
0010
0001
0100
,
0020
0000
0030
0000
0010
1000
0200
0000
0300
0000
0100
0010
0002
0000
0003
0000
,
0001
0100
0010
1000
0002
0000
0003
0000
0001
0010
0100
0010
0001
0100
0010
1000
,
0200
0000
0000
0302
0000
0000
2003
0000
,
0000
3020
0000
0000
0032
0000
0203
0000
,
0000
0000
0310
1000
0100
1000
0010
0100
0001
0010
0001
0100
0010
1000
0001
0010
,
0100
1000
0020
0000
1030
0100
0010
0001
0200
0000
0301
0010
0100
1000
0010
0100
,
0001
1000
0001
1000
0200
0000
1300
0001
1000
0001
0020
0000
0130
1000
0100
1000
,
0020
0000
0130
0001
0100
0001
0020
0000
0031
0100
0001
0100
0020
0000
1030
0100
,
1000
0100
0020
0000
0031
1000
0010
0100
0002
0000
1003
0010
0100
0001
2000
0000
,
3100
0010
0001
0010
0100
0010
0001
0100
0010
1000
0001
0010
0200
0000
0300
0000
,
2002
0000
3003
0000
1001
0000
0000
0000
1000
0010
0200
0000
1300
0000
0100
0000
,
0001
0100
0020
0000
0031
0000
0010
0000
1000
0100
0020
0000
1030
0000
0010
0000
,
0001
0100
0020
0000
1030
0100
0020
0000
0031
0100
0020
0000
0031
0000
0010
0000
,
1000
0010
0200
0000
1300
0000
0100
0000
0001
0010
0200
0000
0310
0100
2000
0000
,
3010
0100
0002
0000
1003
0000
0001
0000
0010
0001
0010
0100
2000
0000
3000
0000
,
0010
1000
0010
0100
0002
0000
0013
0000
1100
0000
0100
0000
0011
0000
0010
0000
,
0001
0100
0010
1000
0001
0010
0100
1000
0010
0100
0002
0000
0013
0000
0001
0000
,
0100
0010
2000
0000
3100
0000
1000
0000
0001
0010
0200
0000
0301
0000
0100
0000
,
1000
0100
0020
0000
1030
0000
0010
0000
0001
0100
2000
0000
3100
0000
1000
0000
,
0001
0010
2000
0000
3010
0000
1000
0000
0100
0001
2000
0000
3010
0000
1000
0000
,
0010
0001
0100
0010
1000
0001
0010
0100
2000
0000
0000
0000
3010
0000
0100
0000
,
0101
0001
0010
1200
0000
0301
0100
1000
,
0010
0100
0000
0001
0100
0000
0010
0000
2010
0000
0000
0000
3100
0000
0001
0000
,
1000
0010
0001
1001
0000
1010
0100
0001
,
0011
1100
0220
0000
,
0000
0000
0000
0000
,
0000
0000
0330
0000
;

//---------------dance-double - ----------------
#NOTEDATA:;
#CHARTNAME:;
#STEPSTYPE:dance-double;
#DESCRIPTION:;
#CHARTSTYLE:;
#DIFFICULTY:Challenge;
#METER:16;
#RADARVALUES:0.819147,1.036903,0.552166,0.545086,0.520310,810.000000,732.000000,78.000000,77.000000,0.000000,0.000000,0.000000,0.000000,0.000000,0.819147,1.036903,0.552166,0.545086,0.520310,810.000000,732.000000,78.000000,77.000000,0.000000,0.000000,0.000000,0.000000,0.000000;
#CREDIT:;
#DISPLAYBPM:164.000000;
#NOTES:
00000000
00000000
00000000
00000000
,
00000000
00000000
00000000
00000000
,
00000000
00000000
00000000
00000000
00000000
00000000
00000000
00022000
,
00000000
00000000
00000000
00000000
,
00000000
00000000
00000000
00033000
,
00001000
00000000
00001000
00000000
00100000
00010000
00100000
00010000
01000000
00001000
01000000
00001000
00010000
00000100
00010000
00000100
,
00000010
00000010
00000010
00001001
,
00001000
00000000
00000000
00000000
00001000
00000000
00000000
00000000
00001000
00000000
00000010
00000100
00000010
00000000
00000110
00000000
,
00000100
00000000
00000000
00000000
00001000
00000000
00011000
00000000
00010000
00000000
00000000
00000000
00100000
01000000
00100000
01000000
,
00100000
00000000
01100000
00000000
01000000
00000000
00010000
00000000
10010000
00000000
00000000
10000000
00100000
00000000
01000000
00000000
,
02100000
03010000
00110000
00100000
00001000
00010000
00011000
00001000
,
00010000
00000010
00001010
00001000
00000100
00010000
00011000
00001000
,
00100000
00010000
01010000
01000000
00001000
00010000
00011000
00001000
,
00010000
00000100
00001100
00001000
00000001
00000100
00000110
00000010
,
00010000
00000000
00001000
00000000
00010000
00000000
00001000
00100000
00010000
00000000
00100000
00000000
00010000
00000000
00100000
00000000
,
01000000
00000000
10000000
00000000
01000000
00000000
10000000
00100000
01000000
00000000
00100000
00000000
01000000
00000000
00100000
00000000
,
01000000
00000000
00010000
00000000
01000000
00000000
00010000
00100000
00001000
00000000
00010000
00000000
00001000
00000000
00010000
00000000
,
00000100
00000000
00001000
00000000
00000100
00000000
00001000
00000001
00000100
00000000
00000001
00000000
00000100
00000000
00000001
00000000
,
00000010
00000000
00000100
00000000
00000010
00000000
00000100
00010000
00001000
00000000
00010000
00000000
00001000
00000000
00010000
00000000
,
00100000
00000000
01000000
00000000
00100000
00000000
01000000
00010000
10000000
00000000
01000000
00000000
10000000
00000000
01000000
00000000
,
00010000
00000000
00001000
00000000
00010000
00000000
00001000
00010000
00000010
00000000
00001000
00000000
00000010
00000000
00001000
00000000
,
00000100
00000000
00000010
00000000
00000100
00000000
00000010
00000001
00000100
00000000
00000010
00000000
00001000
00000100
00000010
00000001
,
00000010
00000001
00000101
00000000
00000100
00000010
00001010
00000000
,
00001000
00000100
00010100
00000000
00010000
00001000
00101000
00000000
,
00100000
00010000
01010000
00000000
01000000
00100000
10100000
00000000
,
10000000
00010000
01010000
00000000
01000000
00001000
00011000
00000000
,
00010000
00000100
00001100
00000000
00001000
00000010
00000110
00000000
,
00000100
00000001
00000011
00000000
00000010
00001000
00011000
00000000
,
00010000
00100000
10100000
00000000
10000000
01000000
01100000
00000000
,
00100000
00000000
00001000
00000000
00011000
00000000
00010000
00000100
00001000
00000010
00010000
00001000
00000100
00000010
00001000
00000100
,
00000020
00000000
00000030
00000000
00000011
00000000
00000000
00000000
00000001
00000000
00000000
00000001
00000000
00000000
00000001
00000000
,
00000100
00000000
00001000
00000000
00022000
00000000
00033000
00000000
00010000
00000000
00000000
00010000
00000000
00000000
00010000
00000000
,
00100000
00000000
10000000
00000000
22000000
00000000
33000000
00000000
01000000
00000000
00000000
01000000
00000000
00000000
01000000
00000000
,
00100000
00000000
00001000
00000000
00022000
00000000
00033000
00000000
00010000
00000000
00000000
00010000
00000000
00000000
00010000
00000000
,
00001000
00000100
00000101
00000001
00000010
00000100
00000110
00000010
,
00001000
00010000
00011000
00001000
00010000
01000000
01100000
00100000
,
01000000
10000000
10100000
00100000
00010000
00001000
00011000
00010000
,
00010010
00101000
00010100
01001000
,
00021000
00000000
00000000
00030200
00000000
00000000
00001300
00000000
00001000
00000000
00000001
00000100
00000010
00000100
00000001
00000000
,
00000010
00000000
00001000
00010000
00000000
00001000
00100000
00000000
00020000
00000000
00030000
00000000
01000000
00000000
00001000
00000000
,
00012000
00000000
00000000
00203000
00000000
00000000
00310000
00000000
00010000
00000000
10000000
00100000
01000000
00100000
10000000
00000000
,
12000000
00000000
00000000
00000000
03020000
00000000
00000000
00000000
00032000
00000000
00000000
00000000
00003010
00000001
00000100
00000001
,
00000010
00000000
00000000
00000110
00000000
00000000
00010100
00000000
00000000
01001000
00000000
01000000
00100000
00000000
20100000
00000000
,
00000000
00000000
31000000
00000000
00100000
00000000
00010000
00000000
01000000
00000000
00001000
00010000
00001000
00010000
00001000
00010000
,
00002000
00000000
00000000
00010000
00020000
00000000
00033000
00000000
,
00200000
00000000
00000000
00000000
00000000
00000000
00000000
00000000
00301000
00010000
00001000
00010000
00000020
00000000
00000030
00000000
,
00001000
00000100
00001000
00000000
00000010
00000000
00000100
00000000
00000001
00000010
00000001
00000000
00000100
00000000
00000010
00000000
,
00010000
00001000
00010000
00000000
00000100
00000000
00001000
00000000
00000010
00000100
00000010
00000000
00010000
00000000
00001000
00000000
,
01000000
00100000
01000000
00000000
00010000
00000000
00100000
00000000
00001000
00010000
00001000
00000000
01000000
00000000
00100000
00000000
,
10000000
00010000
10000000
00000000
01000000
00000000
00100000
00000000
00001000
00000000
00010000
00000000
00100000
00000000
10000000
00000000
,
01000000
00100000
01000000
00000000
00010000
00000000
00001000
00000000
00000010
00000100
00000010
00000000
00001000
00000000
00010000
00000000
,
00000100
00000010
00000100
00000000
00010000
00000000
00001000
00000000
00100000
01000000
00100000
00000000
00010000
00000000
01000000
00000000
,
01001000
00001000
00011000
00000000
00010100
00010000
00011000
00000000
,
00101000
00000000
00000000
00000000
00010010
00000000
00000000
00000000
00010000
00001000
00010000
00001000
01000000
00010000
01000000
00010000
,
10000000
00100000
10000000
00000000
01000000
00000000
00100000
00000000
00010000
01000000
00010000
00000000
00100000
00000000
00001000
00000000
,
00010000
00001000
00010000
00000000
00000010
00000000
00001000
00000000
00000100
00000010
00000100
00000000
00010000
00000000
00001000
00000000
,
00100000
01000000
00100000
00000000
00010000
00000000
01000000
00000000
00001000
00010000
00001000
00000000
00000100
00000000
00000010
00000000
,
00001000
00000001
00001000
00000000
00000010
00000000
00000100
00000000
00001000
00000000
00010000
00000000
00100000
00000000
01000000
00000000
,
01200000
00000000
10300000
01000000
00010000
00001000
00000010
00000012
,
00000000
00000000
00001003
00000000
00000010
00000000
00010000
00000000
00011000
00000000
00000000
01001000
00000000
00000000
00010100
00000000
,
00012000
00000000
00103000
01000000
10000000
00100000
01000000
00020000
,
00000000
00130000
00100000
00100000
02000000
03020000
00032000
00003200
,
00000301
00000010
00000001
00000010
00000100
00001000
00000100
00001000
00000010
00010000
00000010
00010000
00001000
00100000
00001000
00100000
,
00020000
00000000
00000000
00000000
02030000
03002000
00023000
00030200
,
00000000
00000000
00000000
00000000
00000320
00002030
00023000
00230000
,
00000000
00000000
00000000
00000000
20300000
32000000
03200000
00320000
,
02030000
00000000
00001000
03002000
00000000
00010000
00010000
00010000
,
00023000
00000000
00000000
00000000
00000000
00000000
00000000
00000000
00030100
00001000
00000100
00000010
00000001
00001000
00000100
00000010
,
00000002
00000000
00000003
00000000
00000001
00000100
00002000
00000000
00003000
00000000
00000100
00001000
00020000
00000000
00030000
00000000
,
00001000
00010000
00100000
01000000
00200000
00000000
00300000
00000000
01000000
00100000
10000000
00010000
00100000
01000000
10000000
00100000
,
02000000
00000000
00000000
03002000
00000000
00000000
00003200
00000000
,
00000000
00020300
00000000
00000000
00230000
00000000
00302000
00000000
,
00000000
00000000
00003010
00000001
00000010
00000001
00000100
00000010
00000100
00000010
00001000
00000100
00001000
00000100
00010000
00001000
,
00010000
00001000
00200000
00000000
00301000
00010000
00001000
00010000
00000020
00000000
00010030
00001000
00010000
00001000
00100000
00010000
,
01000000
00100000
20000000
00000000
31000000
00000000
01000000
00100000
00020000
00000000
01030000
00000000
01000000
00001000
00020000
00000000
,
00030100
00000000
00000100
00001000
00000020
00000000
00000130
00000000
00000100
00000001
00002000
00000000
00003100
00000000
00000100
00000010
,
00000002
00000000
00000103
00000000
00000100
00001000
00020000
00000000
00130000
00000000
00100000
10000000
02000000
00000000
03010000
00000000
,
00010000
00001000
00000100
00001000
00010000
00001000
00000100
00000010
00001000
00000100
00000010
00000001
00000200
00000000
00000300
00000000
,
00022000
00000000
00033000
00000000
00011000
00000000
00000000
00000000
00010000
00001000
00100000
00000000
00010000
00000000
01000000
00000000
,
00100000
10000000
00010000
00000000
00100000
00000000
01000000
00000000
00010000
00001000
00100000
00000000
00010000
00000000
01000000
00000000
,
00001000
00010000
00000100
00000000
00010000
00001000
01000000
00000000
00001000
00010000
00000010
00000000
00001000
00000000
00000100
00000000
,
00000010
00000001
00000100
00000000
00001000
00000000
00010000
00000000
00100000
10000000
01000000
00000000
00100000
01000000
10000000
00000000
,
00100000
01000000
00010000
00000000
00100000
00000000
01000000
00000000
00010000
00001000
00010000
00001000
00200000
00000000
00300000
00000000
,
00001000
00010000
00001000
00010000
00000020
00000000
00000030
00000000
00010010
00000000
00010000
00000000
00101000
00000000
00001000
00000000
,
00010000
00000100
00001000
00000100
00001000
00000100
00000010
00000100
00000010
00000001
00000100
00000000
00000010
00000000
00001000
00000000
,
00000100
00000010
00001000
00000000
00010000
00000000
01000000
00000000
00100000
00010000
01000000
00000000
00100000
00000000
10000000
00000000
,
00010000
00100000
01000000
00000000
10000000
00000000
00100000
00000000
00010000
00001000
00000100
00000000
00000001
00000000
00000010
00000000
,
00000100
00010000
00001000
00000000
00100000
00000000
01000000
00000000
10000000
00100000
00010000
00000000
00001000
00000000
00100000
00000000
,
01000000
00100000
00010000
01000000
00100000
00010000
00001000
00010000
00000020
00000000
00000000
00000000
00001030
00000000
00000100
00000000
,
00000110
00000010
00000001
00000201
00000000
00001300
00010000
00100000
,
10100000
00000000
00000000
01010000
00000000
00000000
00101000
00000000
00021000
00000000
00000000
00000000
00030010
00000000
00000100
00000000
,
00001000
00000100
00000001
00000011
00000000
00001100
00000100
00010000
,
00011000
01001000
00020200
00000000
,
00000000
00000000
00000000
00000000
,
00000000
00000000
00030300
00000000
;

//---------------dance-double - ----------------
#NOTEDATA:;
#CHARTNAME:;
#STEPSTYPE:dance-double;
#DESCRIPTION:;
#CHARTSTYLE:;
#DIFFICULTY:Hard;
#METER:13;
#RADARVALUES:0.600708,0.635521,0.339794,0.304399,0.067251,594.000000,546.000000,48.000000,43.000000,0.000000,0.000000,0.000000,0.000000,0.000000,0.600708,0.635521,0.339794,0.304399,0.067251,594.000000,546.000000,48.000000,43.000000,0.000000,0.000000,0.000000,0.000000,0.000000;
#CREDIT:;
#DISPLAYBPM:164.000000;
#NOTES:
00000000
00000000
00000000
00000000
,
00000000
00000000
00000000
00000000
,
00000000
00000000
00000000
00000000
00000000
00000000
00000000
00022000
,
00000000
00000000
00000000
00000000
,
00000000
00000000
00000000
00033000
,
00200000
00000000
00000000
00000000
,
00310000
00000000
00010000
01000000
00100000
00000000
01000000
00100000
,
10000000
00000000
00000000
00000000
00100000
00000000
10000000
00000000
01000000
00000000
00000000
00010000
00001000
00000000
00010000
00000000
,
00011000
00000000
00000000
00000000
00001000
00000000
00010000
00000000
00000100
00000000
00000000
00000000
00001000
00000100
00001000
00000100
,
00001000
00000000
00000100
00000000
00000010
00000000
00000001
00000000
00001000
00000000
00000000
00000100
00001000
00000000
00000001
00000000
,
00000010
00000001
00000100
00000000
00000010
00001000
00000100
00000000
,
00000010
00001000
00010000
00000000
00001000
00010000
00100000
00000000
,
01000000
00100000
10000000
00000000
01000000
10000000
00100000
00000000
,
00010000
00001000
00100000
01000000
00010000
00001000
00000010
00000100
,
00001000
00000001
00000100
00001000
,
00010000
00100000
00010000
00001000
,
00000010
00001000
00010000
01000000
,
10000000
00100000
00010000
00001000
,
00000100
00001000
00010000
01000000
,
00010000
00001000
00000010
00000001
,
00000100
00001000
00010000
00100000
,
10000000
01000000
00100000
00010000
01000000
00100000
00010000
00001000
,
00000010
00000001
00000100
00000001
00000010
00000001
00000100
00000101
,
00000000
00001010
00001000
00000100
00000010
00001000
00020000
00000000
,
00130000
10000000
01000000
10000000
00100000
10000000
01000000
11000000
,
00000000
00110000
00010000
01000000
00100000
00010000
00002000
00000000
,
00003010
00000100
00001000
00000100
00000001
00000100
00001000
00001010
,
00000000
00000101
00000100
00000010
00001000
00000100
00020000
00000000
,
01030000
00100000
00010000
00100000
10000000
00100000
00010000
01010000
,
00000000
10100000
00100000
01000000
00010000
00100000
00001000
00010000
,
00011000
00000000
00000000
00000000
00011000
00000000
00000000
00000000
00001000
00000000
00000000
00001000
00000000
00000000
00001000
00000000
,
00000100
00000000
00000001
00000000
00000010
00000000
00000000
00000000
00000100
00000000
00000000
00000100
00000000
00000000
00000100
00000000
,
00010000
00000000
00001000
00000000
00100000
00000000
00000000
00000000
01000000
00000000
00000000
01000000
00000000
00000000
01000000
00000000
,
10000000
00000000
00100000
00000000
00010000
00000000
00000000
00000000
00001000
00000000
00000000
00001000
00000000
00000000
00001000
00000000
,
00000100
00000001
00001001
00000000
00001000
00000010
00010010
00000000
,
00010000
00001000
00101000
00000000
00001000
00010000
00010100
00000000
,
00010000
00001000
01001000
00000000
01000000
00010000
00110000
00000000
,
11000000
01010000
00011000
00001100
,
00000100
00000000
00000000
00000100
00000000
00000000
00000100
00000000
00000001
00000000
00000000
00001000
00000001
00000000
00000010
00000000
,
00000001
00000000
00000000
00000100
00000001
00000000
00001000
00000000
00001010
00000000
00000000
00000000
00000010
00000000
00010000
00000000
,
00001000
00000000
00000000
00001000
00000000
00000000
00001000
00000000
00100000
00000000
00000000
00010000
00100000
00000000
01000000
00000000
,
11000000
00000000
00000000
00000000
00110000
00000000
00000000
00000000
00011000
00000000
00000000
00000000
00001000
00010000
00001000
00010000
,
00001000
00000000
00000000
00100000
00000000
00000000
01000000
00000000
00000000
00010000
00000000
00000000
00001000
00000000
00000010
00000000
,
00000100
00010000
00001000
00000100
00000001
00000010
00001000
00010000
,
00022000
00000000
00000000
00033000
,
00000020
00000000
00010000
00010030
,
00010000
00001000
00000100
00000010
00010000
00001000
00000010
00000100
,
00010000
00001000
00100000
01000000
00001000
00010000
00100000
01000000
,
00010000
10000000
01000000
00100000
00001000
00010000
00000100
00000010
,
00000001
00001000
00000010
00000100
00001000
00010000
00100000
10000000
,
01000000
00010000
01000000
10000000
00100000
00010000
00100000
10000000
,
01000000
00010000
00001000
00100000
00010000
00001000
00000010
00010000
,
00001000
00000100
00000102
00000000
00000013
00001000
00021000
00000000
,
00030010
00000000
00101000
00000000
00001000
00010000
00100000
10000000
,
01000000
00100000
00010000
01000000
00001000
00010000
00000010
00001000
,
00000100
00000010
00001000
00010000
01000000
00100000
00010000
01000000
,
00001000
00010000
00000100
00000010
00000001
00000100
00001000
00010000
,
00100000
10000000
01000000
00010000
00001000
00000010
00000001
00000100
,
00002000
00000000
00013000
00000100
00000010
00001000
00010000
02000000
,
00000000
00000000
13000000
00000000
00100000
00000000
01000000
00000000
00010000
00000000
00000000
00100000
00000000
00000000
00001000
00000000
,
00020000
00000000
00030100
00001000
00000100
00000010
00000001
00000200
,
00000000
00000310
00010000
00001000
00022000
00000000
00033000
00000000
,
00201000
00000000
00000000
00010000
00010000
00000000
01000000
00000000
,
00000000
10000000
10000000
00000000
01000000
01000000
00000000
00010000
,
00320000
00000000
00000000
01000000
01000000
00000000
10000000
00000000
,
00000000
00130000
00100000
00001000
00022000
00000000
00033000
00000000
,
00010020
00000000
00000000
00001000
00001000
00000000
00000100
00000000
,
00000000
00000001
00000001
00000000
00000100
00000100
00000000
00001000
,
00002030
00000000
00000000
00000100
00000100
00000000
00000001
00000000
,
00000000
00000010
00000010
00000000
00000002
00003003
00000000
00000010
,
00000200
00000000
00000000
00010000
00020300
00000000
00032000
00000000
,
00000000
00103000
00200000
00000000
01000000
02300000
00000000
10000000
,
23000000
00000000
00000000
00100000
30200000
00000000
00320000
00000000
,
00000000
00031000
00001000
00000100
00000002
00000000
00000013
00000100
,
00001000
00001000
00000010
00000010
00010000
00010000
00001000
00001000
,
00100000
00100000
00010000
00010000
01000000
01000000
00001000
00001000
,
00010000
00010000
00100000
00100000
00001000
00001000
00000010
00000010
,
00000100
00000100
00010000
00010000
01000000
01000000
00001000
00001000
,
00022000
00033000
00011000
00000000
00010000
00000100
00000010
00000001
,
00001000
00000010
00010000
00100000
10000000
00010000
00100000
01000000
,
00010000
00000100
00001000
00000100
00000010
00000001
00001000
00000010
,
00000100
00001000
00010000
00100000
01000000
00010000
10000000
00100000
,
00010000
00000010
00001000
00000100
00000010
00000001
00000201
00000000
,
00001300
00010000
00210000
00000000
10300000
00000000
10010000
00000000
,
10000000
01000000
00100000
00010000
00001000
00000010
00000100
00000001
,
00000100
00001000
00000100
00000001
00000010
00000100
00001000
00010000
,
01000000
00100000
10000000
01000000
00010000
01000000
10000000
01000000
,
00100000
00010000
00001000
00000010
00000100
00001000
00000100
00000001
,
00000010
00000100
00001000
00000010
00020010
00000000
00031000
00100000
,
00010000
01000000
00100000
20100000
00000000
31000000
00010000
00001000
,
00000010
00000000
00000000
00000011
00000000
00000000
00001100
00000000
00001002
00000000
00000000
00000000
00000013
00000000
00000100
00000000
,
00001000
00010000
01000000
01200000
00000000
10300000
01000000
00010000
,
00011000
00101000
00020020
00000000
,
00000000
00000000
00000000
00000000
,
00000000
00000000
00030030
00000000
;

//---------------dance-double - ----------------
#NOTEDATA:;
#CHARTNAME:;
#STEPSTYPE:dance-double;
#DESCRIPTION:;
#CHARTSTYLE:;
#DIFFICULTY:Medium;
#METER:9;
#RADARVALUES:0.385302,0.501727,0.198213,0.219450,0.017698,381.000000,353.000000,28.000000,31.000000,0.000000,0.000000,0.000000,0.000000,0.000000,0.385302,0.501727,0.198213,0.219450,0.017698,381.000000,353.000000,28.000000,31.000000,0.000000,0.000000,0.000000,0.000000,0.000000;
#CREDIT:;
#DISPLAYBPM:164.000000;
#NOTES:
// measure 0
00000000
00000000
00000000
00000000
,  // measure 1
00000000
00000000
00000000
00000000
,  // measure 2
00000000
00000000
00000000
00000000
00000000
00000000
00000000
00022000
,  // measure 3
00000000
00000000
00000000
00000000
,  // measure 4
00000000
00000000
00000000
00000000
,  // measure 5
00033000
00000000
00000000
00000000
,  // measure 6
00001000
00010000
00001000
00011000
,  // measure 7
00010000
00000000
00000100
00000000
00001000
00000001
00001000
00000000
,  // measure 8
00000100
00010000
00001000
00011000
,  // measure 9
00010000
00000000
00001000
00000000
01000000
00000000
00010000
10000000
,  // measure 10
00010000
01010000
01000000
00011000
,  // measure 11
00000100
00001100
00000010
00001010
,  // measure 12
00010000
00011000
00100000
00110000
,  // measure 13
01000000
01010000
00001000
00011000
,  // measure 14
00000200
00000300
00001000
00000100
,  // measure 15
00000020
00000030
00000001
00000100
,  // measure 16
00002000
00003000
00010000
00100000
,  // measure 17
20000000
30000000
01000000
00100000
,  // measure 18
00020000
00030000
01000000
00001000
,  // measure 19
00020000
00030000
00000010
00010000
,  // measure 20
00002000
00003000
00100000
00001000
,  // measure 21
00020000
00030000
00000100
00010000
,  // measure 22
00001000
00011000
00010000
00000100
,  // measure 23
00001000
00001010
00000010
00000100
,  // measure 24
00000001
00000011
00000010
00000100
,  // measure 25
00001000
00001100
00000100
00010000
,  // measure 26
00001000
00011000
00010000
00001000
,  // measure 27
00100000
00110000
00010000
00100000
,  // measure 28
01000000
11000000
10000000
00100000
,  // measure 29
02000000
03010000
00002000
00013000
,  // measure 30
00000200
00000000
00000000
00001300
00001000
00000000
00000000
00000001
,  // measure 31
00000010
00000000
00000001
00000000
00000101
00000000
00000000
00000100
,  // measure 32
00000010
00000000
00001000
00000000
00001100
00000000
00000000
00000100
,  // measure 33
00010000
00001000
00100000
00010000
,  // measure 34
01000000
00100000
10000000
01000000
,  // measure 35
00010000
00001000
00000010
00000001
,  // measure 36
00001000
00000001
00001000
00000000
00000100
00000000
00001000
00000001
,  // measure 37
00001000
00000100
00000010
00000001
,  // measure 38
00000100
00000000
00000000
00000100
00000000
00000000
00000000
00000000
00001000
00000000
00000000
00000000
00010000
00000000
00000000
00000000
,  // measure 39
00100000
00000000
01000000
00100000
01000000
00000000
00000000
00010000
,  // measure 40
00010000
00000000
00000000
00010000
00000000
00000000
00000000
00000000
01000000
00000000
00000000
00000000
00100000
00000000
00010000
00000000
,  // measure 41
00100000
00010000
00001000
00000100
,  // measure 42
00000001
00000000
00000000
00000001
00000000
00000000
00000002
00000000
00000000
00000000
00000000
00000000
00000013
00000000
00000000
00000000
,  // measure 43
00000100
00001000
00000010
00010000
,  // measure 44
00002000
00000000
00000000
00000000
,  // measure 45
00020000
00000000
00000000
00033000
,  // measure 46
00011000
00000000
00001000
00100000
00010000
00000000
01000000
00000000
,  // measure 47
00001000
00000000
00010000
00000100
00001000
00000000
00000010
00000000
,  // measure 48
00010000
00000000
00001000
00010000
00100000
00000000
01000000
00000000
,  // measure 49
00001000
00000000
00010000
00001000
00000100
00000000
00000010
00000000
,  // measure 50
00020000
00031000
01000000
00001000
,  // measure 51
00020000
00000000
00030010
00000000
00010000
00000000
00000000
00001000
,  // measure 52
00010000
00000000
00000000
00010000
00001000
00000000
00000000
00001000
,  // measure 53
00010000
00000000
00011000
00000000
00001000
00010000
00001000
00000000
,  // measure 54
00000100
00000000
00000001
00000010
00000100
00000000
00000010
00000000
,  // measure 55
00001000
00000000
00010000
00001000
00000010
00000000
00001000
00000000
,  // measure 56
00010000
00000000
00001000
00010000
00100000
00000000
00010000
00000000
,  // measure 57
00001000
00000000
00010000
00100000
10000000
00000000
01000000
00100000
,  // measure 58
02000000
00000000
03000000
00000000
00010000
00001000
00010000
00001000
,  // measure 59
00000000
00000000
00000010
00000000
00000100
00000000
00000000
00000000
00000010
00000000
00000000
00000010
00000000
00000000
00000020
00000000
,  // measure 60
00000000
00000000
00000031
00000000
00000001
00001000
00000001
00001000
,  // measure 61
00000000
00000010
00010000
00000000
00022000
00000000
00033000
00000000
,  // measure 62
00020000
00000000
00000100
00000000
,  // measure 63
00000000
00000100
00000100
00030000
,  // measure 64
00002000
00000000
01000000
00000000
,  // measure 65
00000000
01000000
01000000
00003000
,  // measure 66
00020000
00000000
00000010
00000000
,  // measure 67
00000000
00000010
00000010
00030000
,  // measure 68
00002000
00000000
00100000
00000000
,  // measure 69
00000000
00100000
00100000
00003000
,  // measure 70
00020000
00000000
00100000
00000000
,  // measure 71
00000000
00100000
00100000
00030000
,  // measure 72
00002000
00000000
00000010
00000000
,  // measure 73
00000000
00000010
00000010
00003000
,  // measure 74
00010000
00001000
00000000
00001000
00000100
00000000
00000100
00000001
,  // measure 75
00000000
00000001
00000010
00000000
00000010
00001000
00000000
00001000
,  // measure 76
00010000
00000000
00010000
01000000
00000000
01000000
10000000
00000000
,  // measure 77
10000000
00100000
00000000
00100000
00010000
00000000
00001000
00000000
,  // measure 78
00011000
00000000
00000000
00010000
00010000
00000000
00000100
00000000
,  // measure 79
00001000
00000000
00000001
00000100
00000001
00000000
00001000
00000000
,  // measure 80
00000100
00000000
00010000
00001000
00010000
00000000
00100000
00000000
,  // measure 81
10000000
00000000
01000000
00100000
01000000
00000000
00010000
00000000
,  // measure 82
00001000
00000000
00000010
00000100
00000010
00000000
00000001
00000100
,  // measure 83
00001000
00000000
00010000
00001000
00010000
00000000
00011000
00000000
,  // measure 84
01001000
00000000
00010100
00000000
00010000
00001000
00100000
00000000
,  // measure 85
00010000
01000000
00100000
00000000
10000000
01000000
00100000
00000000
,  // measure 86
00010000
00100000
00001000
00000000
00010000
00000010
00001000
00000000
,  // measure 87
00000100
00000010
00000001
00000000
00000100
00001000
00010000
00000000
,  // measure 88
00100000
10000000
01000000
10000000
00200000
00000000
00300000
00000000
,  // measure 89
01000000
00010000
01000000
00010000
00000000
00100000
00001000
00000000
,  // measure 90
00010000
00000000
00000000
00010000
00000000
00000000
00010000
00000000
00000000
00000000
00000100
00000000
00001000
00000000
00000000
00000000
,  // measure 91
00000001
00000100
00000001
00000100
00000000
00000010
00010000
00000010
,  // measure 92
00010000
00001000
00022000
00000000
,  // measure 93
00000000
00000000
00000000
00000000
,  // measure 94
00000000
00000000
00033000
00000000
;
