#VERSION:0.83;
#TITLE:ヒビカセ;
#SUBTITLE:;
#ARTIST:Giga-P feat. REOL;
#TITLETRANSLIT:Hibikase;
#SUBTITLETRANSLIT:;
#ARTISTTRANSLIT:;
#GENRE:J-MUSIC;
#ORIGIN:;
#CREDIT:MUINELIM;
#BANNER:Hibikase.png;
#BACKGROUND:Hibikase-bg.png;
#PREVIEWVID:;
#JACKET:Hibikase-jacket.png;
#CDIMAGE:;
#DISCIMAGE:;
#LYRICSPATH:;
#CDTITLE:;
#MUSIC:Hibikase.ogg;
#OFFSET:-0.001000;
#SAMPLESTART:58.392723;
#SAMPLELENGTH:15.368568;
#SELECTABLE:YES;
#DISPLAYBPM:140.000000;
#BPMS:0.000=140.000;
#STOPS:;
#DELAYS:;
#WARPS:;
#TIMESIGNATURES:0.000=4=4;
#TICKCOUNTS:0.000=4;
#COMBOS:0.000=1;
#SPEEDS:0.000=1.000=0.000=0;
#SCROLLS:0.000=1.000;
#FAKES:;
#LABELS:0.000=Song Start;
#BGCHANGES:0.000=Hibikase.avi=0.000=1=0=0=StretchNoLoop==CrossFade==,
99999=-nosongbg-=1.000=0=0=0 // don't automatically add -songbackground-
;
#KEYSOUNDS:;
#ATTACKS:
;

//---------------dance-single - ----------------
#NOTEDATA:;
#CHARTNAME:;
#STEPSTYPE:dance-single;
#DESCRIPTION:;
#CHARTSTYLE:;
#DIFFICULTY:Beginner;
#METER:3;
#RADARVALUES:0.109999,0.173760,0.034071,0.000000,0.000000,113.000000,108.000000,5.000000,0.000000,0.000000,0.000000,0.000000,0.000000,0.000000,0.109999,0.173760,0.034071,0.000000,0.000000,113.000000,108.000000,5.000000,0.000000,0.000000,0.000000,0.000000,0.000000,0.000000;
#CREDIT:MILEN;
#DISPLAYBPM:140.000000;
#NOTES:
0000
0000
0000
0000
,
0000
0000
0000
0000
,
0000
0000
0000
0000
,
0000
0000
0000
0000
,
0000
0000
0000
0000
,
0000
0000
0000
0000
,
0000
0000
0000
0000
,
1000
0000
0000
0000
,
0001
0000
0000
0000
,
1000
0000
0000
0000
,
0001
0000
0000
0000
,
1000
0000
1000
0000
,
1000
0000
1000
0000
,
0001
0000
0001
0000
,
0001
0000
0001
0000
,
1000
0000
1000
0000
,
0001
0000
0001
0000
,
1000
0000
0001
0000
,
1001
0000
0000
0000
,
0100
0000
0000
0000
,
0010
0000
0000
0000
,
1000
0000
0000
0000
,
0001
0000
0000
0000
,
0100
0000
0000
0000
,
0010
0000
0000
0000
,
1000
0000
0000
0000
,
0001
0000
0000
0000
,
0100
0000
0100
0000
,
0010
0000
0010
0000
,
0100
0000
0010
0000
,
0100
0000
0010
0000
,
1000
0000
1000
0000
,
0001
0000
0001
0000
,
1000
0000
0001
0000
,
1000
0000
0001
0000
,
1000
0000
0000
0000
,
0100
0000
0000
0000
,
0010
0000
0000
0000
,
0001
0000
0000
0000
,
1000
0000
0000
0000
,
0100
0000
0000
0000
,
0010
0000
0000
0000
,
0001
0000
0000
0000
,
1000
0000
0000
0000
,
0010
0000
0000
0000
,
0100
0000
0000
0000
,
0001
0000
0000
0000
,
1000
0000
0000
0000
,
0010
0000
0000
0000
,
0100
0000
0000
0000
,
0001
0000
0000
0000
,
1001
0000
0000
0000
,
0000
0000
0000
0000
,
0000
0000
0000
0000
,
0000
0000
0000
0000
,
1000
0000
0000
0000
,
0010
0000
0000
0000
,
0001
0000
0000
0000
,
0100
0000
0000
0000
,
1001
0000
0000
0000
,
1000
0000
1000
0000
,
0010
0000
0010
0000
,
0100
0000
0100
0000
,
0001
0000
0001
0000
,
1000
0000
1000
0000
,
0010
0000
0010
0000
,
0100
0000
0100
0000
,
0001
0000
0001
0000
,
1000
0000
1000
0000
,
0100
0000
0100
0000
,
0010
0000
0010
0000
,
0001
0000
0001
0000
,
1000
0000
1000
0000
,
0100
0000
0100
0000
,
0010
0000
0010
0000
,
0001
0000
0001
0000
,
0001
0000
0000
0000
,
0100
0000
0000
0000
,
1000
0000
0000
0000
,
0010
0000
0000
0000
,
0001
0000
0000
0000
,
0100
0000
0000
0000
,
1000
0000
0000
0000
,
0010
0000
0000
0000
,
0001
0000
0000
1001
,
1001
0000
0000
0000
;

//---------------dance-single - ----------------
#NOTEDATA:;
#CHARTNAME:;
#STEPSTYPE:dance-single;
#DESCRIPTION:;
#CHARTSTYLE:;
#DIFFICULTY:Easy;
#METER:6;
#RADARVALUES:0.224866,0.289600,0.068141,0.047699,0.000000,231.000000,221.000000,10.000000,7.000000,0.000000,0.000000,0.000000,0.000000,0.000000,0.224866,0.289600,0.068141,0.047699,0.000000,231.000000,221.000000,10.000000,7.000000,0.000000,0.000000,0.000000,0.000000,0.000000;
#CREDIT:MILEN;
#DISPLAYBPM:140.000000;
#NOTES:
0000
0000
0000
0000
,
0000
0000
0000
0000
,
0000
0000
0000
0000
,
0000
0000
0000
0000
,
0000
0000
0000
0000
,
0000
0000
0000
0000
,
0000
0000
0000
0000
,
0000
1000
0000
1000
,
0000
0001
0000
0001
,
0000
1000
0000
0001
,
1001
0000
0000
0000
,
1000
0100
1000
0000
,
0001
0010
0001
0000
,
1000
0010
1000
0000
,
0001
0100
0001
0000
,
1000
0001
1000
0000
,
0010
0100
0010
0000
,
0100
0010
0100
0000
,
0001
1000
0001
1000
,
1001
0000
0001
0000
,
0100
0000
1000
0000
,
0010
0000
0001
0000
,
0100
0000
1000
0000
,
0100
0000
0001
0000
,
0010
0000
1000
0000
,
0100
0000
0001
0000
,
0010
0100
0010
0110
,
1000
0000
1000
0000
,
1000
1000
1000
0000
,
0001
0000
0001
0000
,
0001
0001
0001
0000
,
0100
0000
0100
0000
,
0100
0100
0100
0000
,
0010
0000
0010
0000
,
0010
0010
0010
0010
,
1000
0100
0010
0000
,
0001
0010
0100
0000
,
1000
0010
0100
0000
,
0001
0100
0010
0000
,
1000
0001
0010
0000
,
0001
1000
0100
0000
,
1000
0001
0100
0000
,
0001
1000
0010
0000
,
1000
0100
0010
0100
,
1000
0100
0010
0000
,
0001
0010
0100
0010
,
0001
0010
0100
0000
,
1000
0010
0100
0010
,
1000
0010
0100
0000
,
0001
0100
0010
0100
,
0001
0100
0010
0000
,
0110
0000
0000
0000
,
0000
0000
0000
0000
,
0000
0000
0000
0000
,
0000
0000
0000
1001
,
0010
0000
0100
0000
,
0010
0000
0100
0000
,
0010
0010
0100
0100
,
0020
0230
0320
0230
,
0310
0000
0000
0000
,
1000
0100
0010
0000
,
0010
0001
0100
0000
,
0100
0010
1000
0000
,
1000
0001
0010
0000
,
0010
0100
1000
0000
,
1000
0001
0100
0000
,
0100
0010
1000
0000
,
1000
0100
0010
0001
,
1001
0010
0100
0001
,
0100
0010
0100
0001
,
1000
0010
0100
0010
,
1000
0010
0100
0010
,
1000
0100
0010
0100
,
1000
0100
0010
0001
,
0010
0100
0010
0001
,
0010
0100
1000
1001
,
0020
0000
0000
0000
,
0030
0001
0100
1000
,
0200
0000
0000
0000
,
0300
0001
0010
1000
,
0020
0030
0001
0100
,
0010
1000
0010
0100
,
0001
0010
0100
1000
,
0001
0010
0110
0000
,
1000
0100
0110
0000
,
1001
0000
0000
0000
;

//---------------dance-single - ----------------
#NOTEDATA:;
#CHARTNAME:;
#STEPSTYPE:dance-single;
#DESCRIPTION:;
#CHARTSTYLE:;
#DIFFICULTY:Medium;
#METER:8;
#RADARVALUES:0.330972,0.376480,0.197610,0.252123,0.000000,340.000000,311.000000,29.000000,37.000000,0.000000,0.000000,0.000000,0.000000,0.000000,0.330972,0.376480,0.197610,0.252123,0.000000,340.000000,311.000000,29.000000,37.000000,0.000000,0.000000,0.000000,0.000000,0.000000;
#CREDIT:MILEN;
#DISPLAYBPM:140.000000;
#NOTES:
0000
0000
0000
0000
,
0000
0000
0000
0000
,
0000
0000
0000
0000
,
0000
0000
0000
0000
,
0000
0000
0000
0000
,
0000
0000
0000
0000
,
0000
0000
0000
1001
,
1000
0001
1000
0001
,
0100
0010
0100
0010
,
1000
0001
0100
0010
,
2002
0000
0000
3003
,
1000
0010
1000
0010
,
0100
0001
0100
0001
,
1000
0010
0100
0001
,
2000
0000
3001
0000
1000
0001
1000
0000
,
0001
0010
0001
0010
,
0100
1000
0100
1000
,
0001
0010
0100
1000
,
0001
1000
0001
1000
0001
0000
0000
0000
,
1000
0100
1000
0100
,
0001
0100
0001
0100
,
0001
0010
0001
0010
,
1000
0010
1000
1001
,
0001
0100
0001
0100
,
1000
0100
1000
0100
,
1000
0010
1000
0010
,
0001
0010
0001
1001
,
2000
3000
0002
0003
,
0100
0010
0100
0110
,
0001
0010
0100
1000
,
0100
0010
0001
1001
,
0200
0300
0020
0030
,
0100
0010
0100
0110
,
0001
0010
0100
1000
,
0010
0100
0010
0000
0100
0010
0100
0000
,
0001
0100
0010
1010
,
1000
0100
0010
0011
,
0001
0010
0100
1100
,
1000
0010
0100
0101
,
0001
1000
0010
0110
,
0100
0001
1000
1001
,
0002
0103
2000
3010
,
0002
0000
1003
0000
0100
0010
0100
0000
,
0001
0010
0100
1100
,
1000
0010
0100
0101
,
0001
1000
0010
1010
,
1000
0100
0010
0011
,
0001
1000
0010
0110
,
0100
0001
1000
1001
,
0002
0013
2000
3100
,
0002
0000
1003
0000
0010
0100
0010
0000
,
0110
0000
0000
0000
,
0000
0000
0000
0000
,
0000
0000
0000
0000
,
0000
0000
0000
1001
,
0002
0100
0000
0103
,
2000
0010
0000
3010
,
0002
0013
2000
3100
,
0002
0023
0230
2300
,
3001
0000
0000
0000
,
1000
0000
0010
0000
0100
0010
0100
0000
,
0001
0000
0010
0000
0100
0010
0100
0000
,
1000
0000
0100
0000
0010
0100
0010
0000
,
0001
0000
0100
0000
0010
0100
0010
0000
,
1000
0000
0001
0000
0100
0010
1000
0000
,
0001
0000
1000
0000
0010
0100
0001
0000
,
1000
1100
0001
0101
,
1000
1010
0001
0011
,
1000
0000
0100
0000
0010
0001
0100
0000
,
0001
0000
0010
0000
0100
1000
0010
0000
,
0100
0000
0001
0000
0010
0100
1000
0000
,
0010
0000
1000
0000
0100
0010
0001
0000
,
1000
0000
0010
0000
0100
0001
1000
0000
,
0001
0000
0100
0000
0010
1000
0001
0000
,
0010
0100
1000
0001
,
0101
0000
1010
0000
1000
0100
1000
0000
,
0002
0023
0230
2300
,
3002
0100
0100
0103
,
2000
3200
0320
0032
,
2003
0010
0010
3010
,
0002
0203
0320
2030
,
3002
0013
2000
3100
,
0001
0010
1000
0000
1000
0010
0001
0000
,
1000
0000
0110
0000
0001
0100
1000
0000
,
0001
0000
0010
0000
1000
0100
0001
0000
,
1001
0000
0000
0000
;

//---------------dance-single - ----------------
#NOTEDATA:;
#CHARTNAME:;
#STEPSTYPE:dance-single;
#DESCRIPTION:;
#CHARTSTYLE:;
#DIFFICULTY:Hard;
#METER:12;
#RADARVALUES:0.532475,0.695041,0.545130,0.170353,0.126061,547.000000,467.000000,80.000000,25.000000,0.000000,0.000000,0.000000,0.000000,0.000000,0.532475,0.695041,0.545130,0.170353,0.126061,547.000000,467.000000,80.000000,25.000000,0.000000,0.000000,0.000000,0.000000,0.000000;
#CREDIT:MILEN;
#DISPLAYBPM:140.000000;
#NOTES:
0000
0000
0000
0000
,
0000
0000
0000
0000
,
0000
0000
0000
0000
,
0000
0000
0000
0000
,
0000
0000
0000
0000
,
0000
0000
0000
0000
,
0000
0000
0000
1001
,
2000
0010
0000
3010
,
0002
0100
0000
0103
,
2000
3100
0002
0013
,
1000
0010
0100
0001
1000
0000
0110
0000
,
0001
0001
0001
0001
,
0100
0100
0100
0100
,
1000
1000
1000
1000
,
0010
0010
0010
0010
,
0001
0001
0100
0100
,
1000
1000
0010
0010
,
0001
0100
1000
0010
,
0001
0000
1000
0000
0010
0000
0100
0000
0010
0000
0000
0100
0000
0000
0110
0000
,
0010
0000
1000
0000
0100
0000
0010
0000
0001
0000
0000
0010
0000
0000
0110
0000
,
0000
0000
0001
0000
0010
0000
0100
0000
1000
0000
0000
0100
0000
0000
0110
0000
,
0000
0000
1000
0000
0010
0000
0100
0000
0001
0000
0000
0100
0000
0000
0110
0000
,
0000
0000
0001
0000
0100
0000
0010
0000
1010
0000
0000
1100
0000
0000
1001
0000
,
0000
0000
0001
0000
0100
0000
0010
0000
1000
0000
0000
0100
0000
0000
0101
0000
,
0000
0000
1000
0000
0010
0000
0100
0000
0001
0000
0000
0010
0000
0000
1010
0000
,
1000
0100
0010
0001
0000
1001
0000
1000
,
0010
0000
0000
0110
0000
0000
0102
0000
0000
0000
1003
0000
1001
0000
0000
0000
,
0210
0000
0301
0010
0200
0000
0310
0001
,
0100
0010
0001
0010
0100
0001
0011
0000
,
0010
0000
0000
0100
0010
0000
0200
0000
0000
0000
1300
0000
0010
0000
0100
0000
,
0010
0000
0000
0100
0010
0000
2000
0000
0000
0000
3001
0000
0100
0000
0010
0000
,
0120
0000
1030
0100
0020
0000
0130
1000
,
0010
0100
1000
0100
0010
1000
1100
0000
,
0100
0000
0000
0010
0100
0000
0020
0000
0000
0000
0031
0000
0100
0000
0010
0000
,
0100
0001
0010
0100
1000
0010
0100
0110
,
0000
0001
0100
0010
1000
0001
0010
0100
,
0000
1000
0010
0100
0001
1000
0100
0010
,
0000
0001
0010
0100
1000
0010
0100
0001
,
0000
1000
0100
0010
0001
0100
0010
1000
,
0000
0001
0100
0010
0001
0010
0100
0001
,
0000
1000
0010
0100
1000
0100
0010
1000
,
1001
0000
0000
0101
0000
0000
1100
0000
1001
0000
0000
1010
0000
0000
0011
0000
,
0001
0000
0100
0000
0010
0000
0000
1010
0000
0000
0101
0000
0100
0000
0010
0000
,
1000
0100
0001
0100
1000
0010
0100
0000
,
0001
0010
1000
0010
0001
0100
0010
0000
,
1000
0010
0001
0010
1000
0100
0010
0000
,
0001
0100
1000
0100
0001
0010
0100
0000
,
1000
0010
0001
1000
0100
0001
0010
0000
,
0001
0100
1000
0001
0010
1000
0100
0010
,
0110
0000
0000
1100
0000
0000
1010
0000
0110
0000
0000
0101
0000
0000
0011
0000
,
0110
0000
0000
1001
0000
0000
0110
0000
1000
0000
0001
0000
0101
0000
0000
0000
,
1010
0000
0000
0000
,
0000
0000
0000
0000
,
0000
0000
0000
0000
,
0000
0000
0000
1001
,
0002
0010
1000
0103
,
2000
0010
0001
3100
,
0002
0013
2000
3100
,
0001
0010
0100
0001
1000
0010
0100
1000
,
2002
0000
3003
0110
,
0001
0000
0100
0000
0010
0000
1000
0000
0100
0000
0000
0001
0000
0000
0010
0000
,
1000
0000
0100
0000
0010
0000
0001
0000
0100
0000
0000
1000
0000
0000
0010
0000
,
0001
0000
0010
0000
0100
0000
1000
0000
0010
0000
0000
0001
0000
0000
0100
0000
,
1000
0000
0010
0000
0100
0000
0001
0000
0010
0000
0000
1000
0000
0000
0100
0000
,
0001
0000
0010
0000
1000
0000
0001
0000
0100
0000
0000
1000
0000
0000
0010
0000
,
0001
0000
1000
0000
0100
0000
0001
0000
0010
0000
0000
1000
0000
0000
0100
0000
,
0110
0000
0000
0011
0000
0000
0101
0000
1010
0000
0000
1100
0000
0000
0110
0000
,
1001
0000
0001
0000
0100
0000
0000
1000
0000
0000
0010
0000
0001
0000
1000
0000
,
0110
0010
0100
0001
0010
0100
1000
0010
,
1010
1000
0100
0010
0001
1000
0010
0100
,
0101
0001
0010
0100
1000
0010
0100
0001
,
0011
0010
0001
1000
0100
0010
0001
1000
,
1100
0100
1000
0010
0001
0010
1000
0100
,
0110
0010
0001
0100
1000
0001
0010
1000
,
1001
0000
0000
0101
0000
0000
1100
0000
1010
0000
0000
0011
0000
0000
1010
0000
,
1100
0000
0000
0101
0000
0000
0011
0000
0010
0000
1000
0000
0100
0000
0010
0100
,
0010
0001
0100
1000
0100
0001
0010
0110
,
0000
1000
1002
0000
0023
0000
0230
0000
,
2300
0000
3001
0100
0010
1000
0100
0020
,
0000
0130
1000
0010
0001
1000
0100
0001
,
0020
0000
0130
0000
1000
0000
0010
0000
0001
0000
0010
0100
0000
0000
0010
0000
,
1010
0000
0000
0101
0000
0000
0001
1000
0001
0000
1000
0000
0100
0000
0010
0000
,
0011
0000
0000
0101
0000
0000
1010
0000
1100
0000
0000
1010
0000
0000
0101
0000
,
0011
0000
0000
1010
0000
0000
1100
0000
0100
0000
0010
0000
0001
0000
0000
0000
,
0101
0000
0000
1100
0000
0000
1010
0000
0010
0000
0100
0000
0002
0000
0000
0000
,
1003
0000
0000
0000
;

//---------------dance-single - ----------------
#NOTEDATA:;
#CHARTNAME:;
#STEPSTYPE:dance-single;
#DESCRIPTION:;
#CHARTSTYLE:;
#DIFFICULTY:Challenge;
#METER:14;
#RADARVALUES:0.650262,0.752961,0.592829,0.306636,0.442918,668.000000,581.000000,87.000000,45.000000,0.000000,0.000000,0.000000,0.000000,0.000000,0.650262,0.752961,0.592829,0.306636,0.442918,668.000000,581.000000,87.000000,45.000000,0.000000,0.000000,0.000000,0.000000,0.000000;
#CREDIT:MILEN;
#DISPLAYBPM:140.000000;
#NOTES:
// measure 0
0000
0000
0000
0000
,  // measure 1
0000
0000
0000
0000
,  // measure 2
0000
0000
0000
0000
,  // measure 3
0000
0000
0000
0000
,  // measure 4
0000
0000
0000
0000
,  // measure 5
0000
0000
0000
0000
,  // measure 6
0000
0000
0000
1001
,  // measure 7
2000
0010
0000
3010
,  // measure 8
0002
0100
0000
0103
,  // measure 9
2000
3100
0002
0013
,  // measure 10
1000
0010
0001
0100
1000
0000
2002
3003
,  // measure 11
0001
0001
0100
0100
,  // measure 12
1000
0000
0000
0000
1000
0000
0000
0000
0010
0000
0100
0010
0000
0000
0110
0000
,  // measure 13
1000
1000
0100
0100
,  // measure 14
0002
0000
0000
0000
0023
0000
0000
0000
0130
0010
0100
0000
0010
0000
0110
0000
,  // measure 15
0001
0001
0010
0010
,  // measure 16
1000
0000
0000
0000
1000
0000
0000
0000
0100
0000
0010
0100
0000
0000
0110
0000
,  // measure 17
1000
1000
0100
0100
,  // measure 18
0001
0000
0010
0000
1000
0000
0100
0000
0010
0100
0000
0010
0000
0000
0110
0000
,  // measure 19
0001
0000
0100
0000
0010
0000
1000
0000
0100
0010
0000
0100
0000
0000
0110
0000
,  // measure 20
1000
0000
0010
0000
0100
0000
0001
0000
0010
0100
0000
0010
0000
0000
0110
0000
,  // measure 21
0001
0000
0010
0000
0100
0000
1000
0000
0010
0100
0000
0010
0000
0000
0110
0000
,  // measure 22
1000
0000
0100
0000
0010
0000
0001
0000
0101
0000
0000
1100
0000
0000
0220
0000
,  // measure 23
0330
0000
0001
0000
0010
0000
0100
0000
1000
0010
0000
0100
0000
0000
0110
0000
,  // measure 24
0010
0000
1000
0000
0100
0000
0010
0000
0001
0100
0000
0010
0000
0000
0110
0000
,  // measure 25
1000
0010
0100
0101
0000
1010
1000
0100
,  // measure 26
0110
0000
0000
0011
0000
0000
1100
0000
0000
0000
1001
0000
0001
0100
0001
0100
,  // measure 27
0020
0000
0000
1030
0100
0000
0010
0000
0110
0000
0000
0001
0100
0000
0010
0000
,  // measure 28
0110
0100
0101
0001
1001
1000
1010
0000
,  // measure 29
0110
0000
0000
0100
0001
0000
0020
0000
0000
0000
0031
0000
0100
0000
1000
0000
,  // measure 30
0200
0000
0000
0310
1000
0000
1100
0000
0000
0000
0100
0000
0010
0000
0001
0000
,  // measure 31
0020
0000
0000
0031
0100
0000
0010
0000
0110
0000
0000
1000
0100
0000
0010
0000
,  // measure 32
0110
0100
1100
1000
1001
0001
0011
0000
,  // measure 33
0110
0000
0000
0100
1000
0000
0020
0000
0000
0000
0031
0000
0010
0000
1000
0000
,  // measure 34
0100
0000
0010
0000
0001
0100
0000
0010
0000
1000
0000
0100
0010
0100
0010
0000
,  // measure 35
0001
0000
0100
0000
0010
0000
1000
0000
0001
0010
0000
0100
0000
0010
0001
0000
,  // measure 36
1000
0000
0010
0000
0100
0000
0001
0000
1000
0100
0000
0010
0000
0100
1000
0000
,  // measure 37
0010
0000
0100
0000
0001
0000
1000
0000
0100
0001
0000
0100
0000
0010
0001
0000
,  // measure 38
0100
0000
0010
0000
1000
0000
0001
0000
0010
1000
0000
0010
0000
0100
1000
0000
,  // measure 39
0001
0000
0100
0000
0010
0000
0001
0000
0010
1000
0000
0100
0000
0010
0001
0000
,  // measure 40
1000
0000
0010
0000
0100
0000
1000
0000
0100
0001
0000
0010
0000
0100
1000
0000
,  // measure 41
1010
0000
0000
0011
0000
0000
1100
0000
0101
0000
0000
1100
0000
0000
0011
0000
,  // measure 42
1001
0000
1000
0000
0010
0100
0010
0000
0100
0001
0100
0000
0010
1000
0010
0000
,  // measure 43
0100
0000
0001
0000
0010
0000
0100
0000
1000
0010
0000
0001
0000
0010
0100
0000
,  // measure 44
0010
0000
1000
0000
0100
0000
0010
0000
0001
0100
0000
1000
0000
0100
0010
0000
,  // measure 45
0100
0000
0001
0000
0010
0000
1000
0000
0010
0001
0000
0100
0000
1000
0100
0000
,  // measure 46
0010
0000
1000
0000
0100
0000
0001
0000
0100
1000
0000
0010
0000
0001
0010
0000
,  // measure 47
0100
0000
0001
0000
0010
0000
1000
0000
0001
0100
0000
1000
0000
0100
1000
0000
,  // measure 48
0010
0000
1000
0000
0100
0000
0001
0000
1000
0010
0000
0001
0000
0010
0001
0000
,  // measure 49
0101
0000
0000
1010
0000
0000
0011
0000
1010
0000
0000
0101
0000
0000
1100
0000
,  // measure 50
1001
0000
0000
0110
0000
0000
1001
0000
0001
0000
0100
0000
0020
0000
0000
0000
,  // measure 51
2030
0000
0000
0100
0100
0000
0000
0100
,  // measure 52
0000
0100
0000
0100
0100
0000
0000
0000
,  // measure 53
3002
0000
0000
0010
0010
0000
0000
0010
,  // measure 54
0000
0010
0000
0010
0010
0000
1003
0000
,  // measure 55
0200
0000
0010
0010
0302
0000
0010
0010
,  // measure 56
2003
0000
0100
0100
3020
0000
0001
0001
,  // measure 57
0230
0000
1000
1000
0302
0000
0010
0010
,  // measure 58
2003
3100
0020
0031
2000
3010
0200
0301
,  // measure 59
2002
0000
0000
0000
3003
0000
0220
0330
,  // measure 60
0010
0000
1000
0000
0100
0000
0010
0000
0001
0100
0000
0010
1000
0010
0100
0000
,  // measure 61
0100
0000
0001
0000
0010
0000
0100
0000
1000
0010
0000
0100
0001
0100
0010
0000
,  // measure 62
0010
0000
1000
0000
0001
0000
0010
0000
0100
1000
0000
0001
0010
0001
0100
0000
,  // measure 63
0100
0000
0001
0000
1000
0000
0100
0000
0010
0001
0000
1000
0100
1000
0010
0000
,  // measure 64
0010
0000
0100
0000
0001
0000
1000
0000
0100
0010
0000
0001
1000
0001
0100
0000
,  // measure 65
0100
0000
0010
0000
1000
0000
0001
0000
0010
0100
0000
1000
0001
1000
0010
0000
,  // measure 66
0110
0000
0000
1010
0000
0000
1100
0000
0011
0000
0000
0101
0000
0000
0110
0000
,  // measure 67
1001
0000
0001
0000
0100
1000
0000
0200
0000
0000
0301
0010
0001
0010
0100
0000
,  // measure 68
1000
0000
0010
0000
0001
0000
0010
0000
1000
0100
0000
0010
0100
1000
0100
0000
,  // measure 69
1100
0000
1000
0000
0010
0000
0100
0000
0001
0010
0000
0100
0010
0001
0010
0000
,  // measure 70
0011
0000
0001
0000
0100
0000
0010
0000
1000
0001
0000
0010
0100
0010
0001
0000
,  // measure 71
0101
0000
1000
0000
0010
0000
0100
0000
0001
1000
0000
0100
0010
0100
1000
0000
,  // measure 72
1010
0000
0001
0000
0100
0000
1000
0000
0100
0010
0000
0100
0001
0010
0100
0000
,  // measure 73
0110
0000
1000
0000
0010
0000
0001
0000
0010
0100
0000
0010
1000
0100
0010
0000
,  // measure 74
0110
0000
0000
0011
0000
0000
1010
0000
1100
0000
0000
0101
0000
0000
0110
0000
,  // measure 75
1001
0000
0000
1010
0000
0000
0011
0000
0001
0000
0100
0000
0010
0000
1000
0100
,  // measure 76
0010
0001
0100
0010
1000
0100
0010
0002
,  // measure 77
0000
1003
0020
0130
0002
0013
0200
1300
,  // measure 78
0020
0130
0001
1000
0100
0010
0001
0200
,  // measure 79
0000
0310
2000
3001
0020
0130
2000
3010
,  // measure 80
0200
0000
0301
0000
0010
0000
0100
0000
1000
0000
0010
0100
0000
0000
0001
0000
,  // measure 81
0011
0000
0000
1010
0000
0000
1000
0100
1000
0000
0100
0000
0010
0000
0001
0000
,  // measure 82
0100
1000
0000
0100
0001
0000
1000
0000
0010
0001
0000
0010
1000
0000
0100
0000
,  // measure 83
0110
0000
0000
0011
0000
0000
1100
0000
1010
0000
0101
0000
0110
0000
0000
0000
,  // measure 84
1100
0000
0000
0101
0000
0000
0011
0000
1010
0000
0110
0000
2002
0000
3003
0000
,  // measure 85
1001
0000
0000
0000
;

//---------------dance-double - ----------------
#NOTEDATA:;
#CHARTNAME:;
#STEPSTYPE:dance-double;
#DESCRIPTION:;
#CHARTSTYLE:;
#DIFFICULTY:Easy;
#METER:6;
#RADARVALUES:0.214158,0.289600,0.054513,0.034071,0.000000,220.000000,212.000000,8.000000,5.000000,0.000000,0.000000,0.000000,0.000000,0.000000,0.214158,0.289600,0.054513,0.034071,0.000000,220.000000,212.000000,8.000000,5.000000,0.000000,0.000000,0.000000,0.000000,0.000000;
#CREDIT:MILEN;
#DISPLAYBPM:140.000000;
#NOTES:
00000000
00000000
00000000
00000000
,
00000000
00000000
00000000
00000000
,
00000000
00000000
00000000
00000000
,
00000000
00000000
00000000
00000000
,
00000000
00000000
00000000
00000000
,
00000000
00000000
00000000
00000000
,
00000000
00000000
00000000
00000000
,
00000000
00001000
00000000
00001000
,
00000000
00010000
00000000
00010000
,
00000000
00001000
00000000
00010000
,
00011000
00000000
00000000
00000000
,
00001000
00000000
00000100
00000000
,
00000001
00000000
00000010
00000000
,
00001000
00000000
00010000
00000000
,
00001000
00010000
00002000
00003000
,
00010000
00000000
01000000
00000000
,
10000000
00000000
00100000
00000000
,
00010000
00000000
00001000
00000000
,
00010000
00001000
00010000
00001000
,
00011000
00000000
00010000
00000000
,
01000000
00000000
10000000
00000000
,
00100000
00000000
00010000
00000000
,
00001000
00000000
00000100
00000000
,
00000001
00000000
00000010
00000000
,
00001000
00000000
00010000
00000000
,
00100000
00000000
10000000
00000000
,
01000000
00000000
00010000
00011000
,
00000010
00000000
00000010
00000000
,
00000010
00010000
00001000
00000000
,
00100000
00000000
00100000
00000000
,
00100000
00001000
00010000
00000000
,
00000100
00000000
00000100
00000000
,
00000100
00010000
00001000
00000000
,
01000000
00000000
01000000
00000000
,
01000000
00001000
00010000
00011000
,
00000100
00001000
00000001
00000000
,
00000100
00000001
00001000
00000000
,
00000100
00010000
00001000
00000000
,
00100000
00001000
00010000
00000000
,
00100000
10000000
00010000
00000000
,
00100000
00010000
10000000
00000000
,
10000000
01000000
00010000
00000000
,
00001000
00000010
00000001
00000000
,
00000001
00000100
00001000
00000000
,
00000100
00001000
00010000
00000000
,
00001000
00010000
00100000
00000000
,
00010000
00100000
10000000
00000000
,
10000000
01000000
00010000
00000000
,
01000000
00010000
00001000
00000000
,
00010000
00001000
00000010
00000000
,
00001000
00000010
00000001
00000000
,
00001001
00000000
00000000
00000000
,
00000000
00000000
00000000
00000000
,
00000000
00000000
00000000
00000000
,
00000000
00000000
00000000
10010000
,
10000000
00000000
01000000
00000000
,
00010000
00000000
00001000
00000000
,
00000010
00000001
00000100
00001000
,
00020000
00001000
00001000
00001000
,
00031000
00000000
00000000
00000000
,
00001000
00010000
01000000
00000000
,
01000000
10000000
00100000
00000000
,
00100000
01000000
00010000
00000000
,
00010000
00100000
00001000
00000000
,
00001000
00010000
00000100
00000000
,
00000100
00000010
00000001
00000000
,
00000001
00000100
00001000
00000000
,
00001000
00010000
00001000
00010000
,
00011000
00100000
00010000
01000000
,
00100000
10000000
00100000
01000000
,
00010000
00100000
00001000
00010000
,
00000100
00001000
00000010
00000100
,
00000001
00000100
00000010
00001000
,
00000100
00010000
00001000
00100000
,
00010000
00100000
01000000
10000000
,
00100000
00010000
00001000
00011000
,
00000020
00000000
00000000
00000000
,
00000030
00001000
00000100
00010000
,
00002000
00000000
00000000
00000000
,
00003000
00100000
00010000
01000000
,
00200000
00300000
10000000
01000000
,
00100000
00010000
01000000
00100000
,
00010000
00001000
00000100
00000010
,
00001000
00000100
00000010
00000001
,
00000100
00001000
00010000
00100000
,
10000000
00000000
00000000
00000000
;

//---------------dance-double - ----------------
#NOTEDATA:;
#CHARTNAME:;
#STEPSTYPE:dance-double;
#DESCRIPTION:;
#CHARTSTYLE:;
#DIFFICULTY:Medium;
#METER:8;
#RADARVALUES:0.331945,0.376480,0.204424,0.258937,0.000000,341.000000,311.000000,30.000000,38.000000,0.000000,0.000000,0.000000,0.000000,0.000000,0.331945,0.376480,0.204424,0.258937,0.000000,341.000000,311.000000,30.000000,38.000000,0.000000,0.000000,0.000000,0.000000,0.000000;
#CREDIT:MILEN;
#DISPLAYBPM:140.000000;
#NOTES:
00000000
00000000
00000000
00000000
,
00000000
00000000
00000000
00000000
,
00000000
00000000
00000000
00000000
,
00000000
00000000
00000000
00000000
,
00000000
00000000
00000000
00000000
,
00000000
00000000
00000000
00000000
,
00000000
00000000
00000000
00011000
,
00001000
01000000
00001000
00010000
,
00000100
00010000
00001000
00100000
,
00001000
00010000
00000010
00010000
,
00022000
00000000
00000000
00033000
,
00001000
00100000
00001000
00100000
,
00010000
01000000
00010000
01000000
,
00001000
00100000
00010000
01000000
,
00002000
00000000
00013000
00000000
00001000
00010000
00001000
00000000
,
00010000
00000010
00010000
00000010
,
00001000
00000100
00001000
00000100
,
00010000
00000010
00001000
00000100
,
00010000
00001000
00010000
00001000
00010000
00000000
00000000
00000000
,
00001000
00010000
00001000
00010000
,
01000000
00010000
01000000
00010000
,
01000000
10000000
01000000
10000000
,
00100000
00010000
00001000
00011000
,
00010000
00001000
00010000
00001000
,
00000100
00001000
00000100
00001000
,
00000100
00000001
00000100
00000001
,
00000010
00001000
00010000
00011000
,
00002000
00003000
00020000
00030000
,
00000100
00001000
00000100
00000110
,
00000001
00000010
00000100
00001000
,
00000100
00010000
00001000
00011000
,
00020000
00030000
00002000
00003000
,
01000000
00010000
01000000
01100000
,
10000000
00100000
01000000
00010000
,
01000000
00000000
00001000
00000000
00010000
00001000
00010000
00000000
,
00000100
00001000
00000100
00001100
,
00000010
00000001
00000010
00000011
,
00000001
00000100
00000001
00000101
,
00001000
00000010
00001000
00001010
,
00010000
00001000
00010000
00011000
,
01000000
00010000
01000000
01010000
,
00020000
10030000
02000000
03100000
,
00002000
00000000
00013000
00000000
00001000
00010000
00001000
00000000
,
01000000
00010000
01000000
01010000
,
00100000
10000000
00100000
10100000
,
10000000
01000000
10000000
11000000
,
00010000
00100000
00010000
00110000
,
00001000
00010000
00001000
00011000
,
00000100
00001000
00000100
00001100
,
00002000
00003001
00000200
00000310
,
00020000
00000000
00031000
00000000
00010000
00001000
00010000
00000000
,
00011000
00000000
00000000
00000000
,
00000000
00000000
00000000
00000000
,
00000000
00000000
00000000
00000000
,
00000000
00000000
00000000
00011000
,
00020000
00000010
00000000
00030010
,
00002000
01000000
00000000
01003000
,
00020000
00030100
00002000
00103000
,
00100000
01000000
00010000
00001000
,
00000110
00000000
00000000
00000000
,
00000001
00000000
00000100
00000000
00001000
00010000
00001000
00000000
,
00010000
00000000
01000000
00000000
10000000
00100000
10000000
00000000
,
01000000
00000000
00010000
00000000
00001000
00010000
00001000
00000000
,
00000100
00000000
00000001
00000000
00000010
00000100
00000010
00000000
,
00000001
00000000
00000010
00000000
00001000
00010000
00001000
00000000
,
00010000
00000000
00100000
00000000
10000000
01000000
10000000
00000000
,
00100000
00011000
00000010
00011000
,
01000000
00011000
00000100
00011000
,
00100000
00000000
00010000
00000000
00100000
01000000
00100000
00000000
,
01000000
00000000
10000000
00000000
01000000
00100000
01000000
00000000
,
00100000
00000000
00010000
00000000
00001000
00010000
00001000
00000000
,
00010000
00000000
00001000
00000000
00000100
00000010
00000100
00000000
,
00000010
00000000
00000001
00000000
00000010
00000100
00000010
00000000
,
00000100
00000000
00001000
00000000
00010000
00001000
00010000
00000000
,
00001000
00010000
00100000
01000000
,
11000000
00000000
00110000
00000000
00100000
00001000
00010000
00000100
,
00002000
00003002
00000023
00002030
,
00023000
02030000
23000000
30010000
,
00020000
20030000
30200000
00320000
,
00032000
00003200
00000302
00001003
,
00002000
00003020
00020030
00230000
,
00302000
00003200
00020300
01030000
,
01000000
10000000
00100000
00000000
00010000
00001000
00000100
00000000
,
00000001
00000000
00000110
00000000
00001000
00010000
01000000
00000000
,
10000000
00000000
00100000
00000000
00010000
00001000
00000010
00000000
,
00000101
00000000
00000000
00000000
;

//---------------dance-double - ----------------
#NOTEDATA:;
#CHARTNAME:;
#STEPSTYPE:dance-double;
#DESCRIPTION:;
#CHARTSTYLE:;
#DIFFICULTY:Hard;
#METER:12;
#RADARVALUES:0.502298,0.608161,0.347520,0.163539,0.115840,516.000000,465.000000,51.000000,24.000000,0.000000,0.000000,0.000000,0.000000,0.000000,0.502298,0.608161,0.347520,0.163539,0.115840,516.000000,465.000000,51.000000,24.000000,0.000000,0.000000,0.000000,0.000000,0.000000;
#CREDIT:MILEN;
#DISPLAYBPM:140.000000;
#NOTES:
00000000
00000000
00000000
00000000
,
00000000
00000000
00000000
00000000
,
00000000
00000000
00000000
00000000
,
00000000
00000000
00000000
00000000
,
00000000
00000000
00000000
00000000
,
00000000
00000000
00000000
00000000
,
00000000
00000000
00000000
00011000
,
00002000
01000000
00000000
01003000
,
00020000
00000010
00000000
00030010
,
00002000
00103000
00020000
00030100
,
00010000
00001000
00010000
00001000
00010000
00000000
00011000
00000000
,
00001000
00100000
00010000
01000000
,
00001000
00010000
00000100
00001000
,
00000010
00010000
00001000
00100000
,
01000000
00010000
00001000
00000010
,
00000100
00010000
00001000
00100000
,
01000000
10000000
00100000
00010000
,
00001000
00000100
00000001
00000010
,
00001000
00000000
00010000
00000000
00001000
00000000
00010000
00000000
00001000
00000000
00000000
00010000
00000000
00000000
00011000
00000000
,
00001000
00000000
00100000
00000000
00010000
00000000
01000000
00000000
00100000
00000000
00000000
10000000
00000000
00000000
11000000
00000000
,
00000000
00000000
01000000
00000000
00100000
00000000
00010000
00000000
01000000
00000000
00000000
00001000
00000000
00000000
00011000
00000000
,
00000000
00000000
00010000
00000000
00000010
00000000
00001000
00000000
00000100
00000000
00000000
00000010
00000000
00000000
00000011
00000000
,
00000000
00000000
00000001
00000000
00000100
00000000
00001000
00000000
00011000
00000000
00000000
00010100
00000000
00000000
01001000
00000000
,
00000000
00000000
00001000
00000000
00010000
00000000
00100000
00000000
01000000
00000000
00000000
00100000
00000000
00000000
10100000
00000000
,
00000000
00000000
10000000
00000000
01000000
00000000
00100000
00000000
00010000
00000000
00000000
01000000
00000000
00000000
01001000
00000000
,
00001000
00010000
00000100
00000010
00000000
00000011
00000000
00000001
,
00000100
00000000
00000000
00001000
00000000
00000000
00021000
00000000
00000000
00000000
00130000
00000000
10100000
00000000
00000000
00000000
,
12000000
00000000
03010000
00001000
00000020
00000000
00000031
00000100
,
00000010
00000001
00000010
00000100
00000001
00000010
00000011
00000000
,
00000001
00000100
00001000
00020000
00000000
00031000
00010000
01000000
,
10000000
00000000
01100000
20000000
00000000
31000000
00010000
00001000
,
00021000
00000000
00030010
00010000
00002000
00000000
01003000
00001000
,
00010000
00100000
00010000
00001000
00000100
00000010
00001010
00000000
,
00000101
00000000
00000110
00002000
00000000
00003001
00000100
00001000
,
00010000
00100000
10000000
01000000
00100000
00001000
00010000
00011000
,
00000000
00001000
00100000
00010000
01000000
00001000
00100000
00010000
,
00000000
01000000
00100000
00010000
00001000
01000000
00100000
00010000
,
00000000
00000010
00000100
00001000
00010000
00000010
00000100
00001000
,
00000000
00000100
00010000
00000010
00001000
00000100
00010000
00000010
,
00000000
00000100
00000001
00000010
00001000
00010000
01000000
10000000
,
00000000
01000000
10000000
00100000
00010000
00001000
00000100
00000001
,
00000010
00000000
00000000
00000100
00000000
00000000
00001100
00000000
00000100
00000000
00000000
00010000
00000000
00000000
00011000
00000000
,
00001000
00000000
00100000
00000000
00010000
00000000
00000000
01010000
00000000
00000000
10100000
00000000
10000000
00000000
01000000
00000000
,
00100000
00010000
01000000
00001000
00010000
00000010
00001000
00000000
,
00000100
00001000
00000010
00010000
00001000
00100000
00010000
00000000
,
01000000
00100000
00010000
00001000
00000100
00000010
00001000
00000000
,
00000010
00000100
00001000
00010000
00100000
01000000
00010000
00000000
,
10000000
00100000
00010000
00001000
00000100
00000001
00001000
00000000
,
00000001
00000010
00001000
00010000
01000000
10000000
00010000
01000000
,
00001000
00000000
00000000
00010000
00000000
00000000
00010100
00000000
00000100
00000000
00000000
00001000
00000000
00000000
00001001
00000000
,
00000001
00000000
00000000
00000100
00000000
00000000
00000110
00000000
00000010
00000000
00010000
00000000
00001000
00000000
00000000
00000000
,
00011000
00000000
00000000
00000000
,
00000000
00000000
00000000
00000000
,
00000000
00000000
00000000
00000000
,
00000000
00000000
00000000
00011000
,
02000000
00100000
00010000
03001000
,
00000020
00000100
00001000
00010030
,
00200000
00301000
00000200
00010300
,
00010000
00001000
00000010
00001000
00010000
01000000
00010000
00001000
,
00022000
00000000
00033000
00011000
,
00010000
00000000
00100000
00000000
10000000
00000000
01000000
00000000
00100000
00000000
00000000
01000000
00000000
00000000
00010000
00000000
,
00001000
00000000
00000100
00000000
00000001
00000000
00000010
00000000
00000100
00000000
00000000
00000010
00000000
00000000
00001000
00000000
,
00010000
00000000
01000000
00000000
10000000
00000000
00100000
00000000
01000000
00000000
00000000
00100000
00000000
00000000
00010000
00000000
,
00001000
00000000
00000010
00000000
00000001
00000000
00000100
00000000
00000010
00000000
00000000
00000100
00000000
00000000
00001000
00000000
,
00010000
00000000
00100000
00000000
10000000
00000000
01000000
00000000
00010000
00000000
00000000
00100000
00000000
00000000
00010000
00000000
,
00001000
00000000
00000010
00000000
00000001
00000000
00000100
00000000
00001000
00000000
00000000
00000010
00000000
00000000
00001000
00000000
,
00010000
00000000
00000000
00000100
00000000
00000000
00000110
00000000
00000010
00000000
00000000
00001000
00000000
00000000
00011000
00000000
,
00010000
00000000
01000000
00000000
10000000
00000000
00000000
00100000
00000000
00000000
01000000
00000000
00001000
00000000
00010000
00000000
,
00011000
00001000
00000100
00000001
00000010
00000100
00000010
00001000
,
00010000
00100000
10000000
01000000
00100000
01000000
00010000
00001000
,
00000010
00000001
00000100
00000010
00000100
00001000
00010000
01000000
,
10000000
00100000
01000000
00100000
00010000
00001000
00000100
00000001
,
00000010
00000100
00010000
00001000
00100000
01000000
10000000
00100000
,
00010000
00001000
00000100
00000001
00000010
00000100
00010000
00001000
,
00100000
00000000
00000000
00010000
00000000
00000000
10010000
00000000
10000000
00000000
00000000
00100000
00000000
00000000
01100000
00000000
,
01000000
00000000
00000000
00001000
00000000
00000000
00011000
00000000
00010000
00000000
00000100
00000000
00000010
00000000
00000001
00000100
,
00000001
00001000
00000010
00010000
00100000
10000000
01000000
01100000
,
00000000
00010000
20010000
00000000
30200000
00000000
00320000
00000000
,
00032000
00000000
00003100
00000001
00000010
00000100
00001000
00000020
,
00000000
00010030
00000100
00001000
00000010
00010000
00001000
00100000
,
00010000
00000000
01000000
00000000
00100000
00000000
10000000
00000000
01000000
00000000
00100000
01000000
00000000
00000000
00100000
00000000
,
01100000
00000000
00000000
01000000
00000000
00000000
00010000
00001000
00010000
00000000
00001000
00000000
00000100
00000000
00000001
00000000
,
00000011
00000000
00000000
00000010
00000000
00000000
00001010
00000000
00011000
00000000
00000000
00010000
00000000
00000000
01010000
00000000
,
11000000
00000000
00000000
10000000
00000000
00000000
10100000
00000000
00100000
00000000
00010000
00000000
00001000
00000000
00000000
00000000
,
01001000
00000000
00000000
00011000
00000000
00000000
00010100
00000000
00000100
00000000
00000010
00000000
00000002
00000000
00000000
00000000
,
00001003
00000000
00000000
00000000
;

//---------------dance-double - ----------------
#NOTEDATA:;
#CHARTNAME:;
#STEPSTYPE:dance-double;
#DESCRIPTION:;
#CHARTSTYLE:;
#DIFFICULTY:Challenge;
#METER:14;
#RADARVALUES:0.609377,0.666081,0.415662,0.470175,0.275972,626.000000,565.000000,61.000000,69.000000,0.000000,0.000000,0.000000,0.000000,0.000000,0.609377,0.666081,0.415662,0.470175,0.275972,626.000000,565.000000,61.000000,69.000000,0.000000,0.000000,0.000000,0.000000,0.000000;
#CREDIT:MILEN;
#DISPLAYBPM:140.000000;
#NOTES:
00000000
00000000
00000000
00000000
,
00000000
00000000
00000000
00000000
,
00000000
00000000
00000000
00000000
,
00000000
00000000
00000000
00000000
,
00000000
00000000
00000000
00000000
,
00000000
00000000
00000000
00000000
,
00000000
00000000
00000000
00011000
,
00002000
01000000
00000000
01003000
,
00020000
00000100
00000000
00030100
,
00002000
00103000
00020000
00030010
,
00010000
00001000
00010000
00001000
00010000
00000000
00022000
00033000
,
01000000
01000000
00001000
00001000
,
00010000
00000000
00000000
00000000
00010000
00000000
00000000
00000000
00000010
00000000
00010000
00001000
00000000
00000000
00011000
00000000
,
00000100
00000100
00010000
00010000
,
00002000
00000000
00000000
00000000
00203000
00000000
00000000
00000000
00310000
01000000
00010000
00000000
01000000
00000000
00001000
00000000
,
00100000
00100000
00001000
00001000
,
00010000
00000000
00000000
00000000
00010000
00000000
00000000
00000000
00000100
00000000
00010000
00001000
00000000
00000000
00011000
00000000
,
01000000
01000000
00001000
00001000
,
00010000
00000000
00000100
00000000
00001000
00000000
00000001
00000000
00000100
00000010
00000100
00000000
00000000
00000000
00000110
00000000
,
00000001
00000000
00000100
00000000
00001000
00000000
00010000
00000000
00100000
01000000
00000000
00100000
00000000
00000000
01100000
00000000
,
10000000
00000000
01000000
00000000
00010000
00000000
00001000
00000000
00000100
00000010
00000000
00000100
00000000
00000000
00000110
00000000
,
00000001
00000000
00000010
00000000
00001000
00000000
00010000
00000000
00100000
01000000
00000000
00100000
00000000
00000000
01100000
00000000
,
10000000
00000000
00100000
00000000
00010000
00000000
00001000
00000000
01001000
00000000
00000000
00011000
00000000
00000000
00020200
00000000
,
00030300
00000000
00010000
00000000
00001000
00000000
00000100
00000000
00000010
00000100
00000000
00000010
00000000
00000000
00000110
00000000
,
00000100
00000000
00001000
00000000
00010000
00000000
00100000
00000000
01000000
00100000
00000000
10000000
00000000
00000000
01100000
00000000
,
00100000
00010000
00001000
01001000
00000000
00010100
00000100
00001000
,
00000010
00000000
00000000
00000110
00000000
00000000
00000101
00000000
00000000
00000000
00001010
00000000
00001000
00000100
00001000
00000100
,
00020000
00000000
00031000
00100000
02000000
00000000
03010000
00001000
,
00200000
01300000
02000000
03010000
00020000
00031000
00011000
00000000
,
01001000
00000000
00000000
00001000
00010000
00000000
00000020
00000000
00000000
00000000
00010030
00000000
00001000
00000000
00010000
00000000
,
00012000
00000000
00000000
00103000
00010000
00000000
01020000
00000000
00000000
00000000
01030000
00000000
00001000
00000000
00010000
00000000
,
00002000
00000000
00013000
00000010
00000200
00000000
00001300
00010000
,
00000020
00000130
00000200
00001300
00002000
00013000
00011000
00000000
,
00010100
00000000
00000000
00010000
00001000
00000000
00200000
00000000
00000000
00000000
00301000
00000000
00010000
00000000
00001000
00000000
,
00000100
00000000
00000001
00000000
00000010
00000100
00000000
00000010
00000000
00001000
00000000
00010000
00000000
00000000
01010000
00000000
,
10000000
00000000
00100000
00000000
01000000
00000000
00010000
00000000
00100000
00000000
01000000
00000000
00010000
00001000
00010000
00000000
,
00000100
00000000
00001000
00000000
00000010
00000000
00000100
00000000
00000001
00000000
00001000
00000000
00000010
00000100
00000010
00000000
,
00001000
00000000
00000100
00000000
00000010
00000000
00000001
00000000
00000100
00000000
00001000
00000000
00010000
00001000
00010000
00000000
,
01000000
00000000
10000000
00000000
00100000
00000000
01000000
00000000
00010000
00000000
00100000
00000000
01000000
10000000
01000000
00000000
,
00100000
00000000
00010000
00000000
01000000
00000000
00100000
00000000
00010000
00000000
00001000
00000000
00000100
00000010
00000100
00000000
,
00000001
00000000
00001000
00000000
00000100
00000000
00000010
00000000
00000001
00000000
00000100
00000000
00001000
00010000
00001000
00000000
,
01001000
00000000
00000000
00010000
00000000
00000000
00010100
00000000
00010010
00000000
00000000
00001000
00000000
00000000
00101000
00000000
,
00011000
00000000
00010000
00000000
01000000
10000000
00000000
00100000
00000000
00000000
00010000
00000000
00001000
00000000
00000100
00000000
,
00000001
00000000
00000010
00000000
00000100
00000000
00001000
00000000
00000010
00000000
00000100
00000000
00001000
00010000
00001000
00000000
,
01000000
00000000
00010000
00000000
00100000
00000000
01000000
00000000
10000000
00000000
00010000
00000000
00100000
01000000
00100000
00000000
,
00010000
00000000
01000000
00000000
00100000
00000000
10000000
00000000
01000000
00000000
00010000
00000000
00001000
00010000
00001000
00000000
,
00000100
00000000
00000001
00000000
00000010
00000000
00000100
00000000
00001000
00000000
00000010
00000000
00000100
00000001
00000100
00000000
,
00000010
00000000
00001000
00000000
00000100
00000000
00000010
00000000
00001000
00000000
00010000
00000000
01000000
00100000
01000000
00000000
,
10000000
00000000
00010000
00000000
01000000
00000000
00100000
00000000
10000000
00000000
01000000
00000000
00010000
00001000
00010000
00000000
,
00010100
00000000
00000000
00001000
00000000
00000000
01001000
00000000
00101000
00000000
00000000
00010000
00000000
00000000
00010010
00000000
,
00011000
00000000
00000000
00101000
00000000
00000000
00010100
00000000
00000100
00000000
00000010
00000000
00000002
00000000
00000000
00000000
,
00002003
00000000
00000000
00000010
00003020
00000000
00000000
00020030
,
00000000
00032000
00000000
01000000
02003000
00000000
00000000
00000000
,
03020000
00000000
00000000
00100000
00230000
00000000
00000000
00302000
,
00000000
00023000
00000000
00000100
00030200
00000000
00000000
00000000
,
00000320
00000000
00000031
00000100
00002000
00000000
00013000
00100000
,
20000000
00000000
31000000
00010000
00002000
00000000
00013000
00001000
,
00000200
00000000
00000301
00000010
00002000
00000000
00013000
01000000
,
20000000
30200000
00320000
00032000
00003200
00000302
00000023
00002030
,
00020000
00000000
00033000
00011000
,
00010000
00000000
00001000
00000000
00000100
00000000
00000001
00000000
00000010
00000100
00000010
00000000
00000100
00000000
00000010
00000000
,
00001000
00000000
00010000
00000000
01000000
00000000
10000000
00000000
00100000
01000000
00100000
00000000
01000000
00000000
00100000
00000000
,
00010000
00000000
00001000
00000000
00000100
00000000
00000001
00000000
00000010
00001000
00000010
00000000
00001000
00000000
00010000
00000000
,
00001000
00000000
00010000
00000000
00100000
00000000
10000000
00000000
01000000
00010000
01000000
00000000
00010000
00000000
00001000
00000000
,
00010000
00000000
00001000
00000000
00000100
00000000
00000001
00000000
00000010
00000100
00001000
00000000
00000100
00000000
00010000
00000000
,
00001000
00000000
00010000
00000000
00100000
00000000
10000000
00000000
01000000
00100000
00010000
00000000
00100000
00000000
00001000
00000000
,
00011000
00000000
00000000
00010000
00000000
00000000
00010010
00000000
00011000
00000000
00000000
00001000
00000000
00000000
01001000
00000000
,
00011000
00000000
00010000
00000000
00001000
00000100
00000000
00000002
00000000
00000000
00000013
00000100
00000010
00000100
00000010
00000000
,
00001000
00000000
00010000
00000000
01000000
00000000
10000000
00000000
00100000
01000000
00010000
00000000
00100000
01000000
00010000
00000000
,
00010000
00000000
00001000
00000000
00000010
00000000
00000001
00000000
00000100
00000010
00001000
00000000
00000100
00000010
00001000
00000000
,
00001000
00000000
00010000
00000000
01000000
00000000
10000000
00000000
00010000
00100000
01000000
00000000
10000000
01000000
00010000
00000000
,
00010000
00000000
00001000
00000000
00000010
00000000
00000001
00000000
00001000
00000100
00000010
00000000
00000001
00000010
00001000
00000000
,
00001000
00000000
00010000
00000000
01000000
00000000
10000000
00000000
00100000
00010000
00001000
00000000
00000010
00001000
00010000
00000000
,
00010000
00000000
00001000
00000000
00000010
00000000
00000001
00000000
00000100
00001000
00010000
00000000
01000000
00010000
00001000
00000000
,
01001000
00000000
00000000
00010000
00000000
00000000
00010100
00000000
00010010
00000000
00000000
00001000
00000000
00000000
00101000
00000000
,
00011000
00000000
00000000
00010100
00000000
00000000
01001000
00000000
01000000
00000000
00010000
00000000
00100000
00000000
01000000
00100000
,
01000000
10000000
00100000
00010000
00001000
00000100
00000001
00000020
,
00000000
00000130
00000020
00000032
00000203
00002300
00023000
00230000
,
20300000
31000000
00100000
01000000
10000000
01000000
00010000
00002000
,
00000000
00103000
02000000
23000000
30200000
00320000
00032000
00003200
,
00000302
00000000
00000013
00000000
00000100
00000000
00000010
00000000
00000001
00000000
00000100
00001000
00000000
00000000
00010000
00000000
,
00010010
00000000
00000000
00101000
00000000
00000000
00100000
00010000
00100000
00000000
01000000
00000000
10000000
00000000
00100000
00000000
,
00010000
00001000
00000000
00100000
01000000
00000000
00010000
00000000
00001000
00010000
00000000
00000100
00000010
00000000
00000001
00000000
,
00000101
00000000
00000000
00001100
00000000
00000000
00011000
00000000
00010000
00000000
01000000
00000000
10100000
00000000
00000000
00000000
,
11000000
00000000
00000000
01010000
00000000
00000000
00011000
00000000
00001000
00000000
00000100
00000000
00000022
00000000
00000033
00000000
,
00001001
00000000
00000000
00000000
;
