#VERSION:0.83;
#TITLE:HTTP;
#SUBTITLE:;
#ARTIST:Quree;
#TITLETRANSLIT:;
#SUBTITLETRANSLIT:;
#ARTISTTRANSLIT:;
#GENRE:VARIETY;
#ORIGIN:;
#CREDIT:MUINELIM;
#BANNER:HTTP.png;
#BACKGROUND:HTTP-bg.png;
#PREVIEWVID:;
#JACKET:HTTP-jacket.png;
#CDIMAGE:;
#DISCIMAGE:;
#LYRICSPATH:;
#CDTITLE:;
#MUSIC:HTTP.ogg;
#OFFSET:-0.026000;
#SAMPLESTART:81.666656;
#SAMPLELENGTH:14.673878;
#SELECTABLE:YES;
#DISPLAYBPM:147.000000;
#BPMS:0.000=147.000;
#STOPS:;
#DELAYS:;
#WARPS:;
#TIMESIGNATURES:0.000=4=4;
#TICKCOUNTS:0.000=4;
#COMBOS:0.000=1;
#SPEEDS:0.000=1.000=0.000=0;
#SCROLLS:0.000=1.000;
#FAKES:;
#LABELS:0.000=Song Start;
#BGCHANGES:0.000=HTTP.avi=1.000=0=0=0=StretchNoLoop====,
99999=-nosongbg-=1.000=0=0=0 // don't automatically add -songbackground-
;
#KEYSOUNDS:;
#ATTACKS:
;

//---------------dance-single - ----------------
#NOTEDATA:;
#CHARTNAME:;
#STEPSTYPE:dance-single;
#DESCRIPTION:;
#CHARTSTYLE:;
#DIFFICULTY:Beginner;
#METER:3;
#RADARVALUES:0.137004,0.198276,0.016974,0.016974,0.000000,113.000000,111.000000,2.000000,2.000000,0.000000,0.000000,0.000000,0.000000,0.000000,0.137004,0.198276,0.016974,0.016974,0.000000,113.000000,111.000000,2.000000,2.000000,0.000000,0.000000,0.000000,0.000000,0.000000;
#CREDIT:;
#DISPLAYBPM:147.000000;
#NOTES:
0000
0000
0000
0000
,
0000
0000
0000
0000
,
0000
0000
0000
0000
,
0000
0000
0000
0000
,
0000
0000
0000
0000
,
0000
0000
0000
0000
,
1000
0000
1000
0000
,
0010
0000
0010
0000
,
0100
0000
0100
0000
,
0001
0000
0001
0000
,
0100
0000
0100
0000
,
0010
0000
0010
0000
,
1000
0000
1000
0000
,
0001
0000
0001
0000
,
1001
0000
0000
0000
,
0000
0000
0000
0000
,
1000
0000
0000
0000
,
0001
0000
0000
0000
,
1000
0000
1000
0000
,
0001
0000
0001
0000
,
1000
0000
0001
0000
,
1000
1000
1000
0000
,
0010
0000
0100
0000
,
0010
0000
0010
0000
,
0100
0000
0010
0000
,
0100
0000
0000
0000
,
0001
0000
1000
0000
,
0001
0000
0001
0000
,
1000
0000
0001
0000
,
1000
1000
0000
0000
,
0010
0000
1000
0000
,
0010
0000
0010
0000
,
0100
0000
0001
0000
,
0100
0000
0100
0000
,
0010
0000
0000
0000
,
0100
0000
0010
0000
,
0100
0000
0100
0000
,
0200
0000
0300
0000
,
0001
0000
0000
0000
,
1000
0000
0000
0000
,
0010
0000
0000
0000
,
0100
0000
0000
0000
,
0001
0000
0000
0000
,
1000
0000
0000
0000
,
0010
0000
0000
0000
,
0100
0000
0000
0000
,
0010
0000
0010
0000
,
1000
0000
1000
0000
,
0001
0000
0001
0000
,
0100
0100
0100
0000
,
0001
0000
0010
0000
,
0100
0000
1000
0000
,
0001
0000
0010
0000
,
0100
0000
0100
0000
,
1000
0000
0010
0000
,
0100
0000
0001
0000
,
1000
0000
0010
0000
,
0100
0100
0100
0000
,
0010
0000
1000
0000
,
0001
0000
0100
0000
,
0010
0000
0001
0000
,
0100
0000
1000
0000
,
0010
0000
0010
0000
,
0100
0000
0100
0000
,
0010
0000
0100
0000
,
0010
0010
0010
0010
,
0020
0030
0000
1001
;

//---------------dance-single - ----------------
#NOTEDATA:;
#CHARTNAME:;
#STEPSTYPE:dance-single;
#DESCRIPTION:;
#CHARTSTYLE:;
#DIFFICULTY:Easy;
#METER:7;
#RADARVALUES:0.254608,0.285374,0.084869,0.059409,0.000000,210.000000,200.000000,10.000000,7.000000,0.000000,0.000000,0.000000,0.000000,0.000000,0.254608,0.285374,0.084869,0.059409,0.000000,210.000000,200.000000,10.000000,7.000000,0.000000,0.000000,0.000000,0.000000,0.000000;
#CREDIT:;
#DISPLAYBPM:147.000000;
#NOTES:
0000
0000
0000
0000
,
0000
0000
0000
0000
,
0000
0000
0000
0000
,
0000
0000
0000
0000
,
0000
0000
0000
0000
,
1000
0000
0001
0001
,
1000
0100
0010
0000
,
0001
0010
0100
0000
,
1000
0010
0100
0000
,
0001
0100
0010
0010
,
1000
0100
0001
0000
,
0001
0100
1000
0000
,
0001
0010
1000
0000
,
1000
0010
0001
1000
,
2002
0000
0000
0000
,
0000
0000
0000
3003
,
1000
0000
0000
1000
0000
0000
1000
0000
,
0001
0000
0000
0001
0000
0000
0001
0000
,
1000
0100
1000
0100
,
0010
0001
0010
0001
,
0100
0010
0100
0010
,
0200
0300
0010
0010
,
1000
0001
0010
0000
,
0001
1000
0100
0000
,
1000
0001
0100
0000
,
0001
1000
0010
0010
,
0100
0010
1000
0000
,
0010
0100
0001
0000
,
0100
0010
1000
0001
,
0100
0100
0000
0110
,
0010
1000
0010
0000
,
0100
0001
0100
0000
,
0001
0010
0001
0000
,
1000
0100
1000
0000
,
1001
0000
0001
1000
,
0010
0100
0010
1000
,
0001
0001
0100
0100
,
1000
1000
0020
0030
,
0001
0000
1000
0000
,
0001
0001
0101
0000
,
1000
0000
0001
0000
,
1000
1000
1100
0000
,
0001
0000
1000
0000
,
0001
0001
0011
0000
,
1000
0000
0001
0000
,
1000
1000
1010
0000
,
0001
0010
0100
0100
,
1000
0100
0010
0010
,
0001
0100
1000
0010
,
0002
0000
2000
3003
,
1000
0010
0100
0000
,
0100
0010
1000
0000
,
1000
0010
0100
0010
,
1000
0100
0010
0001
,
0001
0010
0100
0000
,
0100
0010
0001
0000
,
0001
0010
0100
0010
,
0000
0010
0100
1000
,
0010
0001
0010
1000
,
0100
0001
0100
1000
,
0010
0100
0001
0010
,
1000
0100
0001
0010
,
0110
0000
1000
0001
,
0110
0000
0001
1000
,
0110
0000
0001
0000
0100
0000
1000
1000
,
0000
0010
0100
0010
,
1000
0001
1000
0000
0010
0000
0100
0200
,
0000
0300
0000
0000
;

//---------------dance-single - ----------------
#NOTEDATA:;
#CHARTNAME:;
#STEPSTYPE:dance-single;
#DESCRIPTION:;
#CHARTSTYLE:;
#DIFFICULTY:Medium;
#METER:11;
#RADARVALUES:0.506792,0.599285,0.381913,0.229148,0.118817,418.000000,373.000000,45.000000,27.000000,0.000000,0.000000,0.000000,0.000000,0.000000,0.506792,0.599285,0.381913,0.229148,0.118817,418.000000,373.000000,45.000000,27.000000,0.000000,0.000000,0.000000,0.000000,0.000000;
#CREDIT:;
#DISPLAYBPM:147.000000;
#NOTES:
0000
0000
0000
0000
,
0000
0000
0000
0000
,
0000
0000
0000
0000
,
0000
0000
0000
0000
0000
0000
0000
0000
0000
0000
0000
2000
0000
0000
3001
0000
,
1001
0000
0000
2002
0000
0000
0000
0000
0000
0000
0000
0000
3003
0000
0000
0000
,
0220
0330
1010
0101
,
0001
0010
0001
0000
0100
0000
0010
0000
,
1000
0100
1000
0000
0010
0000
0100
0000
,
0001
1000
0001
0000
0100
0000
0010
0000
,
1000
0000
1000
0000
0000
0001
0000
0000
1000
0000
0100
0000
0010
0000
0001
0000
,
0100
0001
0100
0000
0001
0000
1000
0000
,
0010
1000
0010
0000
1000
0000
0001
0000
,
0011
1100
1010
0101
,
0100
0010
0100
0010
1000
0001
1000
0001
,
0020
0000
0000
0000
,
0000
0000
0000
0030
,
0100
0000
0000
0100
0000
0000
0100
0000
0000
0100
0000
0000
1000
0000
0001
0000
,
0010
0000
0000
0010
0000
0000
0010
0000
0000
0010
0000
0000
0010
0000
0001
0000
,
1000
0010
0100
0000
0001
0100
0010
0000
,
1000
0100
0010
0000
0001
0010
0100
0000
,
1000
0010
0100
0001
1000
0100
0010
0001
,
2000
0000
0000
0000
3010
0100
0110
0000
,
1001
0000
0120
0000
1030
0100
0100
0000
,
1000
0010
0100
0001
0011
0000
0011
0000
,
0010
0001
0001
0000
0010
0001
0010
0100
,
1000
0010
1000
0010
1000
0010
0100
0100
,
0100
0000
0001
1000
0010
0100
0010
1000
,
0001
0000
0000
0000
0100
0000
0010
0000
0100
0000
0000
0100
0000
0000
0010
0000
,
0200
1000
0000
0001
0000
1000
0000
0301
,
0011
0000
1100
0000
1000
0010
0200
0000
,
0301
0000
1001
0000
1000
0001
0100
0000
,
0010
0100
0001
1000
1010
0000
1010
0000
,
0010
0100
0001
0000
0100
0010
1000
0000
,
0001
0010
0100
0000
1000
0100
0010
0001
,
1001
0000
1000
0010
0100
0001
0010
0100
,
1000
0000
0001
0100
0110
0000
1000
0010
,
0110
0101
1010
1001
,
0001
0000
0000
1000
0000
0000
0001
0000
0100
0000
1000
0000
0100
0000
0001
0000
,
0010
0100
2000
0000
3010
0100
0002
0000
,
0013
0000
0000
0101
0000
0000
0110
0000
0000
0000
0010
0000
1000
0000
0010
0000
,
0100
0001
0200
0000
0310
1000
0200
0000
,
0310
0000
0000
0011
0000
0000
1001
0000
1000
0000
0010
0000
0100
0000
0100
0000
,
0001
1000
0020
0000
1030
0001
0200
0000
,
0310
0000
0000
1010
0000
0000
1001
0000
0000
0000
0001
0000
0100
0000
0010
0000
,
0100
0001
2000
0000
3010
1000
0002
0000
,
0103
0001
0010
0100
0001
0100
1000
0000
,
1010
0000
0110
0000
0100
0001
0020
0000
,
0130
1000
0010
0100
0002
0000
2003
0000
,
3100
0010
0001
1000
0100
0010
0001
0100
,
1000
0100
0001
0100
1000
0200
0010
0300
,
0001
0000
0000
0010
0000
0000
0100
0000
0000
1000
0000
0000
1010
0000
0000
0000
,
1000
0000
0000
0100
0000
0000
0010
0000
0000
0001
0000
0000
0101
0000
0100
0000
,
0010
0000
0000
1000
0000
0000
0001
0000
0000
0010
0000
0000
0100
0000
0200
0000
,
0000
1300
0010
0001
0010
1000
0100
0010
,
0001
0000
0000
0100
0000
0000
0010
0000
0000
1000
0000
0000
1100
0000
0000
0000
,
1000
0000
0000
0010
0000
0000
0100
0000
0000
0001
0000
0000
0010
0000
0010
0000
,
0001
0000
0000
0100
0000
0000
1000
0000
0000
0001
0000
0000
0010
0000
0020
0000
,
0000
1030
0100
0010
0001
0100
1000
0100
,
0001
0010
0100
0001
0100
0010
0001
0000
,
1000
0100
0010
1000
0010
0100
1000
0000
,
0010
0001
0010
1000
0100
0001
0100
1000
,
0010
0100
1000
0100
0001
0010
1000
0010
,
0001
0001
0100
0100
0010
0010
1000
0000
,
1000
0100
0100
0010
0010
0001
0100
0000
,
0110
0000
0000
1010
0000
0000
1001
0000
0000
0101
0000
0000
0200
0000
0310
0000
,
0000
1010
0000
0000
1100
0000
0000
0101
0000
0000
0011
0000
0010
0000
0100
0000
,
1000
0010
0001
1000
0100
0001
0010
0220
,
0000
0330
0000
0000
;

//---------------dance-single - ----------------
#NOTEDATA:;
#CHARTNAME:;
#STEPSTYPE:dance-single;
#DESCRIPTION:;
#CHARTSTYLE:;
#DIFFICULTY:Hard;
#METER:14;
#RADARVALUES:0.712904,0.827583,0.364939,0.246121,0.670469,588.000000,545.000000,43.000000,29.000000,0.000000,0.000000,0.000000,0.000000,0.000000,0.712904,0.827583,0.364939,0.246121,0.670469,588.000000,545.000000,43.000000,29.000000,0.000000,0.000000,0.000000,0.000000,0.000000;
#CREDIT:;
#DISPLAYBPM:147.000000;
#NOTES:
0000
0000
0000
0000
,
0000
0000
0000
0000
,
1010
0000
0000
2020
0000
0000
0000
0000
0000
0000
0000
0000
0000
0000
0000
0000
,
3030
0000
0000
0000
0000
0000
0000
0000
0000
0000
0000
0020
0000
0000
0130
0000
,
0101
0000
0000
0202
0000
0000
0000
0000
0000
0000
0000
0000
0303
0000
0000
0000
,
2002
0000
0000
0000
3003
0000
0000
0000
1000
0100
0000
0000
0010
0001
0000
0000
,
1001
1000
0010
0100
0010
1000
0100
1000
,
0001
0010
0001
0100
0010
0100
0001
0010
,
0100
1000
0010
1000
0001
0100
0001
0010
,
0100
0000
1100
0000
0000
0011
0000
0000
0001
0100
0000
0100
0000
0010
1000
0010
,
1000
0001
1000
0010
0100
0010
1000
0100
,
1000
0001
0010
0001
0100
0010
0100
0001
,
1000
0000
1000
0000
0010
0000
0010
0000
0100
0000
0100
0000
0001
0000
0001
0010
,
0000
0001
0100
0010
0100
0000
0010
1000
0010
0100
0000
0010
0000
1000
0100
0010
,
0002
0000
0000
0000
,
0000
0000
0000
0003
,
0101
0000
0000
1100
0000
0000
1010
0000
0000
0011
0000
0000
0001
0100
0000
0000
,
1100
0000
0000
0101
0000
0000
0011
0000
0000
0010
1000
0000
0100
0000
0010
0100
,
0010
0010
0001
0001
0100
0100
1000
1000
,
0001
0001
0010
0010
1000
1000
0100
0100
,
0010
0100
0010
0000
0001
0000
0100
0000
0010
0100
0010
0000
1000
0000
0100
0000
,
0010
0100
0000
0000
1000
0001
0000
0000
0100
0010
0100
0010
0200
0000
0300
0000
,
0110
0010
1000
0100
0001
0100
1000
0010
,
0100
0001
0100
0001
0100
0000
0010
0000
2000
0000
0000
0000
3001
0000
0000
0000
,
0001
0000
0010
0000
1000
0000
0010
0000
0001
0100
0001
0000
0010
0000
0100
0000
,
1000
0010
1000
0010
1000
0010
1000
0010
1000
0010
1000
0010
0200
0000
0001
0000
,
0301
0000
0000
0000
0000
0000
0001
0000
0010
0000
0100
0000
0010
0000
0000
0001
0000
0000
0100
0000
0000
0010
0000
0000
,
1010
0000
0000
0000
1100
0000
0100
1000
0100
0000
0010
0100
0000
0001
0100
0000
,
1000
0010
0001
0010
1000
0100
0010
0001
,
0101
0000
0000
0000
1010
0000
0000
0000
0110
0000
0100
0001
2000
0000
0000
0000
,
3010
0100
0010
1000
0100
0001
0100
1000
,
0010
0100
0010
0100
0010
0000
0100
0000
0002
0000
0000
0000
1003
0000
0000
0000
,
1000
0010
0001
0000
0001
0100
1000
0000
,
1010
0000
0010
0100
0001
0000
0000
0000
0011
0000
0001
0100
0010
0000
1000
0000
,
0200
0000
0000
0000
0000
0000
1300
0000
0010
0000
0100
0000
0010
0000
0000
1000
0000
0000
0100
0000
0000
0010
0000
0000
,
0011
0000
0000
0000
0000
0000
0000
0000
0000
0000
0000
0000
0001
0000
0000
0000
0100
0000
0000
0000
0010
0000
0000
0000
0200
0000
0000
0000
0000
0000
0000
0000
0000
0000
0000
0000
0310
0000
0000
1000
0000
0000
0010
0000
0000
1000
0000
0000
,
0002
0203
0320
1030
,
1100
0000
0000
0011
0000
0000
0101
0000
0100
0010
1000
0001
0020
0000
0000
0000
,
0130
1000
1010
0000
0010
0100
0101
0000
,
0011
0000
0000
1010
0000
0000
0011
0000
0000
0001
0100
0000
0010
1000
0010
0000
,
0100
0000
0001
0000
0011
0000
0000
0000
1100
0000
0000
0101
0000
0000
1100
0000
,
1000
0000
0010
0100
0010
0000
0001
0000
0010
0000
0100
0000
0010
0000
0010
0000
,
1000
0000
0100
0010
0001
0000
0000
0001
0100
0000
0010
0000
1000
0100
0000
0000
,
1100
0000
0000
0000
0000
0000
0000
0000
0000
1010
0000
0000
0000
0000
0000
0000
0000
0000
0011
0000
0000
0000
0000
0000
0000
0000
0000
0001
0000
0000
0100
0000
0000
0000
0000
0000
0010
0000
0000
0000
1000
0000
0000
0000
0010
0000
0000
0000
,
0100
0000
0001
0000
0010
0100
0000
0000
0010
0000
0001
0000
0100
0010
0000
0000
,
1010
0000
0000
0011
0000
0000
0101
0000
0000
0100
1000
0000
1000
0010
0100
0000
,
0001
0000
0010
0000
1000
0000
0010
0000
0001
0000
0010
0000
0100
0010
0100
0000
,
1000
0000
0100
0000
0001
0000
0100
0000
1000
0010
1000
0000
0001
0100
0001
0000
,
1000
0100
1000
0100
0010
0000
0100
0000
1000
0010
1000
0010
0100
0000
0001
0000
,
0020
0000
0230
0000
2300
0000
3002
0000
0103
0010
0200
0000
0310
0000
0000
0000
,
0010
0000
1000
0100
0000
1000
0001
0000
1000
0100
0000
1000
0010
0000
0100
0001
,
0100
0000
0001
0010
0000
0001
1000
0000
0001
0100
0000
0001
0010
0001
1000
0000
,
1000
0000
0010
0100
0000
0010
0001
0000
0010
0100
0000
0010
2000
0000
3001
0000
,
0000
0001
0100
0000
0100
0010
0000
0010
0000
1000
0100
0010
0001
0000
0100
0000
,
0010
0000
1000
0001
0000
0010
0100
0000
1000
0010
0000
0100
0001
0000
0010
0100
,
0010
0000
0001
0100
0000
0010
1000
0000
0100
0010
0000
0001
0100
0001
1000
0000
,
0010
0000
0100
0001
0000
0100
0010
0000
0100
1000
0000
0100
0020
0000
1030
0000
,
0000
1000
0100
0000
0100
0010
0000
0010
0000
0001
0100
0010
1000
0010
1000
0100
,
0010
0000
0001
0100
0000
0100
0010
0000
0010
1000
0000
1000
0001
0000
0010
0100
,
1000
0000
1000
0001
0000
0001
0100
0000
0100
0010
0000
0010
1000
0000
0001
0000
,
0010
0100
1000
0000
0010
0100
0001
0000
0010
0100
1000
0000
0010
0100
0001
0000
,
1000
0100
1000
0100
0010
0001
0010
0001
0100
0001
0100
0010
1000
0100
0010
0001
,
0100
0000
0100
0000
0010
0000
0010
0000
0001
0000
0001
0000
0010
0000
1000
0100
,
0010
0000
0010
0000
0100
0000
0100
0000
1000
0000
1000
0010
0100
0010
0000
0001
,
0010
0000
0010
1000
0000
1000
0100
0000
0100
0001
0000
0001
0200
0000
0310
0000
,
0000
0010
0100
0000
0100
1000
0000
1000
0010
0000
0010
0001
0000
0001
0010
0100
,
0010
1000
0100
0001
0010
1000
0100
0220
,
0000
0330
0000
0000
;

//---------------dance-double - ----------------
#NOTEDATA:;
#CHARTNAME:;
#STEPSTYPE:dance-double;
#DESCRIPTION:;
#CHARTSTYLE:;
#DIFFICULTY:Hard;
#METER:15;
#RADARVALUES:0.700779,0.856121,0.381913,0.212174,0.619547,578.000000,533.000000,45.000000,25.000000,0.000000,0.000000,0.000000,0.000000,0.000000,0.700779,0.856121,0.381913,0.212174,0.619547,578.000000,533.000000,45.000000,25.000000,0.000000,0.000000,0.000000,0.000000,0.000000;
#CREDIT:;
#DISPLAYBPM:147.000000;
#NOTES:
00000000
00000000
00000000
00000000
,
00000000
00000000
00000000
00000000
,
01001000
00000000
00000000
02002000
00000000
00000000
00000000
00000000
00000000
00000000
00000000
00000000
00000000
00000000
00000000
00000000
,
03003000
00000000
00000000
00000000
00000000
00000000
00000000
00000000
00000000
00000000
00000000
00002000
00000000
00000000
00013000
00000000
,
00010100
00000000
00000000
00020200
00000000
00000000
00000000
00000000
00000000
00000000
00000000
00000000
00030300
00000000
00000000
00000000
,
00022000
00033000
00101000
00010010
,
00010000
00001000
00000100
00000001
00000010
00000100
00000010
00001000
,
00010000
00000100
00000010
00000100
00001000
00000001
00000100
00001000
,
00010000
00000010
00001000
00010000
00001000
00000010
00010000
00001000
,
00000100
00000000
00000101
00000000
00000000
00000011
00000000
00000000
00000010
00000100
00000000
00000100
00000000
00010000
00001000
00010000
,
00001000
00100000
01000000
10000000
00100000
00010000
00001000
00010000
,
00100000
10000000
01000000
00010000
00001000
00100000
00010000
00001000
,
00010000
00000000
00010000
00000000
00100000
00000000
00100000
00000000
01000000
00000000
01000000
00000000
10000000
00000000
10000000
00100000
,
00000000
01000000
00100000
01000000
00100000
00000000
01000000
00010000
01000000
00010000
00000000
00100000
00000000
00001000
00010000
00001000
,
00020000
00000000
00000000
00000000
,
00000000
00000000
00000000
00030000
,
00011000
00000000
00000000
01001000
00000000
00000000
00011000
00000000
00000000
00010100
00000000
00000000
00010000
00001000
00000000
00000000
,
00101000
00000000
00000000
00011000
00000000
00000000
00010010
00000000
00000000
00010000
00001000
00000000
00000100
00000000
00000001
00000010
,
00000001
00000001
00000010
00000010
00000100
00000100
00001000
00001000
,
00010000
00010000
01000000
01000000
00100000
00100000
10000000
10000000
,
01000000
00010000
00001000
00000010
00000001
00000100
00001000
00010000
,
00010010
00000000
00000000
00000000
00101000
00000000
00000000
00000000
00001000
00010000
00001000
00010000
00002000
00000000
00003000
00000000
,
00011000
00010000
00100000
00010000
00001000
00000010
00001000
00010000
,
00100000
01000000
00100000
00000000
10000000
00000000
01000000
00000000
00200000
00000000
00000000
00000000
00301000
00000000
00000000
00000000
,
00001000
00000000
00010000
00000000
00100000
00000000
00001000
00000000
00000010
00000100
00000010
00000000
00000100
00000000
00000001
00000000
,
00000010
00000100
00000010
00000000
00001000
00010000
00001000
00000000
01000000
00100000
01000000
00100000
02000000
00000000
00010000
00000000
,
03010000
00000000
00000000
00000000
00000000
00000000
00010000
00000000
00100000
00000000
01000000
00000000
10000000
00000000
00000000
00100000
00000000
00000000
00010000
00000000
00000000
00001000
00000000
00000000
,
00011000
00000000
00000000
00000000
00010100
00000000
00000100
00001000
00000100
00000000
00000010
00000100
00000000
00000001
00000100
00000000
,
00010000
00001000
00000100
00000001
00000010
00000100
00001000
00000010
,
00010010
00000000
00000000
00000000
00101000
00000000
00000000
00000000
00110000
00000000
00010000
01000000
00200000
00000000
00000000
00000000
,
10300000
01000000
00010000
00001000
00100000
01000000
00010000
00001000
,
00000010
00000001
00000010
00000000
00000100
00000000
00001000
00000000
00000020
00000000
00000000
00000000
00000130
00000000
00000000
00000000
,
00000100
00000001
00000010
00000000
00000010
00001000
00010000
00000000
,
00010000
00000000
01000000
10000000
00100000
00000000
00000000
00000000
00100000
00000000
00010000
00001000
00000100
00000000
00000001
00000000
,
00000020
00000000
00000000
00000000
00000000
00000000
00000130
00000000
00000001
00000000
00000100
00000000
00001000
00000000
00000000
00000010
00000000
00000000
00010000
00000000
00000000
00001000
00000000
00000000
,
00011000
00000000
00000000
00000000
00000000
00000000
00000000
00000000
00000000
00000000
00000000
00000000
00010000
00000000
00000000
00000000
00100000
00000000
00000000
00000000
01000000
00000000
00000000
00000000
00200000
00000000
00000000
00000000
00000000
00000000
00000000
00000000
00000000
00000000
00000000
00000000
10300000
00000000
00000000
01000000
00000000
00000000
10000000
00000000
00000000
01000000
00000000
00000000
,
00020000
00001000
00001000
00031000
,
01001000
00000000
00000000
00010100
00000000
00000000
00001100
00000000
00001000
00000100
00000010
00000001
00000020
00000000
00000000
00000000
,
00000031
00000100
00001010
00000000
00001000
00000100
00000011
00000000
,
00000101
00000000
00000000
00001100
00000000
00000000
00011000
00000000
00000000
00010000
00100000
00000000
01000000
00100000
01000000
00000000
,
00100000
00000000
10000000
00000000
01010000
00000000
00000000
00000000
00110000
00000000
00000000
00011000
00000000
00000000
00001010
00000000
,
00000010
00000000
00000100
00000001
00000010
00000000
00001000
00000000
00000010
00000000
00000001
00000000
00000100
00000000
00000100
00000000
,
00001000
00000000
00010000
00100000
01000000
00000000
00000000
00100000
10000000
00000000
01000000
00000000
00100000
00001000
00000000
00000000
,
00011000
00000000
00000000
00000000
00000000
00000000
00000000
00000000
00000000
00101000
00000000
00000000
00000000
00000000
00000000
00000000
00000000
00000000
00010010
00000000
00000000
00000000
00000000
00000000
00000000
00000000
00000000
00000010
00000000
00000000
00001000
00000000
00000000
00000000
00000000
00000000
00000100
00000000
00000000
00000000
00000010
00000000
00000000
00000000
00000001
00000000
00000000
00000000
,
00000100
00000000
00001000
00000000
00010000
00001000
00000000
00000000
00010000
00000000
00100000
00000000
10000000
01000000
00000000
00000000
,
11000000
00000000
00000000
00110000
00000000
00000000
00011000
00000000
00000000
00001000
00100000
00000000
01000000
00010000
00001000
00000000
,
00000010
00000000
00000001
00000000
00000010
00000000
00001000
00000000
00000010
00000000
00000001
00000000
00000100
00000010
00000100
00000000
,
00001000
00010000
00100000
01000000
00200000
10300000
00020000
01030000
,
01000000
00100000
01000000
00000000
00001000
00010000
00001000
00000000
00000010
00000100
00000010
00000100
00000010
00000000
00000001
00000000
,
00000100
00000000
00001000
00000000
00010000
00000000
00100000
00000000
10000000
01000000
00200000
00000000
00301000
00000000
00000000
00000000
,
00011000
00000000
00010000
00000010
00000000
00001000
00000010
00000000
00000100
00000010
00000000
00000001
00000010
00000000
00001000
00000100
,
00000010
00000000
00001000
00000010
00000000
00000001
00000010
00000000
00000100
00000010
00000000
00001000
00000010
00000100
00000010
00000000
,
00000001
00000000
00000100
00001000
00000000
00010000
00001000
00000000
00000010
00001000
00000000
00010000
00002000
00000000
01003000
00000000
,
00000000
01000000
00010000
00000000
00010000
00100000
00000000
00100000
00000000
01000000
10000000
01000000
00100000
00000000
00010000
00000000
,
00001000
00000000
00000010
00000100
00000000
00000010
00000001
00000000
00000010
00001000
00000000
00000010
00000100
00000000
00001000
00010000
,
00001000
00000000
00100000
00001000
00000000
00010000
00001000
00000000
00000010
00001000
00000000
00010000
00001000
00010000
00100000
00000000
,
10000000
00000000
01000000
00010000
00000000
01000000
10000000
00000000
01000000
00010000
00000000
01000000
00200000
00000000
00301000
00000000
,
00000000
00001000
00010000
00000000
00010000
00000010
00000000
00000010
00000000
00001000
00000100
00000000
00000010
00000001
00000010
00000001
,
00000100
00000000
00001000
00010000
00000000
00010000
00100000
00000000
00100000
10000000
00000000
10000000
01000000
00000000
00100000
00010000
,
01000000
00000000
01000000
00001000
00000000
00001000
00000100
00000000
00000100
00000001
00000000
00000001
00000010
00000000
00000100
00000000
,
00000010
00000001
00000010
00000001
00001000
00000100
00001000
00000100
00000010
00001000
00000010
00001000
00010000
00001000
00010000
00001000
,
00100000
00010000
00100000
00000000
01000000
10000000
01000000
00000000
00010000
00001000
00010000
00000000
00000100
00001000
00000100
00001000
,
00000001
00000000
00000001
00000000
00000100
00000000
00000100
00000000
00000010
00000000
00000010
00000000
00001000
00000000
00010000
01000000
,
00100000
00000000
00100000
00000000
10000000
00000000
10000000
00000000
01000000
00000000
01000000
00100000
00010000
00100000
00000000
00001000
,
00010000
00000000
00010000
00100000
00000000
00100000
00001000
00000000
00001000
00000010
00000000
00000010
00000200
00000000
00000301
00000000
,
00000000
00000001
00000010
00000000
00000010
00001000
00000000
00001000
01000000
00000000
01000000
00010000
00000000
00010000
00100000
01000000
,
10000000
00100000
00010000
00001000
00000100
00000001
00000010
00022000
,
00000000
00033000
00000000
00000000
;

//---------------dance-double - ----------------
#NOTEDATA:;
#CHARTNAME:;
#STEPSTYPE:dance-double;
#DESCRIPTION:;
#CHARTSTYLE:;
#DIFFICULTY:Easy;
#METER:7;
#RADARVALUES:0.250971,0.285374,0.110330,0.084869,0.000000,207.000000,194.000000,13.000000,10.000000,0.000000,0.000000,0.000000,0.000000,0.000000,0.250971,0.285374,0.110330,0.084869,0.000000,207.000000,194.000000,13.000000,10.000000,0.000000,0.000000,0.000000,0.000000,0.000000;
#CREDIT:;
#DISPLAYBPM:147.000000;
#NOTES:
00000000
00000000
00000000
00000000
,
00000000
00000000
00000000
00000000
,
00000000
00000000
00000000
00000000
,
00000000
00000000
00000000
00000000
,
00000000
00000000
00000000
00000000
,
00001000
00000000
00010000
00010000
,
00000100
00001000
00000010
00000000
,
00000100
00000010
00001000
00000000
,
00000100
00000010
00001000
00000000
,
00010000
01000000
00100000
00100000
,
00010000
01000000
00100000
00000000
,
01000000
00010000
00100000
00000000
,
01000000
00010000
00001000
00000000
,
00010000
00001000
00000010
00000001
,
00002002
00000000
00000000
00000000
,
00000000
00000000
00000000
00003003
,
00001000
00000000
00000000
00001000
00000000
00000000
00001000
00000000
,
00000001
00000000
00000000
00000001
00000000
00000000
00000001
00000000
,
00000100
00000010
00000100
00000010
,
00010000
00001000
00010000
00001000
,
01000000
00100000
01000000
00100000
,
02000000
03000000
00100000
00100000
,
10000000
01000000
00100000
00000000
,
00100000
00010000
01000000
00000000
,
01000000
00100000
00010000
00000000
,
00010000
00001000
00000100
00000100
,
00000001
00000010
00000100
00000000
,
00000100
00001000
00000010
00000000
,
00000010
00010000
00001000
01000000
,
00010000
00200000
00300000
01100000
,
01000000
10000000
00100000
00000000
,
00100000
00010000
00001000
00000000
,
00010000
00001000
00000010
00000000
,
00000010
00000001
00000100
00000000
,
00000110
00000000
00000010
00000010
,
00001000
00000100
00000010
00001000
,
00010000
00010000
01000000
01000000
,
10000000
00100000
00020000
00000000
,
00031000
00000000
00010000
00000000
,
00011000
00000000
00010010
00000000
,
00010000
00000000
00001000
00000000
,
00011000
00000000
00101000
00000000
,
00001000
00000000
00010000
00000000
,
00011000
00000000
00010100
00000000
,
00010000
00000000
00001000
00000000
,
00011000
00000000
01001000
00000000
,
01000000
00010000
00100000
01000000
,
00010000
00001000
00000010
00000100
,
00001000
00000010
00010000
00001000
,
00022000
00000000
00000000
00033000
,
00010000
00001000
00000010
00000000
,
00001000
00010000
00100000
00000000
,
00010000
00001000
00000100
00001000
,
00010000
01000000
00010000
00010000
,
00001000
00010000
00100000
00000000
,
00010000
00001000
00000010
00000000
,
00001000
00010000
00100000
10000000
,
00000000
10000000
01000000
00010000
,
00001000
00100000
01000000
00010000
,
00001000
00000010
00000100
00010000
,
00001000
00000100
00000001
00000010
,
00001000
00010000
01000000
10000000
,
00100000
00100000
00010000
00010000
,
00001000
00001000
00000100
00000100
,
00000001
00000010
00000100
00000020
,
00000030
00000001
00001000
00010000
,
01000000
00100000
10000000
20020000
,
00000000
30030000
00000000
00000000
;

//---------------dance-double - ----------------
#NOTEDATA:;
#CHARTNAME:;
#STEPSTYPE:dance-double;
#DESCRIPTION:;
#CHARTSTYLE:;
#DIFFICULTY:Medium;
#METER:11;
#RADARVALUES:0.500730,0.599285,0.390400,0.178226,0.118817,413.000000,367.000000,46.000000,21.000000,0.000000,0.000000,0.000000,0.000000,0.000000,0.500730,0.599285,0.390400,0.178226,0.118817,413.000000,367.000000,46.000000,21.000000,0.000000,0.000000,0.000000,0.000000,0.000000;
#CREDIT:;
#DISPLAYBPM:147.000000;
#NOTES:
// measure 0
00000000
00000000
00000000
00000000
,  // measure 1
00000000
00000000
00000000
00000000
,  // measure 2
00000000
00000000
00000000
00000000
,  // measure 3
00000000
00000000
00000000
00000000
00000000
00000000
00000000
00000000
00000000
00000000
00000000
00002000
00000000
00000000
00013000
00000000
,  // measure 4
00011000
00000000
00000000
02002000
00000000
00000000
00000000
00000000
00000000
00000000
00000000
00000000
03003000
00000000
00000000
00000000
,  // measure 5
00020200
00030300
00101000
00010010
,  // measure 6
00010000
00001000
00010000
00000000
00100000
00000000
00010000
00000000
,  // measure 7
00001000
00010000
00001000
00000000
00000010
00000000
00001000
00000000
,  // measure 8
00010000
00001000
00010000
00000000
01000000
00000000
00010000
00000000
,  // measure 9
00001000
00000000
00001000
00000000
00000000
00010000
00000000
00000000
00001000
00000000
00000100
00000000
00001000
00000000
00010000
00000000
,  // measure 10
00001000
00000010
00000001
00000000
00000100
00000000
00001000
00000000
,  // measure 11
00010000
00100000
10000000
00000000
01000000
00000000
00010000
00000000
,  // measure 12
00011000
01001000
00010010
00011000
,  // measure 13
00001000
00100000
00001000
00100000
01000000
00010000
01000000
00010000
,  // measure 14
00002000
00000000
00000000
00000000
,  // measure 15
00000000
00000000
00000000
00003000
,  // measure 16
00010000
00000000
00000000
00010000
00000000
00000000
00010000
00000000
00000000
00010000
00000000
00000000
00000010
00000000
00010000
00000000
,  // measure 17
00001000
00000000
00000000
00001000
00000000
00000000
00001000
00000000
00000000
00001000
00000000
00000000
00001000
00000000
00100000
00000000
,  // measure 18
00010000
01000000
10000000
00000000
10000000
01000000
00010000
00000000
,  // measure 19
00001000
00000010
00000001
00000000
00000001
00000010
00001000
00000000
,  // measure 20
00010000
01000000
00100000
00010000
00001000
00000100
00000010
00001000
,  // measure 21
00000200
00000000
00000000
00000000
00000310
00000010
00001001
00000000
,  // measure 22
00001100
00000000
00000012
00000000
00001003
00000010
00000010
00000000
,  // measure 23
00010000
00001000
01000000
00010000
00100000
00000000
11000000
00000000
,  // measure 24
10000000
00100000
00100000
00000000
00010000
00100000
01000000
00010000
,  // measure 25
00100000
01000000
00010000
00001000
00010000
01000000
00010000
00001000
,  // measure 26
00000100
00000000
00000001
00000010
00000100
00001000
00000100
00000010
,  // measure 27
00000100
00000000
00000000
00000000
00000001
00000000
00000100
00000000
00001000
00000000
00000000
00001000
00000000
00000000
00001000
00000000
,  // measure 28
00000010
00010010
00000000
00011000
00000000
00101000
00000000
01100000
,  // measure 29
02000000
00000000
13000000
00000000
10000000
00100000
00020000
00000000
,  // measure 30
00031000
00000000
00011000
00000000
00001000
00000100
00000010
00000000
,  // measure 31
00001000
00000100
00000010
00000001
00000100
00000000
00001010
00000000
,  // measure 32
00001000
00000100
00000010
00000000
00010000
00100000
01000000
00000000
,  // measure 33
10000000
00100000
00010000
00000000
00001000
00000100
00000001
00000010
,  // measure 34
00000100
00000000
00001000
00000010
00010000
00001000
00100000
00010000
,  // measure 35
10000000
00000000
00100000
00010000
00011000
00000000
00000010
00001000
,  // measure 36
00011000
00101000
00010100
00011000
,  // measure 37
00001000
00000000
00000000
00000100
00000000
00000000
00000001
00000000
00000010
00000000
00000100
00000000
00000010
00000000
00000001
00000000
,  // measure 38
00001000
00000100
00000010
00000000
00000010
00000001
00000100
00000000
,  // measure 39
00000110
00000000
00000000
00001010
00000000
00000000
00011000
00000000
00000000
00000000
00010000
00000000
00100000
00000000
10000000
00000000
,  // measure 40
01000000
00100000
00010000
00000000
00010000
10000000
00100000
00000000
,  // measure 41
01100000
00000000
00000000
01010000
00000000
00000000
00011000
00000000
00001000
00000000
00100000
00000000
01000000
00000000
01000000
00000000
,  // measure 42
00010000
00001000
00000010
00000000
00000010
00000100
00001000
00000000
,  // measure 43
00001010
00000000
00000000
00000011
00000000
00000000
00000101
00000000
00000000
00000000
00000100
00000000
00000010
00000000
00000001
00000000
,  // measure 44
00000010
00001000
00000100
00000000
00000100
00000010
00000001
00000000
,  // measure 45
00000001
00000100
00001000
00010000
00100000
10000000
01000000
00000000
,  // measure 46
01100000
00000000
00101000
00000000
00001000
00010000
00100000
00000000
,  // measure 47
00010000
00001000
00000100
00000001
00000010
00000000
00000100
00000000
,  // measure 48
00001000
00000010
00010000
00100000
01000000
00010000
00100000
00001000
,  // measure 49
00000010
00000100
00001000
00000010
00000100
00001000
00011000
00000000
,  // measure 50
00010000
00000000
00000000
00100000
00000000
00000000
10000000
00000000
00000000
01000000
00000000
00000000
00100000
00000000
00000000
00000000
,  // measure 51
01000000
00000000
00000000
00010000
00000000
00000000
00001000
00000000
00000000
00000010
00000000
00000000
00000001
00000000
00000001
00000000
,  // measure 52
00001000
00000000
00000000
00000010
00000000
00000000
00000100
00000000
00000000
00001000
00000000
00000000
00010000
00000000
00002000
00000000
,  // measure 53
00000000
00103000
00010000
00100000
01000000
10000000
00100000
00010000
,  // measure 54
00001000
00000000
00000000
00100000
00000000
00000000
01000000
00000000
00000000
00010000
00000000
00000000
00001000
00000000
00000000
00000000
,  // measure 55
00000100
00000000
00000000
00000001
00000000
00000000
00001000
00000000
00000000
00000010
00000000
00000000
00000100
00000000
00001000
00000000
,  // measure 56
00010000
00000000
00000000
00100000
00000000
00000000
10000000
00000000
00000000
01000000
00000000
00000000
00100000
00000000
00120000
00000000
,  // measure 57
00000000
10030000
01000000
00100000
00010000
01000000
00100000
00010000
,  // measure 58
00001000
00000010
00000001
00000100
00001000
00010000
00100000
00000000
,  // measure 59
00010000
00100000
10000000
01000000
00010000
00001000
00000010
00000000
,  // measure 60
00000100
00000010
00000001
00001000
00000100
00000010
00001000
00010000
,  // measure 61
01000000
00100000
00010000
10000000
01000000
00100000
00001000
00010000
,  // measure 62
00200000
20300000
32000000
03020000
,  // measure 63
00032000
00003020
00000032
00000103
,  // measure 64
00000110
00000000
00000000
00001010
00000000
00000000
00011000
00000000
00000000
00110000
00000000
00000000
00100000
00000000
00100000
00000000
,  // measure 65
00000000
10100000
00000000
00000000
11000000
00000000
00000000
01010000
00000000
00000000
00011000
00000000
00001000
00000000
00100000
00000000
,  // measure 66
01000000
00010000
00001000
00000010
00000100
00010000
00001000
00022000
,  // measure 67
00000000
00033000
00000000
00000000
;
