#TITLE:HOW PEOPLE MOVE;
#SUBTITLE:;
#ARTIST:AKMU;
#TITLETRANSLIT:;
#SUBTITLETRANSLIT:;
#ARTISTTRANSLIT:;
#GENRE:K-POP;
#CREDIT:MUINELIM;
#BANNER:HOW PEOPLE MOVE.png;
#BACKGROUND:HOW PEOPLE MOVE-bg.png;
#LYRICSPATH:;
#CDTITLE:;
#MUSIC:HOW PEOPLE MOVE.ogg;
#OFFSET:-0.031000;
#SAMPLESTART:88.555588;
#SAMPLELENGTH:14.734097;
#SELECTABLE:YES;
#DISPLAYBPM:122.000000;
#BPMS:0.000000=122.000000
;
#STOPS:176.000000=0.983604
;
#BGCHANGES:0.000=HOW PEOPLE MOVE.avi=1.000=1=0=0=StretchNoLoop==CrossFade==,
99999=-nosongbg-=1.000=0=0=0 // don't automatically add -songbackground-
;
#KEYSOUNDS:;
#ATTACKS:;

//---------------dance-single - ----------------
#NOTES:
     dance-single:
     :
     Beginner:
     4:
     0.134256,0.174989,0.030073,0.015037,0.000000,125.000000,121.000000,4.000000,2.000000,0.000000,0.000000,0.134256,0.174989,0.030073,0.015037,0.000000,125.000000,121.000000,4.000000,2.000000,0.000000,0.000000:
0000
0000
0000
0000
,
0000
0000
0000
0000
,
0010
0000
0000
0000
,
0010
0000
0010
0010
,
0010
0000
1000
0000
,
0010
0000
1000
0000
,
0001
0000
0100
0000
,
0001
0000
0100
0000
,
0001
0000
1000
0000
,
0001
0000
1000
0000
,
0001
0000
0001
0000
,
0100
0000
0100
0000
,
0010
0000
0010
0000
,
1000
0000
1000
0000
,
0001
0000
1000
0000
,
0001
0000
0100
0100
,
0100
0000
0000
0000
,
0010
0000
0010
0010
,
0010
0000
0000
0000
,
0100
0000
0100
0100
,
0100
0000
0001
0000
,
1000
0000
0010
0000
,
0100
0000
0001
0000
,
2000
0000
3000
0000
,
0001
0000
0000
0000
,
0100
0000
0000
0000
,
1000
0000
0000
0000
,
0010
0000
0000
0000
,
0001
0000
0001
0000
,
1000
0000
1000
0000
,
0001
0000
1000
0000
,
1001
0000
0000
0000
,
0010
0000
0000
0000
,
0010
0000
0010
0000
,
0100
0000
0010
0000
,
1000
0000
0001
0000
,
0100
0000
0100
0000
,
0100
0100
0100
0100
,
0100
0000
0000
0000
,
0001
0000
0000
0000
,
1000
0000
0000
0000
,
0100
0000
0000
0000
,
0010
0000
0000
0000
,
0001
0000
0001
0000
,
1001
0000
1000
0000
,
0100
0000
0010
0000
,
0001
0000
0100
0000
,
0100
0000
0010
0000
,
0010
0000
1000
0000
,
0001
0000
1000
0000
,
1000
0000
0010
0000
,
0100
0000
0010
0000
,
0010
0000
1000
0000
,
1000
0000
1000
1000
,
1000
0000
0001
0000
,
0001
0000
0001
0001
,
0001
0000
1000
0000
,
1001
0000
0001
0000
,
1001
0000
0010
0000
,
0000
0000
0010
0000
,
0100
0100
0100
0000
,
0000
0000
0100
0000
,
0010
0010
0010
0000
,
1000
0000
0001
0000
,
0100
0000
1000
0000
,
0010
0000
0002
0000
,
0000
0000
0003
0000
;

//---------------dance-single - ----------------
#NOTES:
     dance-single:
     :
     Easy:
     7:
     0.231995,0.249985,0.075183,0.120294,0.000000,216.000000,206.000000,10.000000,16.000000,0.000000,0.000000,0.231995,0.249985,0.075183,0.120294,0.000000,216.000000,206.000000,10.000000,16.000000,0.000000,0.000000:
0000
0000
0000
0000
,
0000
0000
0000
0000
,
0020
0000
0000
0030
,
0200
0300
0002
1003
,
1000
0010
1000
0000
,
0001
0010
0001
0000
,
1000
0010
1000
1000
,
0001
0001
0010
0001
,
1000
0000
0001
0000
,
0100
0000
0010
0000
,
1000
0100
0010
0100
,
1000
0100
0100
0000
,
0001
0010
0100
0010
,
0001
0010
0010
0000
,
1000
1000
0000
0000
0001
0001
0000
0000
,
1000
1000
0000
0000
2002
0000
3003
0000
,
0001
1000
0001
0100
,
0010
0100
0001
0001
,
1000
0001
1000
0010
,
0100
0010
1000
1000
,
0001
0100
1000
0000
,
1000
0010
0001
0000
,
0001
0100
1000
0010
,
2002
0000
0000
3003
,
1000
0010
0000
0010
,
0100
0001
0000
0001
,
0010
0000
0100
0000
,
0010
0100
0010
0110
,
1000
0100
1000
0100
,
0100
0000
0001
0010
,
0010
1000
0001
0100
,
0020
0000
0000
0000
0030
0000
0100
0100
,
0100
0000
0010
0000
,
1000
0001
1000
1001
,
0001
0000
0100
0000
,
1000
0000
0010
0000
,
0001
0001
1000
1000
,
0020
0000
0230
0000
0310
0000
0100
0010
,
0100
0000
0010
0000
,
1000
0000
0001
0000
,
0100
0000
1000
0000
,
0010
0000
0001
0000
,
1000
0000
0010
0000
,
0100
0000
0220
0330
,
0110
0000
0010
1000
,
0001
0100
0010
0010
,
0010
0000
0010
0100
0100
0000
0001
0000
,
1000
0000
0010
1000
,
0001
0000
0100
0001
,
1000
0010
0100
0010
,
1000
0001
1001
0000
,
0001
1000
1001
0000
,
1000
0001
0100
0100
,
1000
1000
0001
0001
,
0001
0000
0010
0010
,
0001
0001
1000
1000
,
1000
0000
0010
0000
0100
0100
0000
0000
,
0010
0010
0000
0000
0100
0100
0000
0000
,
0220
0330
0010
0100
,
0010
1000
0001
1000
,
0010
0010
0100
0010
,
0100
0001
1000
0001
,
0100
0100
0010
1000
,
0100
0000
0100
0001
,
0010
0000
0010
1000
,
0100
0001
0220
0000
,
0000
0000
0330
0000
;

//---------------dance-single - ----------------
#NOTES:
     dance-single:
     :
     Medium:
     10:
     0.381288,0.449973,0.345844,0.172922,0.015037,355.000000,309.000000,46.000000,23.000000,0.000000,0.000000,0.381288,0.449973,0.345844,0.172922,0.015037,355.000000,309.000000,46.000000,23.000000,0.000000,0.000000:
0000
0000
0000
0000
,
0000
0000
0000
0000
,
0020
0100
0000
0130
,
0200
0000
0320
0130
,
0110
0010
1000
0010
,
0110
0100
0001
0100
,
0010
1000
0001
0000
1000
0000
1001
0000
,
0001
0000
1001
0000
1000
0010
0100
0001
,
1000
0100
1000
1001
,
0001
0010
0001
1001
,
1000
0010
1000
0000
0001
0010
0001
0000
,
1000
0010
1000
0010
0100
0000
0101
0000
,
0001
0100
0001
0000
1000
0100
1000
0000
,
0001
0100
0001
0100
0010
0000
1010
0000
,
1000
0100
0000
0000
0010
0001
0000
0000
,
0100
0010
0000
0000
0200
0000
0310
0000
,
0010
1000
0001
0100
,
0010
1000
0001
0100
0010
0000
0110
0000
,
0100
0001
1000
0010
,
0100
0001
0011
1100
,
1000
0000
0001
0000
0010
0001
0100
0000
,
0010
1000
0100
0000
0010
0001
1000
0000
,
0010
0000
0100
0000
0001
1000
0001
0200
,
0020
0000
0000
0330
,
0010
1000
0010
0000
1000
0000
0100
0000
,
0010
0001
0010
0000
0001
0000
0100
0000
,
0010
0000
0000
1000
0000
0000
0100
0000
1000
0000
0000
0001
0000
0000
0100
0000
,
0001
0000
0000
0010
0000
0000
0100
0000
1000
0000
0001
0000
1001
0000
0000
0000
,
1000
0010
0100
0000
0001
0100
0010
0010
,
0010
0000
1000
0100
0010
0001
1000
1000
,
1000
0010
0100
0001
,
0010
0100
0010
0100
0000
0000
1001
0000
,
0002
0003
2000
3000
,
0010
0100
0101
1010
,
1000
0100
0010
0000
0001
0010
0100
0000
,
2000
3002
0000
0103
,
0110
1001
0110
1001
,
0001
0000
0000
0100
0000
0000
0010
0000
1000
0000
0010
0000
0100
0000
0010
0000
,
1000
1002
0100
0010
,
1000
0100
0010
1003
,
2000
0000
3020
0000
,
0230
0000
0302
0000
,
0023
0230
2300
3002
,
0103
0010
1000
0001
0200
0000
0320
0000
,
0130
0110
1001
1001
,
1001
1001
1010
0101
,
0011
0000
1100
0000
1000
0010
0100
0000
,
0001
0010
0100
0000
1000
0100
0010
0000
,
0001
0100
0010
0000
1000
0001
0010
0100
,
1000
1100
0001
0011
,
0010
0100
1000
0010
0100
0001
1000
0000
,
0010
1000
0001
0000
0100
0001
0010
0000
,
0100
1000
0010
0000
0100
0000
0101
0000
,
0010
0000
1010
0000
1000
0100
0010
0001
,
0100
0110
0001
0011
,
1000
0000
1100
0000
0100
0010
0001
1000
,
0100
0000
1001
0000
0001
0100
0000
0000
,
1000
0010
0000
0000
0001
1000
0000
0000
,
1010
0000
0101
0000
0001
0010
0100
0000
,
0010
0000
0001
0000
0010
1000
0010
0001
,
0010
0000
0110
0000
1000
0100
0010
0000
,
0100
0000
1000
0000
0100
0001
0100
1000
,
0100
0110
0011
1100
,
1000
0010
0100
0000
0001
0010
0100
1000
,
0100
0010
0001
0000
0101
0000
1010
0000
,
0001
0100
0010
1000
0220
0000
0000
0000
,
0000
0000
0330
0000
;

//---------------dance-single - ----------------
#NOTES:
     dance-single:
     :
     Hard:
     12:
     0.508025,0.499970,0.405991,0.248105,0.150367,473.000000,419.000000,54.000000,33.000000,0.000000,0.000000,0.508025,0.499970,0.405991,0.248105,0.150367,473.000000,419.000000,54.000000,33.000000,0.000000,0.000000:
0000
0000
0000
0000
,
0000
0000
0000
0000
,
0120
0100
0000
0130
,
0102
0000
0000
0000
2003
0000
3010
0100
,
0110
0000
0001
0000
1000
0100
0010
0000
,
0110
0000
1000
0000
0001
0010
0100
0000
,
1000
0010
0100
0001
0011
0000
1100
0000
,
1010
0000
0101
0000
0001
1000
0010
0100
,
0101
0000
1000
0000
0010
0100
0001
0000
,
1010
0000
0001
0000
0100
0010
1000
0000
,
0001
0010
0100
1000
0010
0100
0001
0100
,
0010
1000
0010
0100
0101
0000
1010
1000
,
0100
0010
0001
0100
0010
1000
0010
0100
,
0001
0100
0010
1000
1100
0000
0011
0001
,
0100
0110
0000
1000
0010
0110
0000
0001
,
0100
0110
0000
1000
0110
0000
2002
3003
,
0001
0100
0010
1000
0001
0010
0100
1000
,
0010
0000
0100
0000
0001
0000
1000
0000
0100
0010
0000
0000
0100
0010
0000
0000
,
0100
1000
0010
0100
0001
1000
0100
0010
,
0001
0000
1000
0000
0010
0000
0100
0000
0001
1000
0000
0000
0001
1000
0000
0000
,
1010
0000
1010
0000
0010
0100
0001
0010
,
0100
0010
0001
0100
1000
0100
0001
0000
,
0011
0000
0011
0000
0010
0100
1000
0001
,
2002
0000
0000
3003
,
1000
0000
0010
0100
0010
0000
0100
0000
0000
0000
0001
0000
0010
0000
0100
0000
,
1000
0000
0010
0100
0010
0000
0100
0000
0000
0000
0010
0000
1000
0000
0100
0000
,
0010
0000
0000
0010
0001
0000
0010
0000
0100
0000
0000
0100
1000
0000
0100
0000
,
0010
0000
0000
0001
0100
0000
0010
0000
1000
0000
1000
0000
0100
0010
0000
0000
,
0100
0000
1000
0010
1000
0000
0001
0010
0001
0000
0100
0000
0010
0000
0010
0000
,
0010
0000
0000
0000
1000
0100
1000
0000
0001
0100
0001
0000
0010
0000
0010
0000
,
0010
0000
0100
1000
0100
0000
0010
0000
0001
0000
1000
0000
0010
0000
0100
0000
,
0001
0000
1000
0000
0100
0000
0020
0000
0000
0000
0000
0000
0031
1000
0100
0000
,
2000
0010
3010
0000
0002
0100
0103
0000
,
2000
0000
0001
0000
3001
0000
0010
0000
0100
0010
0000
0000
0010
0100
0000
0000
,
0110
0010
1000
0100
0001
1000
0010
0001
,
0200
0320
0000
1030
,
1100
0101
0011
1010
,
1000
0100
0000
0100
1000
0000
0001
0000
0100
0000
0010
1000
0010
0000
0100
0000
,
0101
0002
0023
0230
,
2300
3020
0032
0203
,
2300
0010
0000
3001
,
0002
0100
0000
1003
,
0020
0031
0200
1300
,
0020
0230
0302
1003
,
1001
0000
0220
0330
0010
0100
0001
1000
,
0100
0010
1000
0010
0001
0100
1000
0100
,
0010
0000
1000
0000
1001
0000
0001
0100
0001
0000
0010
0000
0000
0000
0100
0000
,
0010
0100
0000
1000
0000
0100
0010
0000
0100
0000
0100
0000
0000
0000
0010
0000
,
0001
0010
0000
0100
0000
0010
0001
0000
0100
0000
0010
0000
1000
0000
0001
0000
,
0011
1010
1100
0101
,
0001
0000
1000
0000
0010
0100
0000
0010
0000
0000
0110
0000
0000
0000
0100
0000
,
0001
1000
0000
0100
0000
0010
0100
0000
1000
0000
1010
0000
0000
0000
0010
0000
,
1000
0001
0000
0010
0000
0100
0010
0000
0001
0000
0100
0000
1000
0000
0100
0000
,
0001
0010
1000
0010
0001
0100
0010
1000
,
1100
0000
0011
0000
0010
0100
1000
0010
,
0001
0010
1000
0100
0001
0100
1000
0001
,
0101
0000
1010
0010
0100
1001
0000
0100
,
0010
1001
0000
1000
0001
0110
0000
1000
,
0110
0000
2002
3003
0001
0100
1000
0100
,
0010
0001
0010
1000
0100
0010
0001
1000
,
0010
0100
0000
0000
0010
0100
0000
0000
0010
0000
1000
0000
0100
0000
0001
0000
,
1000
0010
0001
0100
0010
1000
0100
0010
,
0001
1000
0000
0000
0001
1000
0000
0000
1100
0000
0100
0000
0010
0000
0001
0000
,
0011
0010
0100
1000
0010
0001
0010
1000
,
0100
0010
0110
0000
0011
0100
1000
0010
,
1010
0100
0001
0010
2002
0000
0000
0000
,
0000
0000
3003
0000
;

//---------------dance-single - ----------------
#NOTES:
     dance-single:
     :
     Challenge:
     14:
     0.629393,0.624962,0.556358,0.233069,0.432305,586.000000,512.000000,74.000000,31.000000,0.000000,0.000000,0.629393,0.624962,0.556358,0.233069,0.432305,586.000000,512.000000,74.000000,31.000000,0.000000,0.000000:
0000
0000
0000
0000
,
0000
0000
0000
0000
,
0210
0000
0000
0000
0320
0000
0000
0000
0130
0001
0000
1000
0010
0000
0100
0000
,
0102
0000
0000
0000
1003
0000
0000
0000
2010
0000
0000
0000
3001
0000
0001
0100
,
0010
0000
1010
0000
0000
0000
1010
0000
1000
0100
0000
0010
0000
0100
1000
0000
,
0001
0000
0101
0000
0000
0000
0101
0000
0001
0010
0000
0100
0000
0010
0001
0000
,
0100
0010
0100
0000
0010
0000
1000
0001
1000
0000
0000
0000
1010
0000
0000
0000
,
0011
0000
0000
0000
0101
0000
0000
0000
1100
0000
1000
0000
0010
0100
0000
0010
,
0000
0000
0110
0000
0000
0000
0110
0000
0100
0001
0000
0010
0000
0001
0100
0000
,
0010
0000
0110
0000
0000
0000
0110
0000
0010
1000
0000
0100
0000
1000
0010
0000
,
0100
0010
0100
0000
0001
0000
0010
0000
0100
0010
0100
0000
1000
0000
0010
0000
,
0100
1000
0100
0001
0011
0000
1100
0000
,
0100
0010
0100
0000
1000
0000
0010
0000
0100
0010
0100
0000
0001
0000
0010
0000
,
0100
0010
0100
0000
1000
0000
0001
0000
0101
0000
0000
0000
1010
0000
1000
0000
,
0100
0011
0000
0001
0010
1100
0000
1000
,
0010
0000
0110
0000
0000
0000
0100
0001
2000
0000
0000
0000
0002
0000
3003
0000
,
0001
0010
1000
0010
0001
0100
1000
0100
,
0001
0010
0001
0000
1000
0100
1000
0000
0010
0100
0000
0000
0100
0010
0000
0000
,
1000
0100
0001
0100
1000
0010
0001
0010
,
1000
0000
0100
0000
0010
0000
0001
0000
1000
0010
0000
0000
0100
0001
0000
0000
,
0011
0000
0000
0000
1100
0000
0000
0000
1001
0000
0010
0100
0010
0000
0100
0000
,
0001
0010
0001
0000
1000
0000
0010
0100
0010
0000
1000
0100
0000
0000
0000
0000
,
1100
0000
0000
0000
0011
0000
0000
0000
0110
0000
1000
0001
1000
0000
0010
0000
,
0220
0000
0000
0030
0000
0001
0001
0301
,
0011
0000
0100
1000
0100
0000
1000
0000
0000
0000
1010
0000
0100
0001
0100
0000
,
0010
0000
0100
0001
0100
0000
0010
0000
0000
0000
0100
0000
0001
0000
0010
0000
,
0011
0000
0000
1100
0000
1000
0010
0000
0100
0000
1000
0100
0000
0010
0100
0000
,
0101
0000
0000
0011
0000
0010
0100
0000
0010
0000
0100
1000
0100
0000
0010
0001
,
0010
0000
0001
0100
0010
0000
1000
0100
1000
0100
0010
0000
0001
0000
0100
0000
,
0110
0000
0000
0000
0010
0000
1000
0010
0000
0100
0001
0010
0100
0000
0010
0000
,
0011
0000
0001
0100
0001
0000
1000
0010
1000
0000
0100
0010
0100
0000
0010
0000
,
0001
0000
1000
0010
0100
0000
0020
0000
0000
0000
0000
0000
0130
0001
1000
0000
,
0100
0010
0100
0010
0100
0000
0000
0000
0110
0000
0010
0000
0100
1000
0000
0000
,
0001
0010
0001
0010
0100
0000
0010
0000
0001
0100
0000
0000
0010
1000
0000
0000
,
1100
0000
0100
0000
0010
0000
0001
0100
0010
0000
1000
0000
0100
0000
0010
0000
,
0011
2200
3300
0101
,
1020
0130
0201
0310
1200
0310
0021
0130
,
1000
0010
0000
0100
0001
0000
0010
0000
0100
0000
1000
0010
0100
0000
0001
0000
,
1001
2000
3200
0302
,
0023
0032
0203
2300
,
3010
0100
0001
0010
1100
0100
1000
0100
,
0011
0010
0001
0010
0200
0000
1300
0000
,
1010
0100
0010
0100
0101
0010
0100
0010
,
0110
0000
1000
0000
0001
0000
0100
0000
0010
1000
0001
0200
0020
0000
0330
0000
,
0110
0000
0000
0000
2002
0000
3003
0000
0001
0010
0001
0000
0100
0000
0010
0000
,
1000
0100
1000
0000
0010
0000
0100
0000
0001
1000
0001
0000
0100
0000
0010
0000
,
1000
0001
1000
0000
1010
0000
0010
0100
0001
0000
0011
0000
0000
0000
0010
0000
,
0100
1000
0000
0010
0000
0001
0010
0000
1000
0000
1100
0000
0000
0000
0100
0000
,
0010
0001
0000
0100
0000
1000
0100
0000
0001
0010
0001
0000
0010
0000
0100
1000
,
0100
1100
1010
0011
,
0101
0000
0100
0000
0010
0100
0000
0010
0000
0000
1010
0000
0000
0000
1100
0000
,
0100
0001
0000
0100
0000
1000
0010
0000
0100
0000
0101
0000
0000
0000
0011
0000
,
0010
1000
0000
0010
0000
0001
0100
0000
0010
1000
0100
0000
1000
0000
0001
0000
,
0010
0001
0100
0000
0010
0000
1000
0000
0100
0000
0010
0000
0001
0000
1000
0000
,
1010
0000
0000
0000
0101
0000
0000
0000
0001
0010
0100
0000
0010
0000
0001
0000
,
1000
0100
0010
0000
0100
0000
1000
0000
0010
0100
0001
0000
1000
0000
0100
0000
,
0011
0000
1100
0010
0100
0101
0000
0100
,
0010
0000
1010
0000
0000
0000
0010
0000
0100
0000
1001
0000
0000
0000
0100
0010
,
0200
0000
0020
0330
0100
0001
0010
1000
,
0001
0000
0100
0000
1000
0000
0010
0000
0100
0001
1000
0000
0010
1000
0001
0000
,
0010
0001
0000
0000
0100
1000
0000
0000
0010
0000
0100
0000
1000
0000
0001
0000
,
0010
0100
0001
1000
0100
0001
1000
0010
,
0001
0100
0000
0000
1000
0010
0000
0000
0100
0001
0100
0000
0001
0010
0001
0000
,
0100
0010
0100
0010
0100
0000
0001
0000
0010
0100
1000
0000
1100
0000
0100
0010
,
0001
0000
0100
0010
0000
0000
0000
0000
1000
0010
0100
0000
0001
0010
0100
0000
,
1000
0010
0100
0001
1000
0000
0100
0000
0220
0000
0000
0000
0000
0000
0000
0000
,
0000
0000
0330
0000
;

//---------------dance-double - ----------------
#NOTES:
     dance-double:
     :
     Hard:
     12:
     0.496211,0.499970,0.353362,0.210514,0.097738,462.000000,415.000000,47.000000,28.000000,0.000000,0.000000,0.496211,0.499970,0.353362,0.210514,0.097738,462.000000,415.000000,47.000000,28.000000,0.000000,0.000000:
// measure 0
00000000
00000000
00000000
00000000
,  // measure 1
00000000
00000000
00000000
00000000
,  // measure 2
00021000
00000010
00000000
00031000
,  // measure 3
00102000
00000000
00000000
00000000
00023000
00000000
00030100
00001000
,  // measure 4
00001001
00000000
00000001
00000000
00000100
00001000
00010000
00000000
,  // measure 5
00100000
00000000
10000000
00000000
01000000
00010000
00001000
00000000
,  // measure 6
00010000
00001000
00000010
00000001
00000100
00000000
00000110
00000000
,  // measure 7
00001001
00000000
00000110
00000000
00000010
00001000
00000100
00000010
,  // measure 8
00001000
00000000
00010000
00000000
01000000
10000000
00100000
00000000
,  // measure 9
00010000
00000000
00001000
00000000
00000010
00000001
00000100
00000000
,  // measure 10
00001000
00010000
00000010
00010000
00001000
01000000
00001000
00010000
,  // measure 11
00000100
00010000
00001000
00100000
00010000
00000000
01010000
01000000
,  // measure 12
00001000
00010000
00000100
00010000
00001000
00100000
00001000
00010000
,  // measure 13
00000010
00010000
00001000
00000100
00000010
00000000
00000110
00000100
,  // measure 14
00000001
00000010
00000000
00001000
00010000
01000000
00000000
10000000
,  // measure 15
00100000
00010000
00000000
00001000
00010000
00000000
00022000
00033000
,  // measure 16
00001000
00100000
00010000
01000000
00001000
00010000
00100000
01000000
,  // measure 17
00010000
00100000
01000000
10000000
10100000
00000000
01001000
00000000
,  // measure 18
00001000
00010000
00000010
00001000
00000100
00000010
00001000
00010000
,  // measure 19
00000100
00000010
00000001
00001000
00001100
00000000
00000011
00000000
,  // measure 20
00000001
00000100
00001000
00010000
00100000
00010000
00001000
00010000
,  // measure 21
00100000
10000000
01000000
00100000
00010000
10000000
01000000
00000000
,  // measure 22
00100000
01000000
10000000
00100000
00010000
00001000
00000100
00000001
,  // measure 23
00002002
00000000
00000000
00003003
,  // measure 24
00000010
00000000
00000100
00000010
00000100
00000000
00000001
00000000
00000000
00000000
00000010
00000000
00001000
00000000
00010000
00000000
,  // measure 25
01000000
00000000
10000000
00100000
10000000
00000000
00010000
00000000
00000000
00000000
00100000
00000000
01000000
00000000
10000000
00000000
,  // measure 26
00100000
00000000
00000000
01000000
00100000
00000000
01000000
00000000
00010000
00000000
00000000
00100000
00010000
00000000
00100000
00000000
,  // measure 27
00001000
00000000
00000000
00010000
00001000
00000000
00010000
00000000
00000100
00000000
00001000
00000000
00000001
00000010
00000001
00000000
,  // measure 28
00001000
00000000
00000100
00000010
00000100
00000000
00000010
00000000
00000001
00000000
00000100
00000000
00001000
00000000
00010000
00000000
,  // measure 29
00011000
00000000
00000000
00000000
00001000
01000000
00001000
00000000
00010000
00000000
00100000
00000000
10000000
00000000
10000000
00000000
,  // measure 30
10000000
00000000
01000000
00100000
01000000
00000000
00010000
00000000
00001000
00000000
00100000
00000000
01000000
00000000
00010000
00000000
,  // measure 31
00001000
00000000
00000010
00000000
00000001
00000000
00000200
00000000
00000000
00000000
00000000
00000000
00001300
00010000
00001000
00000000
,  // measure 32
00010000
00001000
01001000
00000000
00001000
00010000
00010010
00000000
,  // measure 33
00010000
00000000
00001000
00000000
00011000
00000000
00010000
00000000
00000100
00010000
00000000
00000000
00001000
01000000
00000000
00000000
,  // measure 34
01100000
00100000
10000000
01000000
00010000
00001000
00000010
00000100
,  // measure 35
00002000
00003002
00000000
00000013
,  // measure 36
00000101
00010010
01001000
10100000
,  // measure 37
10000000
01000000
00000000
01000000
10000000
00000000
00100000
00000000
00010000
00000000
00001000
00010000
00001000
00000000
00000100
00000000
,  // measure 38
00000001
00000021
00000230
00020300
,  // measure 39
00032000
00203000
02300000
23000000
,  // measure 40
30200000
00000000
01300000
00020000
00000000
00000000
00130000
00000000
,  // measure 41
00102000
00000000
00013000
00000200
00000000
00000000
00000310
00000000
,  // measure 42
00000012
00001003
00001200
00010300
,  // measure 43
00010000
00001000
00100000
01000000
10000000
00100000
00020000
00000000
,  // measure 44
00031000
00000000
00011000
00000000
00010000
00000100
00001000
00000010
,  // measure 45
00010000
00001000
00100000
00010000
01000000
00001000
00010000
00100000
,  // measure 46
10000000
00000000
01000000
00000000
00100000
00000000
00001000
00010000
00001000
00000000
00000010
00000000
00000000
00000000
00000010
00000000
,  // measure 47
00000001
00000100
00000000
00000010
00000000
00000000
00000100
00000000
00001000
00000000
00010000
00000000
00000000
00000000
00100000
00000000
,  // measure 48
10000000
01000000
00000000
00010000
00000000
00000000
01000000
00000000
10000000
00000000
01000000
00000000
00100000
00000000
00010000
00000000
,  // measure 49
01010000
00101000
00010010
00001100
,  // measure 50
00000100
00000000
00000010
00000000
00000001
00000100
00000000
00000010
00000000
00000000
00001010
00000000
00000000
00000000
00001000
00000000
,  // measure 51
00000100
00000010
00000000
00001000
00000000
00000000
00010000
00000000
00001000
00000000
00100000
00000000
00000000
00000000
01000000
00000000
,  // measure 52
10000000
00100000
00000000
01000000
00000000
00000000
10000000
00000000
01000000
00000000
00010000
00000000
00100000
00000000
01000000
00000000
,  // measure 53
00010000
00001000
00000100
00000001
00000010
00000100
00001000
00000010
,  // measure 54
00010010
00000000
00101000
00000000
00100000
01000000
10000000
00100000
,  // measure 55
00010000
00001000
00000100
00000001
00000010
00000100
00010000
00001000
,  // measure 56
01001000
00000000
00010100
00000100
00000010
00000001
00000000
00000100
,  // measure 57
00001000
00010000
00000000
00100000
10000000
01000000
00000000
00010000
,  // measure 58
00001000
00000000
00022000
00033000
00010000
00001000
00000010
00001000
,  // measure 59
00010000
00100000
00010000
00001000
00000010
00000001
00000100
00000010
,  // measure 60
00010010
00000000
01001000
00000000
00001000
00010000
00100000
00010000
,  // measure 61
00001000
00000010
00001000
00010000
00100000
10000000
00010000
00100000
,  // measure 62
00101000
00000000
00010100
00000000
00000100
00000010
00000001
00000100
,  // measure 63
00001010
00001000
00000100
00000010
00001000
00010000
00100000
10000000
,  // measure 64
01000000
00100000
00110000
00000000
11000000
01000000
00010000
00001000
,  // measure 65
00011000
00010000
00001000
00000100
00000202
00000000
00000000
00000000
,  // measure 66
00000000
00000000
00000303
00000000
;

//---------------dance-double - ----------------
#NOTES:
     dance-double:
     :
     Challenge:
     14:
     0.603616,0.624962,0.473656,0.218032,0.398472,562.000000,499.000000,63.000000,29.000000,0.000000,0.000000,0.603616,0.624962,0.473656,0.218032,0.398472,562.000000,499.000000,63.000000,29.000000,0.000000,0.000000:
// measure 0
00000000
00000000
00000000
00000000
,  // measure 1
00000000
00000000
00000000
00000000
,  // measure 2
01002000
00000000
00000000
00000000
00023000
00000000
00000000
00000000
00030010
00001000
00000000
00001000
00000100
00000000
00000010
00000000
,  // measure 3
00000012
00000000
00000000
00000000
00000103
00000000
00000000
00000000
00002010
00000000
00000000
00000000
00003100
00000000
00000100
00010000
,  // measure 4
00001000
00000000
00011000
00000000
00000000
00000000
00011000
00000000
00010000
01000000
00000000
10000000
00000000
01000000
00010000
00000000
,  // measure 5
00001000
00000000
00011000
00000000
00000000
00000000
00011000
00000000
00001000
00000100
00000000
00000001
00000000
00000100
00001000
00000000
,  // measure 6
00010000
00001000
00010000
00000000
00100000
00000000
10000000
01000000
00100000
00000000
00000000
00000000
00110000
00000000
00000000
00000000
,  // measure 7
00011000
00000000
00000000
00000000
00001100
00000000
00000000
00000000
00000110
00000000
00000010
00000000
00000001
00000100
00000000
00001000
,  // measure 8
00000000
00000000
01001000
00000000
00000000
00000000
01001000
00000000
01000000
00100000
00000000
00010000
00000000
00001000
00010000
00000000
,  // measure 9
00000010
00000000
00010010
00000000
00000000
00000000
00010010
00000000
00000010
00000100
00000000
00001000
00000000
00010000
00001000
00000000
,  // measure 10
00100000
00010000
00100000
00000000
01000000
00000000
10000000
00000000
00100000
00000000
00010000
00000000
00001000
00000000
00100000
00000000
,  // measure 11
01000000
00010000
00001000
00000010
00000011
00000000
00010100
00000000
,  // measure 12
00000100
00001000
00000100
00000000
00000010
00000000
00000001
00000000
00000100
00000000
00001000
00000000
00010000
00000000
00000100
00000000
,  // measure 13
00000010
00001000
00010000
01000000
11000000
00000000
00101000
00001000
,  // measure 14
00010000
00010010
00000000
00010000
00001000
01001000
00000000
00001000
,  // measure 15
00010000
00000000
00010100
00000000
00000000
00000000
00010000
00001000
00200000
00000000
00000000
00000000
02000000
00000000
03300000
00000000
,  // measure 16
10000000
00100000
00010000
00001000
00000100
00000001
00000010
00000100
,  // measure 17
00001000
00000010
00001000
00000000
00000001
00000100
00000001
00000000
00000010
00001000
00000000
00000000
00010000
00100000
00000000
00000000
,  // measure 18
10000000
01000000
00010000
00001000
00000010
00000001
00000100
00001000
,  // measure 19
00010000
00000000
00100000
00000000
10000000
00000000
01000000
00000000
00100000
00001000
00000000
00000000
00010000
00000010
00000000
00000000
,  // measure 20
00000110
00000000
00000000
00000000
00001010
00000000
00000000
00000000
00000101
00000000
00000001
00000010
00000001
00000000
00001000
00000000
,  // measure 21
00000100
00000010
00000100
00000000
00001000
00000000
00000001
00000010
00000001
00000000
00001000
00000010
00000000
00000000
00000000
00000000
,  // measure 22
00010010
00000000
00000000
00000000
00101000
00000000
00000000
00000000
01100000
00000000
01000000
10000000
01000000
00000000
00010000
00000000
,  // measure 23
00022000
00000000
00000000
00030000
00000000
00003100
00000001
00000010
,  // measure 24
00000110
00000000
00000100
00001000
00000001
00000000
00000100
00000000
00000000
00000000
00001000
00000000
00010000
00001000
00100000
00000000
,  // measure 25
00010000
00000000
00100000
01000000
00010000
00000000
00001000
00000000
00000000
00000000
00010000
00000000
01000000
00000000
10000000
00000000
,  // measure 26
10100000
00000000
00000000
01100000
00000000
01000000
00010000
00000000
00100000
00000000
01000000
00010000
00000000
00001000
00010000
00000000
,  // measure 27
00010100
00000000
00000000
00001100
00000000
00000100
00000010
00000000
00000001
00000000
00000100
00001000
00010000
00000000
00001000
00010000
,  // measure 28
00100000
00000000
10000000
01000000
10000000
00000000
01000000
00100000
01000000
00100000
01000000
00000000
00010000
00000000
00001000
00000000
,  // measure 29
00011000
00000000
00000000
00000000
00010000
00000000
00000100
00001000
00000000
00000100
00000010
00000100
00000010
00000000
00000001
00000000
,  // measure 30
00000101
00000000
00000100
00000010
00001000
00000000
00000100
00000010
00001000
00000000
00010000
00001000
00010000
00000000
00100000
00000000
,  // measure 31
10000000
00000000
01000000
00100000
01000000
00000000
00020000
00000000
00000000
00000000
00000000
00000000
00031000
00000100
00000001
00000000
,  // measure 32
00000010
00000100
00000010
00000100
00000010
00000000
00000000
00000000
00000110
00000000
00000100
00000000
00000010
00001000
00000000
00000000
,  // measure 33
00010000
00001000
00010000
00000000
01000000
00000000
10000000
00000000
00100000
00010000
00000000
00000000
00001000
00000010
00000000
00000000
,  // measure 34
00000011
00000000
00000001
00000000
00001000
00000000
00000010
00010000
00001000
00000000
00100000
00000000
01000000
00000000
10000000
00000000
,  // measure 35
10100000
02020000
03030000
00011000
,  // measure 36
00002000
00103000
00020000
00030010
00002000
01003000
00020000
00030100
,  // measure 37
00000100
00000010
00000000
00000001
00000100
00000000
00001000
00000000
00010000
00000000
00100000
10000000
01000000
00000000
00100000
00000000
,  // measure 38
01100000
20000000
32000000
03200000
,  // measure 39
00320000
00032000
00003020
00000230
,  // measure 40
00000301
00000010
00001000
00010000
00001000
00000010
00001000
00010000
,  // measure 41
00100000
00010000
00001000
00010000
00200000
00000000
10300000
00000000
,  // measure 42
10000000
01000000
00010000
00001000
00010000
01000000
00010000
00001000
,  // measure 43
00000100
00000000
00000001
00000000
00000010
00000000
00001000
00000000
00010000
00001000
00010000
00002000
00020000
00000000
00033000
00000000
,  // measure 44
00011000
00000000
00000000
00000000
00100010
00000000
00000000
00000000
00100000
00001000
00010000
00000000
00100000
00000000
10000000
00000000
,  // measure 45
01000000
00100000
01000000
00000000
00010000
00000000
00001000
00000000
00000010
00000100
00000010
00000000
00000001
00000000
00000100
00000000
,  // measure 46
00001000
00010000
00001000
00000000
00011000
00000000
00010000
01000000
10000000
00000000
00100000
00000000
00000000
00000000
10000000
00000000
,  // measure 47
01000000
00010000
00000000
00001000
00000000
00000100
00000010
00000000
00000100
00000000
00000101
00000000
00000000
00000000
00000001
00000000
,  // measure 48
00000010
00001000
00000000
00010000
00000000
00100000
01000000
00000000
00100000
10000000
00100000
00000000
00010000
00000000
00001000
00010000
,  // measure 49
00001000
01001000
00010100
00101000
,  // measure 50
00010010
00000000
00000010
00000000
00001000
00000100
00000000
00000010
00000000
00000000
00000011
00000000
00000000
00000000
00001100
00000000
,  // measure 51
00000100
00010000
00000000
00001000
00000000
00100000
01000000
00000000
10000000
00000000
10100000
00000000
00000000
00000000
00110000
00000000
,  // measure 52
00010000
00001000
00000000
00100000
00000000
01000000
00010000
00000000
00001000
00010000
00001000
00000000
00000100
00000000
00000001
00000000
,  // measure 53
00000010
00000100
00001000
00010000
01000000
00100000
10000000
01000000
,  // measure 54
01100000
00000000
00000000
00000000
00011000
00000000
00000000
00000000
00010000
00001000
00010000
00000000
01000000
00000000
10000000
00000000
,  // measure 55
00100000
01000000
00010000
00001000
00000100
00000010
00000001
00000100
,  // measure 56
00000110
00000000
00011000
00001000
00100000
01100000
00000000
00010000
,  // measure 57
00000100
00000000
00000110
00000000
00000000
00000000
00001000
00000000
00010000
00000000
00011000
00000000
00000000
00000000
00001000
00010000
,  // measure 58
00000200
00000000
00000020
00000330
00000001
00000100
00010000
01000000
,  // measure 59
00100000
00000000
10000000
00000000
01000000
00000000
00010000
00000000
00001000
00010000
00001000
00000000
00010000
00001000
00010000
00000000
,  // measure 60
00001000
00100000
00000000
00000000
00010000
01000000
00000000
00000000
11000000
00000000
01000000
00000000
00001000
00000000
00000100
00000000
,  // measure 61
00000010
00000001
00000100
00001000
01000000
00010000
00100000
01000000
,  // measure 62
10000000
00100000
00000000
00000000
00010000
00001000
00000000
00000000
00000100
00000010
00000000
00000000
00000100
00000001
00000000
00000000
,  // measure 63
00000100
00000010
00000100
00000000
00000001
00000000
00000010
00000000
00001000
00010000
00001000
00000000
00100000
00000000
01000000
10000000
,  // measure 64
01000000
00000000
00100000
00001000
00000000
00000000
00000000
00000000
01000000
00010000
00000000
00000000
00001000
00000100
00000000
00000000
,  // measure 65
00000010
00000100
00000010
00000000
00001000
00000000
01000000
00000000
02200000
00000000
00000000
00000000
00000000
00000000
00000000
00000000
,  // measure 66
00000000
00000000
03300000
00000000
;

//---------------dance-double - ----------------
#NOTES:
     dance-double:
     :
     Easy:
     7:
     0.229847,0.249985,0.097738,0.112775,0.000000,214.000000,201.000000,13.000000,15.000000,0.000000,0.000000,0.229847,0.249985,0.097738,0.112775,0.000000,214.000000,201.000000,13.000000,15.000000,0.000000,0.000000:
// measure 0
00000000
00000000
00000000
00000000
,  // measure 1
00000000
00000000
00000000
00000000
,  // measure 2
00002000
00000000
00000000
00003000
,  // measure 3
00020000
00030000
00002000
00013000
,  // measure 4
00010000
00000010
00010000
00000000
,  // measure 5
00001000
01000000
00001000
00000000
,  // measure 6
00010000
00000100
00010000
00010000
,  // measure 7
00001000
00100000
00001000
00001000
,  // measure 8
00010000
00000000
00001000
00000000
,  // measure 9
00010000
00000000
00001000
00000000
,  // measure 10
00010000
00001000
00000010
00001000
,  // measure 11
00010000
00001000
00000010
00000000
,  // measure 12
00001000
00010000
00100000
00010000
,  // measure 13
00001000
00010000
00100000
00000000
,  // measure 14
00010000
00010000
00000000
00000000
00001000
00001000
00000000
00000000
,  // measure 15
00010000
00010000
00000000
00000000
00022000
00000000
00033000
00000000
,  // measure 16
00001000
00100000
00010000
01000000
,  // measure 17
00001000
00100000
00001000
00001000
,  // measure 18
00010000
00000010
00001000
00000100
,  // measure 19
00010000
00000010
00010000
00010000
,  // measure 20
00001000
00010000
01000000
00000000
,  // measure 21
00010000
00001000
00000010
00000000
,  // measure 22
00001000
00010000
00001000
00010000
,  // measure 23
00022000
00000000
00000000
00033000
,  // measure 24
00001000
00100000
00000000
00100000
,  // measure 25
01000000
00010000
00000000
00010000
,  // measure 26
00001000
00000000
00000010
00000000
,  // measure 27
00000001
00000100
00001000
00011000
,  // measure 28
00010000
00100000
10000000
00000000
,  // measure 29
01000000
00010000
00001000
00000000
,  // measure 30
00000010
00000001
00000100
00001000
,  // measure 31
00022000
00000000
00033000
00011000
,  // measure 32
01000000
00000000
00001000
00000000
,  // measure 33
00010000
00000000
00000010
00000110
,  // measure 34
00000001
00000000
00000100
00000000
,  // measure 35
00001000
00000000
00010000
00000000
,  // measure 36
00100000
10000000
01000000
00100000
,  // measure 37
01000000
00010000
00011000
00001000
,  // measure 38
00000010
00000000
00000001
00000000
,  // measure 39
00000100
00000000
00001000
00000000
,  // measure 40
00010000
00000000
00100000
00000000
,  // measure 41
10000000
00000000
01000000
00000000
,  // measure 42
00010000
00000000
00001000
00000000
,  // measure 43
00010000
00000000
00022000
00033000
,  // measure 44
00011000
00000000
00010000
00001000
,  // measure 45
00000100
00000010
00001000
00000100
,  // measure 46
00000010
00001001
00001000
00000010
,  // measure 47
00010000
00000000
00001000
00100000
,  // measure 48
00010000
00000000
01000000
00001000
,  // measure 49
00010000
00000100
00001000
00000010
,  // measure 50
00010000
00001000
00011000
00000000
,  // measure 51
00010000
01000000
10000000
00000000
,  // measure 52
01000000
00010000
00001000
00100000
,  // measure 53
01000000
00010000
00001000
00000010
,  // measure 54
00000001
00000000
00000010
00001000
,  // measure 55
00010000
00000100
00000010
00001000
,  // measure 56
00010000
00000000
01000000
00000000
10000000
10000000
00000000
00000000
,  // measure 57
00010000
00010000
00000000
00000000
10000000
10000000
00000000
00000000
,  // measure 58
20020000
30030000
00100000
01000000
,  // measure 59
00100000
00010000
00001000
00010000
,  // measure 60
00000010
00000010
00000100
00000010
,  // measure 61
00000100
00001000
00010000
00001000
,  // measure 62
01000000
01000000
00100000
00010000
,  // measure 63
00001000
00000000
00000010
00001000
,  // measure 64
00010000
00000000
01000000
00010000
,  // measure 65
00001000
00000100
00000220
00000000
,  // measure 66
00000000
00000000
00000330
00000000
;

//---------------dance-double - ----------------
#NOTES:
     dance-double:
     :
     Medium:
     10:
     0.379139,0.449973,0.398472,0.135330,0.015037,353.000000,300.000000,53.000000,18.000000,0.000000,0.000000,0.379139,0.449973,0.398472,0.135330,0.015037,353.000000,300.000000,53.000000,18.000000,0.000000,0.000000:
// measure 0
00000000
00000000
00000000
00000000
,  // measure 1
00000000
00000000
00000000
00000000
,  // measure 2
00002000
00010000
00000000
00013000
,  // measure 3
00020000
00000000
00032000
00013000
,  // measure 4
00011000
00001000
01000000
00001000
,  // measure 5
00011000
00010000
00000010
00010000
,  // measure 6
00001000
00010000
00001000
00000000
00010000
00000000
00011000
00000000
,  // measure 7
00001000
00000000
00011000
00000000
00010000
00001000
00010000
00001000
,  // measure 8
00010000
00000100
00010000
00011000
,  // measure 9
00001000
00100000
00001000
00011000
,  // measure 10
00010000
00001000
01000000
00000000
00001000
00010000
00000010
00000000
,  // measure 11
00010000
00001000
00010000
00001000
00100000
00000000
00101000
00000000
,  // measure 12
00001000
00010000
00000100
00000000
00010000
00001000
00100000
00000000
,  // measure 13
00001000
00010000
00001000
00010000
00000010
00000000
00010010
00000000
,  // measure 14
00010000
00001000
00000000
00000000
00001000
00010000
00000000
00000000
,  // measure 15
00010000
00001000
00000000
00000000
00002000
00000000
00013000
00000000
,  // measure 16
00010000
01000000
10000000
00100000
,  // measure 17
00010000
00001000
00010000
00001000
00010000
00000000
00011000
00000000
,  // measure 18
00001000
00000100
00000001
00000010
,  // measure 19
00001000
00010000
00010010
01001000
,  // measure 20
00001000
00010000
00100000
10000000
,  // measure 21
01000000
00100000
00001000
00010000
,  // measure 22
00000100
00000010
00000001
00000100
,  // measure 23
00000220
00000000
00000000
00000330
,  // measure 24
00000001
00000100
00001000
00000000
00010000
00000000
00001000
00000000
,  // measure 25
00010000
00100000
10000000
00000000
01000000
00000000
00010000
00000000
,  // measure 26
00001000
00000000
00000000
00100000
00000000
00000000
00001000
00000000
00010000
00000000
00000000
00000010
00000000
00000000
00010000
00000000
,  // measure 27
00001000
00000000
00000000
01000000
00000000
00000000
00001000
00000000
00010000
00000000
00000100
00000000
00001100
00000000
00000000
00000000
,  // measure 28
00001000
00000100
00000010
00000000
00000001
00000100
00001000
00000000
,  // measure 29
00011000
00000000
00010000
00100000
10000000
00000000
00010000
00000000
,  // measure 30
10010000
10000000
01000000
00100000
,  // measure 31
00001000
00010000
00001000
00010000
00000000
00000000
00011000
00000000
,  // measure 32
00002000
00003000
00020000
00030000
,  // measure 33
00000100
00000010
00000011
00001100
,  // measure 34
00000100
00010000
00001000
00000000
01000000
00001000
00010000
00000000
,  // measure 35
00200000
20300000
00000000
31000000
,  // measure 36
01100000
00101000
00010010
00000110
,  // measure 37
00000100
00000000
00000000
00000001
00000000
00000000
00000010
00000000
00000001
00000000
00000010
00000000
00000100
00000000
00001000
00000000
,  // measure 38
00000100
00020100
00031000
01002000
,  // measure 39
00013000
00020010
00031000
00102000
,  // measure 40
00013000
00000000
00000000
00010000
00100000
00000000
00000000
00100000
,  // measure 41
10000000
00000000
00000000
10000000
01000000
00000000
00000000
01000000
,  // measure 42
00010000
00001000
00000010
00000001
,  // measure 43
00000100
00000010
00000100
00000010
00020000
00000000
00032000
00000000
,  // measure 44
00013000
00011000
01001000
00010010
,  // measure 45
01001000
00010010
00101000
00010100
,  // measure 46
00101000
00000000
00010100
00000000
00000100
00000010
00000001
00000000
,  // measure 47
00001000
00000100
00000010
00000000
00001000
00010000
01000000
00000000
,  // measure 48
00010000
00001000
00000100
00000000
00001000
00010000
00100000
01000000
,  // measure 49
00100000
10100000
01000000
01010000
,  // measure 50
00010000
00100000
01000000
00010000
00001000
00000010
00000100
00000000
,  // measure 51
00000010
00000001
00000100
00000000
00001000
00010000
00100000
00000000
,  // measure 52
10000000
01000000
00010000
00000000
00001000
00000000
00101000
00000000
,  // measure 53
00010000
00000000
00010010
00000000
00001000
00010000
00001000
00000000
,  // measure 54
00010000
00011000
00001000
01001000
,  // measure 55
00010000
00000000
00010100
00000000
00001000
00010000
00001000
00000000
,  // measure 56
00000100
00000000
00000101
00000000
00000001
00000010
00000000
00000000
,  // measure 57
00001000
00010000
00000000
00000000
01000000
10000000
00000000
00000000
,  // measure 58
10100000
00000000
01010000
00000000
00010000
00100000
10000000
00000000
,  // measure 59
00100000
00000000
00010000
00000000
00100000
00001000
00010000
00000000
,  // measure 60
00000010
00000000
00001010
00000000
00001000
00000100
00000001
00000000
,  // measure 61
00000100
00000000
00001000
00000000
00000100
00010000
00001000
00000000
,  // measure 62
01001000
00010100
00000110
00001001
,  // measure 63
00000001
00000100
00001000
00000000
00010000
00100000
10000000
00000000
,  // measure 64
01000000
00100000
00010000
00000000
00011000
00000000
00001010
00000000
,  // measure 65
00000001
00000100
00001000
00010000
00022000
00000000
00000000
00000000
,  // measure 66
00000000
00000000
00033000
00000000
;
