#VERSION:0.83;
#TITLE:Galaxy Collapse;
#SUBTITLE:;
#ARTIST:黒皇帝;
#TITLETRANSLIT:;
#SUBTITLETRANSLIT:;
#ARTISTTRANSLIT:Kurokotei;
#GENRE:VARIETY;
#ORIGIN:;
#CREDIT:MUINELIM;
#BANNER:Galaxy Collapse.png;
#BACKGROUND:Galaxy Collapse-bg.png;
#PREVIEWVID:;
#JACKET:Galaxy Collapse-jacket.png;
#CDIMAGE:;
#DISCIMAGE:;
#LYRICSPATH:;
#CDTITLE:;
#MUSIC:Galaxy Collapse.mp3;
#OFFSET:-0.080000;
#SAMPLESTART:87.781998;
#SAMPLELENGTH:12.000000;
#SELECTABLE:YES;
#DISPLAYBPM:135.000000:520.000000;
#BPMS:0.000=67.500,
8.000=135.000,
24.000=270.000,
217.000=150.003,
247.000=165.000,
251.000=195.000,
255.000=225.000,
259.000=255.000,
263.000=285.000,
267.000=315.000,
271.000=345.000,
275.000=375.000,
279.000=405.000,
283.000=435.000,
287.000=465.000,
291.000=495.000,
295.000=520.000,
311.000=300.000,
317.000=150.000,
318.000=75.000,
319.000=300.000,
384.000=320.000,
448.000=80.000;
#STOPS:24.000=3.333,
151.000=0.222,
216.000=0.222,
319.000=0.600;
#DELAYS:;
#WARPS:;
#TIMESIGNATURES:0.000=4=4;
#TICKCOUNTS:0.000=4;
#COMBOS:0.000=1;
#SPEEDS:0.000=1.000=0.000=0;
#SCROLLS:0.000=1.000;
#FAKES:;
#LABELS:0.000=Song Start;
#BGCHANGES:;
#KEYSOUNDS:;
#ATTACKS:
;

//---------------dance-single - ----------------
#NOTEDATA:;
#CHARTNAME:;
#STEPSTYPE:dance-single;
#DESCRIPTION:;
#CHARTSTYLE:;
#DIFFICULTY:Beginner;
#METER:4;
#RADARVALUES:0.125564,0.286286,0.025113,0.025113,0.000000,105.000000,102.000000,3.000000,3.000000,0.000000,0.000000,0.000000,0.000000,0.000000,0.125564,0.286286,0.025113,0.025113,0.000000,105.000000,102.000000,3.000000,3.000000,0.000000,0.000000,0.000000,0.000000,0.000000;
#CREDIT:;
#DISPLAYBPM:*;
#NOTES:
0000
0000
0000
0000
,
0000
0000
0000
0000
,
1000
0000
1000
0000
,
0001
0000
0001
0000
,
1000
0000
1000
0000
,
0001
0000
0001
0000
,
1001
1000
0000
0000
,
0000
0100
0000
0000
,
0000
0010
0000
0000
,
0000
0001
0000
0000
,
0000
0001
0000
0000
,
0000
0010
0000
0000
,
0000
0100
0000
0000
,
0000
1000
0000
0000
,
0000
1000
0000
0000
,
0000
0010
0000
0000
,
0000
0100
0000
0000
,
0000
0001
0000
0000
,
0000
0001
0000
0000
,
0000
0100
0000
0000
,
0000
0010
0000
0000
,
0000
1000
0000
0000
,
0000
0001
0000
0000
,
0000
0001
0000
0000
,
0000
0001
0000
0000
,
0000
0001
0000
0000
,
0000
1000
0000
0000
,
0000
1000
0000
0000
,
0000
1000
0000
0000
,
0000
1000
0000
0000
,
0000
0010
0000
0000
,
0000
0010
0000
0000
,
0000
0010
0000
0000
,
0000
0010
0000
0000
,
0000
0100
0000
0000
,
0000
0100
0000
0000
,
0000
0100
0000
0000
,
0000
0100
0000
0100
,
0100
0000
0000
0000
,
0010
0000
0000
0000
,
1000
0000
0000
0000
,
0001
0000
0000
0000
,
0100
0000
0000
0000
,
0010
0000
0000
0000
,
1000
0000
0000
0000
,
0001
0000
0000
0000
,
0010
0000
0000
0000
,
0100
0000
0000
0000
,
1000
0000
0000
0000
,
0001
0000
0000
0000
,
0010
0000
0000
0000
,
0100
0000
0000
0000
,
1000
0000
0000
0000
,
0001
0000
0000
0000
,
1001
0000
0000
0000
,
0000
0000
0000
1000
,
0000
1000
0000
1000
,
0000
0000
0000
0001
,
0000
0001
0000
0001
,
0000
0000
0000
0100
,
0000
0100
0000
0100
,
0000
0000
0000
0020
,
0000
0000
0000
0000
,
0000
0000
0000
0000
,
0000
0000
0000
0000
,
0000
0000
0000
0000
,
0000
0000
0000
0000
,
0000
0000
0000
0000
,
0000
0000
0000
0000
,
0000
0000
0000
0000
,
0000
0000
0000
0000
,
0000
0000
0000
0000
,
0000
0000
0000
0000
,
0000
0000
0000
0000
,
0000
0000
0000
0000
,
0000
0000
0000
0000
,
0000
0000
0000
0000
,
0000
0000
0000
0030
,
0000
0000
0000
0000
,
0000
0000
0000
0000
,
1000
0000
0000
0000
,
1000
0000
0000
0000
,
0010
0000
0000
0000
,
0010
0000
0000
0000
,
0100
0000
0000
0000
,
0100
0000
0000
0000
,
0001
0000
0000
0000
,
0001
0000
0000
0000
,
1000
0000
0000
0000
,
1000
0000
0000
0000
,
0100
0000
0000
0000
,
0100
0000
0000
0000
,
0010
0000
0000
0000
,
0010
0000
0000
0000
,
0001
0000
0000
0000
,
0001
0000
0000
0000
,
1000
0000
0000
0000
,
0010
0000
0000
0000
,
0100
0000
0000
0000
,
0001
0000
0000
0000
,
0010
0000
0000
0000
,
0100
0000
0000
0000
,
1000
0000
0000
0000
,
0010
0000
0000
0000
,
0100
0000
0000
0000
,
0001
0000
0000
0000
,
0010
0000
0000
0000
,
1000
0000
0000
0000
,
0100
0000
0000
0000
,
1000
0000
0000
0000
,
0010
0000
0000
0000
,
0001
0000
0000
0000
,
2002
0000
0000
0000
,
0000
0000
0000
0000
,
3003
0000
0000
0000
;

//---------------dance-single - ----------------
#NOTEDATA:;
#CHARTNAME:;
#STEPSTYPE:dance-single;
#DESCRIPTION:;
#CHARTSTYLE:;
#DIFFICULTY:Easy;
#METER:9;
#RADARVALUES:0.304941,0.477143,0.050226,0.133935,0.000000,255.000000,249.000000,6.000000,16.000000,0.000000,0.000000,0.000000,0.000000,0.000000,0.304941,0.477143,0.050226,0.133935,0.000000,255.000000,249.000000,6.000000,16.000000,0.000000,0.000000,0.000000,0.000000,0.000000;
#CREDIT:;
#DISPLAYBPM:*;
#NOTES:
0000
0000
0000
0000
,
0000
0000
0000
0000
,
1000
1000
0001
0001
,
0100
0100
0010
0010
,
1000
1000
0100
0100
,
0010
0010
0001
0001
,
1001
1000
0000
0100
,
0000
1000
0000
0001
,
0000
1000
0000
0100
,
0000
1000
0000
0001
,
0001
0001
0000
0100
,
0000
0001
0000
1000
,
0000
0001
0000
0100
,
0000
0001
0001
0002
,
0003
1000
0000
0010
,
0000
0100
0000
0001
,
0000
0010
0000
0100
,
0000
1000
0000
0010
,
0010
0010
0000
0100
,
0000
0010
0000
1000
,
0000
0100
0000
0010
,
0000
0001
0001
1000
,
1000
0001
0000
0100
,
0000
0010
0000
1000
,
0000
0001
0000
0100
,
0000
0010
0100
0020
,
0030
1000
0000
0100
,
0000
0010
0000
0001
,
0000
1000
0000
0100
,
0000
0010
0100
0020
,
0030
0001
0000
0100
,
0000
0010
0000
1000
,
0000
0001
0000
0010
,
0000
0100
0010
0200
,
0300
1000
0000
0010
,
0000
0100
0000
0001
,
0000
1000
0001
1000
,
0001
0100
0010
0100
,
0110
0000
0010
0000
,
1000
0000
0001
0100
,
0010
0000
1000
0000
,
0001
0000
0100
0010
,
1000
0000
0001
0000
,
0100
0000
0010
1000
,
0001
0000
0100
0000
,
0001
1000
0020
0030
,
0100
0000
0001
0010
,
0100
0000
0010
0100
,
1000
0000
1000
0010
,
0100
0000
0010
0100
,
0001
0000
1000
0001
,
0100
0000
0001
1000
,
0010
0000
0100
0000
,
0010
1000
0001
0100
,
0110
1000
0100
0000
,
0100
0000
0100
0001
,
1000
0010
0001
0100
,
1000
0001
0010
2000
,
3000
0100
0020
0030
,
0001
2000
3000
0020
,
0030
0200
0300
0001
,
1000
1001
0000
0220
,
0000
0000
0000
0000
,
0000
0000
0000
0000
,
0000
0000
0000
0000
,
0000
0000
0000
0000
,
0000
0000
0000
0000
,
0000
0000
0000
0000
,
0000
0000
0000
0000
,
0000
0000
0000
0000
,
0000
0000
0000
0000
,
0000
0000
0000
0000
,
0000
0000
0000
0000
,
0000
0000
0000
0000
,
0000
0000
0000
0000
,
0000
0000
0000
0000
,
0000
0000
0000
0000
,
0000
0000
0000
0330
,
0000
0000
0000
0000
,
0000
0000
0000
0000
,
1000
0000
1000
0000
,
0100
1000
0001
0000
,
0010
0000
0010
0000
,
0001
0100
0010
0000
,
1000
0000
1000
0000
,
0100
0010
0001
0000
,
0100
0000
0100
0000
,
0010
1000
0002
0003
,
0010
0000
0010
0000
,
0100
1000
0001
0000
,
0100
0000
0100
0000
,
0010
1000
0100
0000
,
0010
0000
0010
0000
,
0001
1000
0010
0000
,
0100
0000
0100
0000
,
0001
1000
0001
1000
,
0010
0100
0010
0000
,
1000
0000
0001
0000
,
0100
0010
0100
0000
,
0001
0000
1000
0000
,
0100
0010
0100
0000
,
1000
0000
0001
0000
,
0010
0100
0010
0000
,
0001
1000
0002
0003
,
1000
0010
1000
0010
,
1000
0000
0100
0000
,
0010
0001
0010
0001
,
0010
0000
0100
0000
,
1000
0001
1000
0001
,
0010
0000
0100
0000
,
1000
0010
1000
0010
,
0100
0001
0100
0001
,
2002
0000
0000
0000
,
0000
0000
0000
0000
,
3003
0000
0000
0000
;

//---------------dance-single - ----------------
#NOTEDATA:;
#CHARTNAME:;
#STEPSTYPE:dance-single;
#DESCRIPTION:;
#CHARTSTYLE:;
#DIFFICULTY:Medium;
#METER:13;
#RADARVALUES:0.575203,0.858858,0.301354,0.309725,0.008371,481.000000,445.000000,36.000000,37.000000,0.000000,0.000000,0.000000,0.000000,0.000000,0.575203,0.858858,0.301354,0.309725,0.008371,481.000000,445.000000,36.000000,37.000000,0.000000,0.000000,0.000000,0.000000,0.000000;
#CREDIT:;
#DISPLAYBPM:*;
#NOTES:
0000
0000
0000
0000
,
0000
0000
0000
0000
,
1000
0100
1000
0100
0010
0001
0010
0001
,
1000
0010
1000
0010
0100
0001
0100
0001
,
0010
0100
0010
0100
1000
0001
1000
0001
,
0010
1000
0010
1000
0001
0100
0001
0100
,
1001
1000
0010
1000
,
0100
0010
0100
1000
,
0000
0001
0100
0001
,
0010
0100
0010
0001
,
0000
1000
0100
1000
,
0010
0001
0010
1000
,
0000
0001
0010
0001
,
0100
1000
0100
0002
,
1003
1000
0100
1000
,
0010
0010
0100
0001
,
0010
0001
0100
0001
,
0010
0010
0100
1000
,
0010
1000
0100
0010
,
0001
0001
1000
0010
,
0100
0010
0010
0100
,
0100
0001
1000
2002
,
3003
0101
0100
0010
,
1000
1010
0010
0100
,
0001
0011
0010
0100
,
1000
1100
0100
0022
,
0033
1100
0100
0010
,
0001
0011
0010
0100
,
1000
1010
0010
0100
,
0001
0101
0100
2020
,
3030
1010
1000
1100
,
0100
0110
0010
0011
,
0001
0101
0100
0110
,
0010
1010
1000
2002
,
3003
0011
0100
1100
,
1000
1010
0100
0101
,
0001
1001
0100
0110
,
0010
0002
2003
3001
,
0001
0010
0100
1000
,
0010
0000
0100
0000
0010
0000
1000
0001
,
1000
0100
0010
0001
,
0100
0000
0010
0000
0100
0000
0001
1000
,
0001
0010
0100
1000
,
0010
0000
0100
0000
0001
0000
1000
0001
,
1000
0100
0010
0001
,
0100
0010
0100
0000
2002
0000
3003
0000
,
1000
0010
1000
0000
0100
0000
0010
0000
,
0100
0000
1000
0000
1000
0000
0001
0100
,
0001
0010
0100
0010
,
0001
0000
0010
0000
0010
0000
0100
1000
,
0100
1000
0010
0100
,
0001
0000
1000
0000
0100
0000
0010
0001
,
0010
0000
0001
0100
0001
0000
1000
0010
,
1000
0001
2002
3003
,
1001
0020
1030
0200
,
0301
0000
0020
0000
1030
0100
0010
0001
,
0100
0010
1000
0001
0010
0100
2000
0000
,
3020
0230
0302
2000
,
3003
0000
1000
0001
0010
0200
0000
0000
,
1300
0000
0010
0000
0100
0000
0001
0000
0000
0000
0000
0000
1000
0000
0000
0100
0000
0000
0020
0000
0000
0000
0000
0000
,
0000
0032
0000
0000
1003
0010
0110
0000
,
0101
2020
3030
1000
,
0000
0000
0000
0100
,
0000
0000
0000
0010
,
0000
0000
0000
0001
,
0000
0000
0000
0010
,
0000
0000
0000
0100
,
0000
0000
0000
1000
,
0000
0000
0000
0100
,
0000
0000
0000
0010
,
0000
0000
0000
0001
,
0000
0000
0000
0010
,
0000
0000
0000
0100
,
0000
0000
0000
1000
,
0000
0001
0000
1000
,
0000
0001
0000
1000
,
0001
1000
0001
1000
,
0001
1000
0001
2002
,
0000
0000
0000
0000
,
0000
0000
0000
3003
,
1000
0010
0100
0001
,
1000
0000
0100
0010
0000
0100
0010
0000
,
0001
0100
0010
1000
,
0001
0000
0010
0100
0000
0010
0100
0000
,
1000
0010
0001
0010
,
1000
0000
0100
0010
0000
0100
0010
0000
,
0001
0000
0100
0010
0000
0100
0010
0000
,
1000
0001
2002
3003
,
1000
0010
0100
1000
,
0100
0000
0001
0010
0000
0100
0010
0000
,
0001
0100
0010
0001
,
0010
0000
1000
0100
0000
0010
0100
0000
,
1000
0010
0001
0010
,
1000
0100
0001
0100
,
1000
0010
1000
0000
0100
0000
0010
0000
,
0001
0100
0001
0100
0002
0000
0003
0000
,
1000
0100
1000
0000
0010
0000
0100
0000
,
0001
0000
0010
0001
0000
0001
0100
0000
,
0001
0010
0001
0000
0100
0000
0010
0000
,
1000
0000
0100
1000
0000
1000
0010
0000
,
0100
0010
0100
0000
0001
0000
0010
0000
,
0100
0000
1000
0010
0000
0100
0001
0000
,
0010
0000
0100
1000
0000
0001
0010
0000
,
0100
0010
0100
0010
2002
0000
3003
0000
,
1000
0010
0100
0000
0001
0000
1000
0010
,
0100
0000
0001
0010
0000
1000
0100
0000
,
0001
0010
0100
0000
1000
0000
0001
0010
,
0100
0000
1000
0010
0000
0001
0100
0000
,
1000
0001
0100
0000
0010
0000
1000
0000
,
0001
1000
0010
0000
0100
0000
0001
0000
,
1000
0100
0010
0000
0001
0010
0100
0000
,
1000
0001
1000
0001
1000
0001
1000
0000
,
2002
0000
0000
0000
,
0000
0000
0000
0000
,
3003
0000
0000
0000
;

//---------------dance-single - ----------------
#NOTEDATA:;
#CHARTNAME:;
#STEPSTYPE:dance-single;
#DESCRIPTION:;
#CHARTSTYLE:;
#DIFFICULTY:Hard;
#METER:17;
#RADARVALUES:0.778497,1.240572,0.786868,0.410176,0.075338,651.000000,557.000000,94.000000,49.000000,0.000000,0.000000,0.000000,0.000000,0.000000,0.778497,1.240572,0.786868,0.410176,0.075338,651.000000,557.000000,94.000000,49.000000,0.000000,0.000000,0.000000,0.000000,0.000000;
#CREDIT:;
#DISPLAYBPM:*;
#NOTES:
0000
0000
0000
0000
,
0000
0000
0000
0000
,
1000
0010
1000
0000
0100
1000
0100
0000
1000
0010
1000
0000
0100
1000
0100
0000
,
0010
0001
0010
0000
0001
0100
0001
0000
0010
0001
0010
0000
0001
0100
0001
0000
,
1000
0010
1000
0000
0010
0100
0010
0000
0100
0001
0100
0000
0001
0010
0001
0000
,
1000
0001
1000
0000
0100
1000
0100
0000
0010
0100
0010
0000
0001
1000
0001
0000
,
1001
0000
1000
0001
1000
0000
0010
0000
,
0100
0001
0010
0100
,
1000
0001
1000
0000
0100
0000
0010
0000
,
0001
0000
0100
0000
0010
0000
1000
0001
,
0100
0001
0100
0000
0010
0000
1000
0000
,
0001
0010
0100
1000
,
0010
0100
0010
0000
1000
0000
0100
0000
,
0010
0000
0001
0100
0001
0100
0020
0000
,
0030
0000
1000
0100
1000
0000
0010
0000
,
0100
0000
0001
0010
0001
0000
0100
0000
,
0010
1000
0010
0000
1000
0000
0001
0000
,
0100
0001
0100
0000
0010
0000
1000
0001
,
0010
0001
0010
0000
0100
0000
1000
0000
,
0010
0100
0010
0000
1000
0000
0001
0000
,
0100
0010
0100
0000
0001
1000
0001
0000
,
0100
0010
0100
0001
1000
0001
0100
0010
,
1000
0001
0101
0000
0101
0000
1010
0000
,
1010
1100
1100
0011
,
0011
0101
0110
1010
,
0110
0101
1001
2020
,
3030
1100
1100
0011
,
0011
0101
0101
1010
,
1010
1100
1001
0011
,
1001
1010
0110
0202
,
0303
1010
1010
0011
,
0011
1100
1100
0101
,
0101
1010
0011
1100
,
0101
0011
1010
1100
,
0100
0100
0010
0001
1000
0001
0010
0001
,
0100
0000
0010
1000
0001
1000
0100
1000
,
0010
0000
0100
0001
0100
0010
1000
0010
,
0100
0001
2000
0000
3002
0000
1003
0000
,
1000
0100
0010
0000
0100
1000
0010
0000
,
1000
0100
0010
0000
0100
1000
0010
0000
,
0100
0001
0010
0000
0100
0010
0001
0000
,
0100
0001
0010
0000
0100
0010
0001
0100
,
0010
0000
1000
0001
0100
0000
0010
1000
,
0100
0000
1000
0001
0100
0000
0010
1000
,
0100
0000
1000
0001
0100
0000
0001
1000
,
0010
0100
0010
1000
0200
0000
0300
0000
,
0010
0001
0100
0000
0010
0100
0001
0000
,
0010
0100
1000
0000
0001
0010
0100
0000
,
1000
0010
0100
0000
0010
1000
0100
0000
,
0010
0001
1000
0000
0100
1000
0001
0100
,
0010
0000
1000
0100
0010
0000
0001
0010
,
0100
0000
1000
0100
0001
0000
1000
0010
,
0001
0000
0010
0100
0001
0000
0100
1000
,
0010
0100
0001
0010
0100
1000
0010
0100
,
0110
2001
3020
0230
,
0302
0000
2003
0000
3100
0010
0001
0100
,
1000
0001
0010
1000
0100
0010
0011
0000
,
0101
1100
1010
0220
,
0330
0000
0100
0001
1000
0020
0000
0000
,
0031
0000
1000
0000
0100
0000
0001
0000
0000
0000
0000
0000
0010
0000
0000
0100
0000
0000
2000
0000
0000
0000
0000
0000
,
0000
3002
0000
0000
0013
1000
0002
0000
,
0203
2000
3300
1010
,
0000
0000
0000
0011
,
0000
0000
0000
0101
,
0000
0000
0000
1100
,
0000
0000
0000
0011
,
0000
0000
0000
1010
,
0000
0000
0000
1100
,
0000
0000
0000
0101
,
0000
0000
0000
1010
,
0000
0000
0000
0011
,
0000
0000
0000
1100
,
0000
0000
0000
0101
,
0000
0000
0000
1001
,
0000
0110
0000
1001
,
0000
0110
0000
0100
,
0001
1000
0010
0100
,
0001
1000
0010
0220
,
0000
0000
0000
0000
,
0000
0000
0000
0330
,
1001
0100
1001
0010
,
1001
0000
2000
0010
3000
0001
0100
0000
,
0110
0001
0110
1000
,
0110
0000
0200
0001
0300
0010
1000
0000
,
1100
0010
0011
1000
,
1100
0000
0200
0010
0300
1000
0001
0000
,
0101
0000
2000
0100
3000
0001
0010
0100
,
0010
0001
0100
0010
1000
0000
0001
0100
,
1010
0100
0011
0100
,
1010
0000
0002
0010
0003
1000
0100
0010
,
0011
1000
0101
1000
,
0011
0000
0200
0001
0300
0010
1000
0100
,
1100
0010
0101
1000
,
0011
0100
1010
0001
,
0010
0100
1000
0000
0001
0010
0100
0000
,
1000
0010
0001
0010
1000
0100
0010
0001
,
1001
0000
1000
0010
0100
0010
1000
0010
,
0200
0000
0302
0010
0003
2000
0100
3000
,
0001
0010
0100
0010
0001
0010
0100
0010
,
0002
0000
2003
0010
3000
0200
0010
0300
,
1000
0010
0001
0010
1000
0010
0001
0010
,
2000
0000
3002
0100
0003
0020
0130
0000
,
0110
0000
0200
1000
0300
0010
0001
0100
,
1000
0100
0001
0010
0220
0000
0330
0000
,
0100
1000
0010
1000
0100
0010
0001
0100
,
0020
0000
2030
0100
3000
0020
0001
0030
,
0100
0001
0010
0001
0100
0010
1000
0100
,
0020
0000
0032
0100
0003
0020
1000
0030
,
0001
0100
0010
1000
0010
0100
0001
0100
,
0010
1000
0100
0010
0001
0100
0010
1000
,
0001
0100
1000
0100
0001
0010
1000
0010
,
0001
0100
1000
0100
0001
0010
0100
1000
,
2002
0000
0000
0000
,
0000
0000
0000
0000
,
3003
0000
0000
0000
;

//---------------dance-double - ----------------
#NOTEDATA:;
#CHARTNAME:;
#STEPSTYPE:dance-double;
#DESCRIPTION:;
#CHARTSTYLE:;
#DIFFICULTY:Hard;
#METER:17;
#RADARVALUES:0.743817,1.049715,0.719900,0.259499,0.041855,622.000000,536.000000,86.000000,31.000000,0.000000,0.000000,0.000000,0.000000,0.000000,0.743817,1.049715,0.719900,0.259499,0.041855,622.000000,536.000000,86.000000,31.000000,0.000000,0.000000,0.000000,0.000000,0.000000;
#CREDIT:;
#DISPLAYBPM:135.000000:520.000000;
#NOTES:
// measure 0
00000000
00000000
00000000
00000000
,  // measure 1
00000000
00000000
00000000
00000000
,  // measure 2
10000000
01000000
10000000
00000000
01000000
00000000
00010000
00000000
00001000
00010000
00001000
00000000
00000010
00000000
00000001
00000000
,  // measure 3
00000100
00000010
00000100
00000000
00001000
00000000
00010000
00000000
00100000
01000000
00100000
00000000
10000000
00000000
01000000
00000000
,  // measure 4
00010000
00001000
00010000
00000000
00001000
00000000
00000010
00000000
00000001
00000100
00000001
00000000
00000100
00000000
00001000
00000000
,  // measure 5
00010000
00001000
00010000
00000000
01000000
00000000
10000000
00000000
00100000
01000000
00100000
00000000
00010000
00000000
00001000
00000000
,  // measure 6
00011000
00000000
00010000
00001000
00010000
00000000
00000100
00000000
,  // measure 7
00001000
00000001
00000100
00000010
,  // measure 8
00010000
00001000
00010000
00000000
00100000
00000000
10000000
00000000
,  // measure 9
01000000
00000000
00100000
00000000
00010000
00000000
01000000
00100000
,  // measure 10
01000000
00100000
10000000
00000000
00010000
00000000
00100000
00000000
,  // measure 11
01000000
00010000
00001000
00000010
,  // measure 12
00000001
00000100
00000001
00000000
00001000
00000000
00000100
00000000
,  // measure 13
00000010
00000000
00001000
00010000
00001000
00010000
00200000
00000000
,  // measure 14
00300000
00000000
10000000
01000000
10000000
00000000
00100000
00000000
,  // measure 15
00010000
00000000
00001000
00010000
00001000
00000000
00100000
00000000
,  // measure 16
01000000
00010000
01000000
00000000
10000000
00000000
00100000
00000000
,  // measure 17
00010000
00001000
00010000
00000000
00000100
00000000
00001000
00000100
,  // measure 18
00001000
00000100
00000001
00000000
00000100
00000000
00000010
00000000
,  // measure 19
00000001
00000100
00000001
00000000
00000100
00000000
00001000
00000000
,  // measure 20
00010000
00001000
00010000
00000000
00001000
00010000
00001000
00000000
,  // measure 21
00010000
00001000
01000000
00001000
00010000
00000010
00010000
00001000
,  // measure 22
00100000
00110000
00110000
11000000
,  // measure 23
11000000
10000000
00100000
00010000
,  // measure 24
00001000
01001000
01001000
00010100
,  // measure 25
00010100
00101000
00010010
00002200
,  // measure 26
00003300
00001010
00001010
00000101
,  // measure 27
00000101
00000001
00000010
00001000
,  // measure 28
00010000
00010100
00010100
01001000
,  // measure 29
01001000
00010010
00101000
02020000
,  // measure 30
03030000
01100000
01100000
10010000
,  // measure 31
10010000
00010000
00100000
01000000
,  // measure 32
00010000
00011000
00011000
00000110
,  // measure 33
00000110
00001001
00000110
00011000
,  // measure 34
00001000
00010000
00100000
10000000
01000000
10000000
00100000
10000000
,  // measure 35
01000000
00000000
00010000
00001000
00000100
00001000
00010000
00001000
,  // measure 36
00000100
00000000
00000001
00000010
00000100
00000010
00000001
00000010
,  // measure 37
00000100
00001000
00000010
00000000
00010000
00000000
00011000
00000000
,  // measure 38
00001000
00010000
01000000
00000000
10000000
00000000
00100000
00000000
,  // measure 39
00010000
00001000
00000100
00000000
00000001
00000000
00000010
00000000
,  // measure 40
00001000
00010000
00100000
00000000
10000000
00000000
01000000
00000000
,  // measure 41
00010000
00001000
00000010
00000000
00000001
00000100
00001000
00000100
,  // measure 42
00000010
00000000
00001000
00000000
00000100
00000000
00000010
00001000
,  // measure 43
00010000
00000000
01000000
00000000
00100000
00000000
00001000
00010000
,  // measure 44
01000000
00000000
10000000
00100000
00010000
00000000
00001000
00100000
,  // measure 45
01000000
00100000
00001000
00010000
00200000
00000000
00300000
00000000
,  // measure 46
10000000
01000000
00010000
00000000
00001000
00000000
00100000
00000000
,  // measure 47
01000000
00010000
00001000
00000000
00000100
00000000
00000010
00001000
,  // measure 48
00000100
00000000
00000010
00000000
00000001
00000000
00000100
00001000
,  // measure 49
00010000
00000000
00100000
00000000
10000000
01000000
00010000
01000000
,  // measure 50
00100000
00000000
00010000
00000000
01000000
00000000
10000000
01000000
,  // measure 51
00100000
00000000
00010000
00000000
00001000
00000000
00010000
00001000
,  // measure 52
00000100
00000000
00001000
00000100
00000001
00000000
00000100
00000001
,  // measure 53
00000010
00000100
00000001
00000100
00001000
00000100
00000010
00001000
,  // measure 54
00011000
01002000
00013000
00020010
,  // measure 55
00031000
00000000
00102000
00000000
00013000
00100000
10000000
01000000
,  // measure 56
00100000
00010000
00001000
00000010
00000100
00000001
00000011
00000000
,  // measure 57
00001010
00011000
01010000
22000000
,  // measure 58
33000000
00000000
10000000
00100000
01000000
00020000
00000000
00000000
,  // measure 59
00031000
00000000
00000100
00000000
00000010
00000000
00000001
00000000
00000000
00000000
00000000
00000000
00000100
00000000
00000000
00001000
00000000
00000000
00020000
00000000
00000000
00000000
00000000
00000000
,  // measure 60
00000000
02030000
00000000
00000000
03010000
00001000
00000200
00000000
,  // measure 61
00000302
00002000
00003003
00001001
,  // measure 62
00000000
00000000
00000000
00001010
,  // measure 63
00000000
00000000
00000000
00010010
,  // measure 64
00000000
00000000
00000000
00011000
,  // measure 65
00000000
00000000
00000000
00101000
,  // measure 66
00000000
00000000
00000000
00110000
,  // measure 67
00000000
00000000
00000000
10010000
,  // measure 68
00000000
00000000
00000000
11000000
,  // measure 69
00000000
00000000
00000000
00110000
,  // measure 70
00000000
00000000
00000000
00011000
,  // measure 71
00000000
00000000
00000000
00001010
,  // measure 72
00000000
00000000
00000000
00000101
,  // measure 73
00000000
00000000
00000000
00000001
,  // measure 74
00000000
00000100
00000000
00001000
,  // measure 75
00000000
00010000
00000000
00100000
,  // measure 76
10000000
01000000
00010000
00001000
,  // measure 77
00010000
00001000
00010000
00022000
,  // measure 78
00000000
00000000
00000000
00000000
,  // measure 79
00000000
00000000
00000000
00033000
,  // measure 80
00011000
01000000
10010000
01000000
,  // measure 81
00011000
00000000
00001000
00100000
00000000
01000000
00010000
00000000
,  // measure 82
00011000
00000100
00001001
00000100
,  // measure 83
00011000
00000000
00010000
00000010
00000000
00000100
00001000
00000000
,  // measure 84
00011000
01000000
10010000
00100000
,  // measure 85
00011000
00000000
00000100
00000010
00000000
00000001
00001000
00000000
,  // measure 86
00000110
00000000
00000010
00000200
00000000
00000310
00001000
00000100
,  // measure 87
00000010
00001000
00010000
01000000
10000000
00000000
00100000
00010000
,  // measure 88
00011000
00000100
00010010
00001000
,  // measure 89
00000101
00000000
00000001
00000010
00000000
00000100
00000010
00001000
,  // measure 90
00011000
01000000
00101000
00010000
,  // measure 91
11000000
00000000
10000000
00100000
00000000
00100000
00010000
00001000
,  // measure 92
00011000
00100000
01010000
00001000
,  // measure 93
00011000
00000010
00001100
00010000
,  // measure 94
00001000
00010000
01000000
00000000
00010000
00001000
00000010
00000000
,  // measure 95
00001000
00010000
00100000
00010000
00001000
00000100
00001000
00010000
,  // measure 96
00011000
00000000
00001000
00100000
00010000
01000000
00001000
00100000
,  // measure 97
00110000
00000000
00010000
01000000
00000000
00100000
10000000
00000000
,  // measure 98
01000000
00100000
00001000
00010000
01000000
00100000
00001000
00010000
,  // measure 99
00010100
00000000
00000100
00001000
00000000
00000001
00000010
00000000
,  // measure 100
00000100
00010000
00001000
00000100
00000010
00010000
00001000
00000100
,  // measure 101
00000110
00000000
00000010
00001000
00000000
00000100
00010000
00000000
,  // measure 102
00011000
00000000
00001000
00200000
00000000
01300000
10000000
00100000
,  // measure 103
00010000
00001000
00000100
00000001
00002002
00000000
00003003
00000000
,  // measure 104
00001000
00000010
00000100
00000010
00001000
00000100
00000010
00000001
,  // measure 105
00000101
00000000
00000100
00002000
00000000
00013000
02000000
00000000
,  // measure 106
13000000
00100000
01000000
00010000
00100000
01000000
00010000
00001000
,  // measure 107
00011000
00000000
00010000
00200000
00000000
10300000
02000000
00000000
,  // measure 108
03010000
00001000
00100000
01000000
10000000
00100000
00020000
00000000
,  // measure 109
00031000
00000100
00000001
00000010
00000100
00010000
00002000
00000000
,  // measure 110
00103000
00010000
00100000
01000000
10000000
01000000
00010000
00001000
,  // measure 111
00000010
00000001
00000010
00000100
00001000
00010000
00100000
01000000
,  // measure 112
20020000
00000000
00000000
00000000
,  // measure 113
00000000
00000000
00000000
00000000
,  // measure 114
30030000
00000000
00000000
00000000
;

//---------------dance-double - ----------------
#NOTEDATA:;
#CHARTNAME:;
#STEPSTYPE:dance-double;
#DESCRIPTION:;
#CHARTSTYLE:;
#DIFFICULTY:Easy;
#METER:9;
#RADARVALUES:0.313312,0.477143,0.142306,0.033484,0.000000,262.000000,245.000000,17.000000,4.000000,0.000000,0.000000,0.000000,0.000000,0.000000,0.313312,0.477143,0.142306,0.033484,0.000000,262.000000,245.000000,17.000000,4.000000,0.000000,0.000000,0.000000,0.000000,0.000000;
#CREDIT:;
#DISPLAYBPM:135.000000:520.000000;
#NOTES:
// measure 0
00000000
00000000
00000000
00000000
,  // measure 1
00000000
00000000
00000000
00000000
,  // measure 2
00001000
00001000
00010000
00010000
,  // measure 3
01000000
01000000
00100000
00100000
,  // measure 4
00001000
00001000
00010000
00010000
,  // measure 5
00000100
00000100
00000010
00000010
,  // measure 6
00001001
00000001
00000000
00000100
,  // measure 7
00000000
00000010
00000000
00001000
,  // measure 8
00000000
00000100
00000000
00010000
,  // measure 9
00000000
00001000
00000000
00100000
,  // measure 10
00010000
10000000
00000000
00100000
,  // measure 11
00000000
01000000
00000000
00010000
,  // measure 12
00000000
00100000
00000000
00001000
,  // measure 13
00000000
00010000
00001000
00011000
,  // measure 14
00000000
00010000
00000000
00000100
,  // measure 15
00000000
00001000
00000000
00000010
,  // measure 16
00000000
00000100
00000000
00000001
,  // measure 17
00000000
00001000
00000000
00000010
,  // measure 18
00010000
00001000
00000000
00100000
,  // measure 19
00000000
00010000
00000000
01000000
,  // measure 20
00000000
00100000
00000000
10000000
,  // measure 21
00000000
00010000
01000000
00010000
,  // measure 22
01000000
00001000
00000000
00010000
,  // measure 23
00000000
00100000
00000000
10000000
,  // measure 24
00000000
01000000
00000000
00010000
,  // measure 25
00000000
00001000
00010000
00011000
,  // measure 26
00000000
00010000
00000000
00001000
,  // measure 27
00000000
00000010
00000000
00000001
,  // measure 28
00000000
00000100
00000000
00001000
,  // measure 29
00000000
00010000
00001000
00011000
,  // measure 30
00000000
00001000
00000000
00010000
,  // measure 31
00000000
01000000
00000000
10000000
,  // measure 32
00000000
00100000
00000000
00010000
,  // measure 33
00000000
00001000
00010000
00011000
,  // measure 34
00000000
00010000
00000000
00001000
,  // measure 35
00000000
00000100
00000000
00000001
,  // measure 36
00000000
00000010
00000100
00000010
,  // measure 37
00000000
00001000
00010000
00001000
,  // measure 38
00011000
00000000
00010000
00000000
,  // measure 39
01000000
00000000
10000000
00100000
,  // measure 40
10000000
00000000
00010000
00000000
,  // measure 41
01000000
00000000
00001000
00010000
,  // measure 42
00001000
00000000
00000100
00000000
,  // measure 43
00000001
00000000
00000010
00000100
,  // measure 44
00000010
00000000
00001000
00000000
,  // measure 45
00010000
00001000
00011000
00000000
,  // measure 46
00010000
00000000
00000100
00000010
,  // measure 47
00000100
00000000
00000010
00000001
,  // measure 48
00000010
00000000
00000100
00001000
,  // measure 49
00000100
00000000
00010000
00001000
,  // measure 50
00010000
00000000
00001000
01000000
,  // measure 51
00001000
00000000
00100000
00010000
,  // measure 52
00100000
00000000
01000000
00000000
,  // measure 53
10000000
00100000
00010000
00001000
,  // measure 54
00011000
00010000
00000010
00000000
,  // measure 55
00000010
00000000
00000010
00001000
,  // measure 56
00000100
00000010
00000001
00000100
,  // measure 57
00001000
00010000
00100000
10100000
,  // measure 58
00000000
10000000
11000000
00000000
,  // measure 59
01000000
01010000
00000000
00011000
,  // measure 60
00000000
00001100
00000100
00000001
,  // measure 61
00000010
00001000
00000000
00022000
,  // measure 62
00000000
00000000
00000000
00000000
,  // measure 63
00000000
00000000
00000000
00000000
,  // measure 64
00000000
00000000
00000000
00000000
,  // measure 65
00000000
00000000
00000000
00000000
,  // measure 66
00000000
00000000
00000000
00000000
,  // measure 67
00000000
00000000
00000000
00000000
,  // measure 68
00000000
00000000
00000000
00000000
,  // measure 69
00000000
00000000
00000000
00000000
,  // measure 70
00000000
00000000
00000000
00000000
,  // measure 71
00000000
00000000
00000000
00000000
,  // measure 72
00000000
00000000
00000000
00000000
,  // measure 73
00000000
00000000
00000000
00000000
,  // measure 74
00000000
00000000
00000000
00000000
,  // measure 75
00000000
00000000
00000000
00000000
,  // measure 76
00000000
00000000
00000000
00000000
,  // measure 77
00000000
00000000
00000000
00033000
,  // measure 78
00000000
00000000
00000000
00000000
,  // measure 79
00000000
00000000
00000000
00000000
,  // measure 80
00001000
00000000
00001000
00000000
,  // measure 81
00010000
01000000
10000000
00000000
,  // measure 82
00100000
00000000
00100000
00000000
,  // measure 83
00010000
00001000
00000100
00000000
,  // measure 84
00000001
00000000
00000001
00000000
,  // measure 85
00000010
00000100
00001000
00000000
,  // measure 86
00000010
00000000
00000010
00000000
,  // measure 87
00010000
00001000
00011000
00000000
,  // measure 88
00010000
00000000
00010000
00000000
,  // measure 89
00100000
10000000
01000000
00000000
,  // measure 90
00100000
00000000
00100000
00000000
,  // measure 91
00001000
00010000
00000100
00000000
,  // measure 92
00000010
00000000
00000010
00000000
,  // measure 93
00000001
00000100
00001000
00000000
,  // measure 94
00010000
00000000
00010000
00000000
,  // measure 95
00100000
10000000
00100000
10000000
,  // measure 96
01000000
00100000
01000000
00000000
,  // measure 97
00010000
00000000
00001000
00000000
,  // measure 98
00000010
00000100
00000010
00000000
,  // measure 99
00000001
00000000
00000100
00000000
,  // measure 100
00001000
00010000
00001000
00000000
,  // measure 101
00010000
00000000
01000000
00000000
,  // measure 102
10000000
00010000
10000000
00000000
,  // measure 103
00100000
01000000
01100000
00000000
,  // measure 104
00100000
10000000
01000000
00000000
,  // measure 105
00010000
00000000
00001000
00000000
,  // measure 106
00000010
00000001
00000100
00000000
,  // measure 107
00001000
00000000
00010000
00000000
,  // measure 108
01000000
10000000
00100000
00000000
,  // measure 109
00010000
00000000
00001000
00000000
,  // measure 110
00000100
00000001
00000010
00000000
,  // measure 111
00001000
00010000
00001000
00010000
,  // measure 112
00022000
00000000
00000000
00000000
,  // measure 113
00000000
00000000
00000000
00000000
,  // measure 114
00033000
00000000
00000000
00000000
;

//---------------dance-double - ----------------
#NOTEDATA:;
#CHARTNAME:;
#STEPSTYPE:dance-double;
#DESCRIPTION:;
#CHARTSTYLE:;
#DIFFICULTY:Medium;
#METER:13;
#RADARVALUES:0.556069,0.858858,0.410176,0.368321,0.008371,465.000000,416.000000,49.000000,44.000000,0.000000,0.000000,0.000000,0.000000,0.000000,0.556069,0.858858,0.410176,0.368321,0.008371,465.000000,416.000000,49.000000,44.000000,0.000000,0.000000,0.000000,0.000000,0.000000;
#CREDIT:;
#DISPLAYBPM:135.000000:520.000000;
#NOTES:
// measure 0
00000000
00000000
00000000
00000000
,  // measure 1
00000000
00000000
00000000
00000000
,  // measure 2
00000001
00000100
00000001
00000100
00000010
00001000
00000010
00001000
,  // measure 3
00000100
00000010
00000100
00000010
00001000
00010000
00001000
00010000
,  // measure 4
01000000
00100000
01000000
00100000
00010000
01000000
00010000
01000000
,  // measure 5
00100000
10000000
00100000
10000000
01000000
00010000
01000000
00010000
,  // measure 6
00011000
00001000
00100000
00010000
,  // measure 7
01000000
00001000
00100000
01000000
,  // measure 8
00000000
00010000
00000100
00001000
,  // measure 9
00000010
00010000
00000100
00000010
,  // measure 10
00000000
00001000
01000000
00010000
,  // measure 11
00100000
00001000
01000000
00100000
,  // measure 12
00000000
00010000
00000010
00001000
,  // measure 13
00000100
00010000
00000010
00000200
,  // measure 14
00000301
00000001
00000010
00001000
,  // measure 15
00010000
01000000
10000000
00100000
,  // measure 16
01000000
00100000
10000000
01000000
,  // measure 17
00010000
00001000
00000100
00000001
,  // measure 18
00000010
00000100
00000010
00000001
,  // measure 19
00000100
00001000
00010000
00100000
,  // measure 20
10000000
01000000
00100000
01000000
,  // measure 21
10000000
00100000
00010000
00022000
,  // measure 22
00033000
00011000
00010000
00000100
,  // measure 23
00001000
00001001
00000001
00000100
,  // measure 24
00000010
00000110
00000100
00000010
,  // measure 25
00010000
00001000
00010000
00022000
,  // measure 26
00033000
00011000
00001000
01000000
,  // measure 27
00010000
10010000
10000000
01000000
,  // measure 28
00100000
01100000
01000000
00100000
,  // measure 29
00001000
00010000
00001000
00022000
,  // measure 30
00033000
00011000
00010000
00001000
,  // measure 31
00000100
00000101
00000001
00000010
,  // measure 32
00001000
00011000
00010000
01000000
,  // measure 33
10000000
00100000
00010000
00022000
,  // measure 34
00033000
00011000
00001000
00010000
,  // measure 35
01000000
11000000
10000000
00100000
,  // measure 36
00010000
00011000
00001000
00000100
,  // measure 37
00000001
00000010
00001000
00011000
,  // measure 38
00010000
00001000
00100000
01000000
,  // measure 39
10000000
00100000
01000000
00020000
,  // measure 40
10030000
01000000
00100000
00010000
,  // measure 41
01000000
00001000
00010000
00000200
,  // measure 42
00001300
00000001
00000100
00000010
,  // measure 43
00001000
00000100
00000010
00000002
,  // measure 44
00000103
00001000
00010000
00100000
,  // measure 45
10000000
00010000
20020000
30030000
,  // measure 46
02000000
03100000
00010000
00001000
,  // measure 47
00000100
00000001
00000010
00000200
,  // measure 48
00010300
00001000
00100000
01000000
,  // measure 49
10000000
00100000
00010000
00002000
,  // measure 50
01003000
00100000
00010000
00001000
,  // measure 51
00000100
00000010
00001000
00000200
,  // measure 52
00000310
00000002
00000103
00002000
,  // measure 53
00013000
00001000
00022000
00033000
,  // measure 54
00011000
00020000
00030010
00002000
,  // measure 55
01003000
00000000
00020000
00000000
00030100
00000010
00000001
00001000
,  // measure 56
00000100
00000010
00001000
00010000
01000000
00100000
00020000
00000000
,  // measure 57
20030000
32000000
03020000
00002000
,  // measure 58
00033000
00000000
00001000
00000100
00000001
00000020
00000000
00000000
,  // measure 59
00001030
00000000
00010000
00000000
00100000
00000000
01000000
00000000
00000000
00000000
00000000
00000000
00100000
00000000
00000000
10000000
00000000
00000000
02000000
00000000
00000000
00000000
00000000
00000000
,  // measure 60
00000000
03200000
00000000
00000000
00310000
01000000
00001000
00000000
,  // measure 61
00010000
00022000
00033000
00001000
,  // measure 62
00000000
00000000
00000000
00010000
,  // measure 63
00000000
00000000
00000000
00001000
,  // measure 64
00000000
00000000
00000000
00010000
,  // measure 65
00000000
00000000
00000000
00001000
,  // measure 66
00000000
00000000
00000000
00010000
,  // measure 67
00000000
00000000
00000000
00001000
,  // measure 68
00000000
00000000
00000000
00010000
,  // measure 69
00000000
00000000
00000000
00001000
,  // measure 70
00000000
00000000
00000000
00010000
,  // measure 71
00000000
00000000
00000000
00001000
,  // measure 72
00000000
00000000
00000000
00010000
,  // measure 73
00000000
00000000
00000000
00001000
,  // measure 74
00000000
00010000
00000000
00001000
,  // measure 75
00000000
00010000
00000000
00001000
,  // measure 76
00010000
00001000
00010000
00001000
,  // measure 77
00010000
00001000
00010000
00022000
,  // measure 78
00000000
00000000
00000000
00000000
,  // measure 79
00000000
00000000
00000000
00033000
,  // measure 80
00001000
00100000
00010000
01000000
,  // measure 81
01100000
00000000
00000000
10100000
00000000
00000000
10010000
00000000
,  // measure 82
00010000
00100000
01000000
00010000
,  // measure 83
00011000
00000000
00000000
00010100
00000000
00000000
00001100
00000000
,  // measure 84
00001000
00000010
00000100
00000001
,  // measure 85
00000011
00000000
00000000
00000110
00000000
00000000
00010100
00000000
,  // measure 86
00010000
00000000
00001000
00100000
00000000
00100000
01000000
00000000
,  // measure 87
00010000
00001000
00022000
00033000
,  // measure 88
00010000
00000010
00001000
00000100
,  // measure 89
00000110
00000000
00000000
00000011
00000000
00000000
00001001
00000000
,  // measure 90
00001000
00000010
00000100
00001000
,  // measure 91
00011000
00000000
00000000
01001000
00000000
00000000
01010000
00000000
,  // measure 92
00010000
00100000
01000000
10000000
,  // measure 93
00100000
00010000
00001000
00000100
,  // measure 94
00000001
00000000
00000010
00000100
00000010
00000000
00001000
00000000
,  // measure 95
00010000
00000000
01000000
00100000
02000000
00000000
03000000
00000000
,  // measure 96
10000000
00100000
10000000
00000000
01000000
00000000
00010000
00000000
,  // measure 97
00011000
00000000
00000000
00101000
00000000
00000000
00010010
00000000
,  // measure 98
00000010
00001000
00000010
00000000
00000100
00000000
00000001
00000000
,  // measure 99
00000011
00000000
00000000
00001100
00000000
00000000
00010100
00000000
,  // measure 100
00010000
00001000
00010000
00000000
01000000
00000000
10000000
00000000
,  // measure 101
10100000
00000000
00000000
01100000
00000000
00000000
01001000
00000000
,  // measure 102
00001000
00000000
00010000
00000100
00000000
00000100
00001000
00000000
,  // measure 103
00000001
00000100
00000010
00002000
00000002
00000000
00003003
00000000
,  // measure 104
00000001
00000100
00000010
00000000
00001000
00000000
00000001
00000100
,  // measure 105
00000010
00000000
00001000
00000100
00000000
00000100
00010000
00000000
,  // measure 106
00001000
00100000
00010000
00000000
01000000
00000000
00001000
00100000
,  // measure 107
00010000
00000000
01000000
00100000
00000000
00100000
10000000
00000000
,  // measure 108
01000000
00010000
00001000
00000000
00100000
00000000
01000000
00000000
,  // measure 109
00010000
00001000
00000010
00000000
00000100
00000000
00010000
00000000
,  // measure 110
00001000
00000100
00000001
00000010
,  // measure 111
00001000
00010000
00001000
00010000
00001000
00010000
00001000
00000000
,  // measure 112
00022000
00000000
00000000
00000000
,  // measure 113
00000000
00000000
00000000
00000000
,  // measure 114
00033000
00000000
00000000
00000000
;
