#VERSION:0.83;
#TITLE:GIMMICK;
#SUBTITLE:;
#ARTIST:MS.Sill;
#TITLETRANSLIT:;
#SUBTITLETRANSLIT:;
#ARTISTTRANSLIT:;
#GENRE:VARIETY;
#ORIGIN:;
#CREDIT:MUINELIM;
#BANNER:GIMMICK.png;
#BACKGROUND:GIMMICK-bg.png;
#PREVIEWVID:;
#JACKET:GIMMICK-jacket.png;
#CDIMAGE:;
#DISCIMAGE:;
#LYRICSPATH:;
#CDTITLE:;
#MUSIC:GIMMICK.ogg;
#OFFSET:0.000000;
#SAMPLESTART:94.833176;
#SAMPLELENGTH:15.064888;
#SELECTABLE:YES;
#BPMS:0.000=143.000;
#STOPS:;
#DELAYS:;
#WARPS:;
#TIMESIGNATURES:0.000=4=4;
#TICKCOUNTS:0.000=4;
#COMBOS:0.000=1;
#SPEEDS:0.000=1.000=0.000=0;
#SCROLLS:0.000=1.000;
#FAKES:;
#LABELS:0.000=Song Start;
#BGCHANGES:0.000=GIMMICK.mp4=1.000=1=0=1===CrossFade==,
99999=-nosongbg-=1.000=0=0=0 // don't automatically add -songbackground-
;
#KEYSOUNDS:;
#ATTACKS:
;

//---------------dance-single - ----------------
#NOTEDATA:;
#CHARTNAME:;
#STEPSTYPE:dance-single;
#DESCRIPTION:;
#CHARTSTYLE:;
#DIFFICULTY:Beginner;
#METER:3;
#RADARVALUES:0.128811,0.196550,0.031638,0.015819,0.000000,114.000000,110.000000,4.000000,2.000000,0.000000,0.000000,0.000000,0.000000,0.000000,0.128811,0.196550,0.031638,0.015819,0.000000,114.000000,110.000000,4.000000,2.000000,0.000000,0.000000,0.000000,0.000000,0.000000;
#CREDIT:MILEN;
#NOTES:
0000
0000
0000
0000
,
0000
0000
0000
0000
,
0000
0000
0000
0000
,
0000
0000
0000
0000
,
0000
0000
0000
0000
,
1000
0000
1000
0000
,
0001
0000
0001
0000
,
1000
0000
0001
0000
,
1000
0000
0001
0000
,
0100
0000
0100
0000
,
0010
0000
0010
0000
,
0100
0000
0010
0000
,
0100
0000
0010
0000
,
1000
0000
0100
0000
,
0010
0000
0001
0000
,
0100
0000
0100
0100
,
0100
0000
0000
0000
,
0110
0000
0000
0000
,
1000
0000
0001
0000
,
1000
0000
0001
0000
,
0010
0000
0100
0000
,
0010
0000
0100
0000
,
1000
0000
0001
0000
,
0100
0000
0010
0000
,
1000
0000
0001
0000
,
0100
0000
0100
0000
,
0001
0000
0001
0000
,
1000
0000
1000
0000
,
0010
0000
0010
0000
,
0100
0000
0010
0000
,
1000
0000
0001
0000
,
0100
0000
0010
0000
,
0100
0000
0001
0000
,
1000
0000
1000
0000
,
0000
0000
0100
0000
,
0000
0000
0001
0000
,
0000
0000
0010
0000
,
0000
0000
1000
0000
,
0000
0000
0100
0000
,
0100
0100
0100
0000
,
0010
0000
0001
0000
,
1001
0000
0000
0000
,
0000
0000
0000
0000
,
0000
0000
0000
0000
,
0000
0000
0000
0000
,
1000
0000
1000
0000
,
0010
0000
0010
0000
,
0001
0000
0001
0000
,
0100
0000
0100
0000
,
1000
0000
1000
0000
,
0001
0000
0001
0000
,
0100
0000
0100
0000
,
0010
0000
0010
0000
,
1000
0000
0001
0000
,
0100
0000
0010
0000
,
1000
0000
0001
0000
,
0100
0100
0100
0000
,
0110
0000
0000
0000
,
0001
0000
0000
0000
,
0100
0000
0000
0000
,
1000
0000
0000
0000
,
0010
0000
0000
0000
,
0001
0000
0000
0000
,
0100
0000
0000
0000
,
0010
0000
0000
0000
,
1000
0000
1000
0000
,
1000
0000
1000
0000
,
0001
0000
0001
0000
,
0001
0000
0001
0000
,
2002
0000
0000
0000
,
0000
0000
0000
0000
,
3003
0000
0000
0000
;

//---------------dance-single - ----------------
#NOTEDATA:;
#CHARTNAME:;
#STEPSTYPE:dance-single;
#DESCRIPTION:;
#CHARTSTYLE:;
#DIFFICULTY:Easy;
#METER:5;
#RADARVALUES:0.189827,0.252707,0.134461,0.134461,0.000000,168.000000,151.000000,17.000000,17.000000,0.000000,0.000000,0.000000,0.000000,0.000000,0.189827,0.252707,0.134461,0.134461,0.000000,168.000000,151.000000,17.000000,17.000000,0.000000,0.000000,0.000000,0.000000,0.000000;
#CREDIT:MILEN;
#NOTES:
0000
0000
0000
0000
,
0000
0000
0000
0000
,
0000
0000
0000
0000
,
0000
0000
0000
0000
,
0000
0000
0000
0000
,
1000
0000
1000
0000
,
0001
0000
0001
0000
,
1000
0000
0001
0000
,
1000
0000
0001
0001
,
0001
0000
0100
0000
,
1000
0000
0010
0000
,
0001
0000
0100
0000
,
1000
0000
0010
0000
,
0001
1000
0001
0000
,
1000
0001
1000
0000
,
0001
1000
0001
1000
,
2002
0000
0000
3003
,
1001
0000
0001
0200
,
0000
0300
0010
0100
,
0010
0000
1000
0100
,
1000
0100
1100
0000
,
2000
3000
0001
0100
,
0001
0100
0101
0000
,
0002
0003
1000
0010
,
0100
0001
0010
0100
,
1000
0000
0010
0100
,
0010
0100
0110
0000
,
0020
0030
1000
0001
,
0100
0010
1000
0000
,
0200
0300
1000
0100
,
0010
0001
1000
0000
,
0002
0003
0010
0100
,
0010
0001
2000
3000
,
1001
0000
0001
0000
,
0000
0000
0100
0000
,
0000
0000
1000
0000
,
0000
0000
0010
0000
,
0000
0000
0001
0000
,
0000
0000
0100
0000
,
0020
0030
1000
0100
,
0010
0001
0200
0000
,
0310
0000
0010
0000
,
0010
0000
0010
0000
,
0010
0000
0010
0000
,
0010
0000
0010
0000
,
0010
0000
1000
0000
,
0100
0000
0001
0000
,
0100
0000
1000
0000
,
0010
0000
0001
0000
,
0010
0000
1000
0000
,
0100
0000
0010
0000
,
0001
0000
0100
0000
,
0010
0000
0100
0000
,
0001
0000
0010
0000
,
1000
0000
0100
0000
,
0110
0000
1001
0000
,
0110
0000
2002
3003
,
1000
0010
1000
0000
,
0001
0010
0001
0000
,
1000
0100
1000
0000
,
0001
0100
0001
0000
,
1000
0000
0010
0000
,
0001
0000
0100
0000
,
0001
0000
0010
0000
,
1000
0000
0100
0010
,
0110
0000
0110
0000
,
0110
0000
2000
3000
,
1001
0000
1001
0000
,
1001
0000
0002
0003
,
0220
0000
0000
0000
,
0000
0000
0000
0000
,
0330
0000
0000
0000
;

//---------------dance-single - ----------------
#NOTEDATA:;
#CHARTNAME:;
#STEPSTYPE:dance-single;
#DESCRIPTION:;
#CHARTSTYLE:;
#DIFFICULTY:Medium;
#METER:11;
#RADARVALUES:0.467788,0.533493,0.371744,0.284740,0.533888,414.000000,367.000000,47.000000,36.000000,0.000000,0.000000,0.000000,0.000000,0.000000,0.467788,0.533493,0.371744,0.284740,0.533888,414.000000,367.000000,47.000000,36.000000,0.000000,0.000000,0.000000,0.000000,0.000000;
#CREDIT:MILEN;
#NOTES:
0000
0000
0000
0000
,
0000
0000
0000
0000
,
0000
0000
0000
0000
,
0000
0000
0000
0000
,
0000
0000
0000
0000
,
1000
1000
0010
0010
,
0100
0100
0001
0001
,
1000
0100
0010
0001
,
2002
0000
3003
0000
1000
0010
0100
0001
,
2000
0000
3200
0000
,
0320
0000
0000
0000
0000
0000
0000
0000
0031
0000
0000
0001
0000
0000
0001
0000
,
0202
0000
0000
0000
0303
0000
0000
0000
1000
0000
0000
1000
0000
0000
1000
0000
,
2020
3030
0220
0330
,
0001
0001
0100
0100
,
0010
0010
1000
1000
,
0001
0010
0100
1000
0001
0010
0100
1000
,
2002
0000
0000
0000
3003
0000
0010
0100
,
0020
0000
1030
0100
0010
0001
2000
0000
,
0000
0000
3001
0000
0001
0000
0100
0000
0010
0000
0000
0100
0000
0000
0001
0000
,
2000
0000
0000
0000
3100
0000
0010
0000
0001
0000
0000
0100
0000
0000
0010
0000
,
0000
1000
0000
0000
0001
0000
0000
0000
1001
0000
0000
0000
1000
0000
0010
0000
,
0200
0000
0000
0000
0301
0000
0010
0000
0100
0000
0000
0000
1100
0000
0000
1000
,
0000
0000
1001
0000
0000
0001
0000
0000
0011
0000
0010
0000
0100
0000
1000
0000
,
0200
0000
0000
0000
1300
0000
0010
0000
0100
0000
0000
0001
0000
0000
0010
0000
,
0000
0100
0000
0000
1000
0000
0000
0000
1010
0000
0010
0000
0100
0000
0001
0000
,
1000
0000
1000
0000
0100
0000
0010
0000
0011
0000
0000
0001
0000
0000
0100
0000
,
0110
0000
0000
0010
0000
0000
1000
0000
1100
0000
0100
0000
0010
0000
0001
0000
,
0100
0000
0100
0000
0010
0000
1000
0000
1010
0000
0000
0010
0000
0000
0100
0000
,
0000
0001
0000
0000
0101
0000
0100
0000
0010
0000
1000
0000
0001
0000
0100
0000
,
0020
0000
0000
0000
1030
0000
0100
0000
0010
0000
0001
0000
0100
0000
0000
0110
,
0000
0000
1010
0000
0000
0101
0000
0000
1001
0000
0001
0000
0010
0000
0100
0000
,
2000
0000
0000
0000
3010
0000
0100
0000
0001
0000
0000
0011
0000
0000
1000
0000
,
0000
1100
0000
0000
0010
0000
0000
0000
0220
0000
0000
0000
0330
0000
0000
0000
,
1001
0000
0000
1000
1010
0010
0100
0000
,
0000
0000
0000
0010
0110
0100
0001
1000
,
1001
0000
0000
0001
0101
0100
0010
0000
,
0000
0000
0000
0100
0110
0010
1000
0001
,
1001
0000
0000
1000
1100
0100
0010
0000
,
0000
0000
0000
0000
0000
0000
0010
0000
0011
0000
0000
0001
0000
0000
1000
0000
,
0200
0000
0000
0000
0310
0000
0100
0000
1000
0000
0000
1010
0000
0000
0001
0000
,
0000
0101
0000
0000
0010
0000
0000
0000
0110
0000
0100
0000
0001
0000
1000
0000
,
0010
0000
0010
0000
0010
0000
0100
0000
0100
0000
0100
0000
,
0001
0000
0001
0000
0001
0000
1000
0000
1000
0000
1000
0000
,
0100
0000
0100
0000
0100
0000
0010
0000
0010
0000
0010
0000
,
0001
0000
0001
0000
0001
0000
1000
0000
1000
0000
1000
0000
,
0010
0000
0100
0000
0001
0000
0101
0000
0100
0010
0100
0000
,
0010
0000
1000
0000
0100
0000
1100
0000
1000
0000
0001
0000
,
0100
0000
0010
0000
1000
0000
1010
0000
0010
0100
0010
0000
,
0100
0000
0001
0000
0010
0000
0011
0000
0001
0000
1000
0000
,
0100
0000
0010
0000
0001
0000
1001
0000
1000
0000
0010
0000
,
0100
0000
0001
0000
0010
0000
0110
0000
0100
0000
1000
0000
,
0010
0000
0100
0000
0001
0000
0011
0000
0010
0000
0001
0000
,
0100
0000
0010
0000
1000
0000
1100
0000
0100
0000
0010
0000
,
0002
0000
0100
0000
0103
0000
2000
0000
0100
0000
3100
0000
,
0002
0000
0010
0000
0013
0000
2000
0000
0010
0000
3010
0000
,
0001
0000
0100
0000
1000
0000
0010
0000
0001
0000
0100
0000
,
0010
1000
0010
1000
0010
1000
0002
0000
0000
0000
0000
0000
,
0013
0000
0001
0000
0010
0000
0100
0000
1000
0100
1000
0000
,
0100
0000
0010
0000
0001
0000
2002
0000
0000
3003
0000
0000
,
1000
0000
0010
0000
0100
0000
1000
0000
0100
0000
0010
0000
,
1000
0000
0100
0000
0010
0000
0002
0000
0000
2003
0000
0000
,
3001
0000
0100
0000
0010
0000
0001
0000
0010
0000
0100
0000
,
0001
0000
0010
0000
0100
0000
1000
0000
1010
0000
0101
0000
,
0001
0000
0010
0000
1000
0000
0001
0000
0100
0000
1000
0000
,
0020
0000
0000
0230
0000
0000
0310
0000
1000
0000
0100
0000
,
0010
0001
0010
0000
0100
0000
1000
0100
1000
0000
0100
0000
,
0010
0001
0010
0000
0100
0000
1000
0010
0100
0001
1000
0010
,
0100
0001
0100
0000
0010
0000
1000
0010
1000
0000
0010
0000
,
0100
0001
0100
0000
0010
0000
1000
0100
0010
0001
1000
0000
,
2002
0000
0000
0000
,
0000
0000
0000
3003
,
0110
0000
0000
0000
;

//---------------dance-single - ----------------
#NOTEDATA:;
#CHARTNAME:;
#STEPSTYPE:dance-single;
#DESCRIPTION:;
#CHARTSTYLE:;
#DIFFICULTY:Hard;
#METER:14;
#RADARVALUES:0.645185,0.779477,0.474567,0.292650,0.984727,571.000000,511.000000,60.000000,37.000000,0.000000,0.000000,0.000000,0.000000,0.000000,0.645185,0.779477,0.474567,0.292650,0.984727,571.000000,511.000000,60.000000,37.000000,0.000000,0.000000,0.000000,0.000000,0.000000;
#CREDIT:MILEN;
#NOTES:
0000
0000
0000
0000
,
0000
0000
0000
0000
,
0000
0000
0000
0000
,
0000
0000
0000
0000
,
0000
0000
0000
0000
,
1000
1000
0010
0010
,
0001
0001
0100
0100
,
1000
0010
0001
0100
,
2002
0000
0000
0000
0000
0000
0000
0000
0000
0000
0000
0000
3003
0000
0000
0000
0000
0000
0000
0000
0000
0000
0000
0000
1000
0000
0000
0001
0000
0000
1000
0000
0000
0001
0000
0000
1000
0000
0000
0000
0010
0000
0000
0000
0100
0000
0000
0000
,
0001
0000
0000
0001
0000
0000
0001
0000
1000
0000
0000
1000
0000
0000
1000
0000
,
0010
0000
0000
0010
0000
0000
0010
0000
0120
0000
0000
0100
0000
0000
0130
0000
,
0110
0000
0000
0001
0000
0000
1000
0000
2001
0000
0000
0001
0000
0000
3001
0000
,
0001
0000
0000
0100
0000
0000
1000
0000
0010
0000
0000
0001
0000
0000
0100
0000
,
0110
1010
0101
0011
,
1100
1001
0110
1001
,
0001
0010
0001
0000
1000
0100
1000
0000
0010
0100
0010
0100
0010
0100
0010
0100
,
0010
0000
1000
0000
0001
0000
0000
2002
0000
0000
3003
0000
1000
0001
1000
0001
,
0200
0000
0000
0000
0310
0000
0100
0001
0100
0000
0010
1000
0020
0000
0000
0000
,
0000
0000
0130
0001
0100
0001
0010
0100
0010
0000
0100
1000
0000
0100
0010
0000
,
0002
0000
0000
0000
0103
0010
0100
0010
1000
0000
0100
1000
0000
0010
1000
0000
,
0001
0100
0000
0001
0010
0000
0000
0000
0110
0000
0000
0000
2000
0000
3002
0000
,
0203
0000
0000
0000
0310
1000
0010
1000
0100
0000
0010
0001
0200
0000
0000
0320
,
0000
0000
2030
0000
0000
3001
0000
0001
0100
0000
0010
1000
0000
0100
0000
0000
,
0220
0000
0330
0000
0010
0001
0010
0001
0100
0000
0001
0010
0000
0100
1000
0000
,
0010
1000
0000
0100
0010
0000
0000
0000
0110
0000
0100
1000
0000
0001
0000
0000
,
0010
0100
0010
0000
0001
0000
0100
0010
0100
0010
0000
1000
0100
0000
1000
0000
,
0010
0100
0000
0001
0010
0000
0001
0000
1000
0010
1000
0010
0100
0001
0100
0001
,
0010
0100
1000
0000
0100
0000
0010
0100
1000
0000
0100
0010
0000
0001
0010
0000
,
0001
0100
0000
0010
1000
0000
0100
1000
0100
0010
0100
0010
0001
0100
0010
1000
,
0002
0000
0000
0000
0103
0010
0000
1000
0000
0010
0000
0100
0000
0001
0000
0010
,
0000
0100
0000
1000
0010
0000
0100
0000
0001
0010
0000
0100
1000
0100
1000
0100
,
0020
0000
0000
0000
0031
0100
0001
0100
0010
0000
1000
0100
0000
0010
0001
0000
,
1000
0010
0000
0100
0002
0000
0000
0000
2000
0000
0000
0000
3003
0000
0000
0000
,
1000
0000
0000
0010
0000
0000
0100
0000
0000
1000
0000
0000
0100
0000
0000
0001
,
0000
0000
1000
0000
0000
0010
0000
0000
0001
0000
0000
0010
0000
0000
0100
0000
,
0000
0001
0000
0000
0010
0000
0000
0100
0000
0000
0001
0000
0000
0100
0000
0000
,
1000
0000
0000
0001
0000
0000
0010
0000
0000
1000
0000
0000
0010
0000
0000
0100
,
0000
0000
1000
0000
0000
0010
0000
0000
0001
0000
0000
1000
0000
0000
0100
0000
,
0000
0001
0000
0000
0010
0000
0000
0100
0010
0100
0000
1000
0001
0000
0100
0000
,
0220
0000
0000
0000
0330
0000
0000
0000
0110
0000
0010
1000
0000
1000
0100
0000
,
0100
0010
0000
0010
0002
0000
0000
0000
1003
0000
0000
0000
0200
0000
0320
0000
,
1030
0000
0100
0000
1000
0000
0010
0000
0001
0000
0010
0000
,
0100
0000
1000
0000
0100
0000
0001
0000
0010
0000
0001
0000
,
1000
0000
0010
0000
1000
0000
0100
0000
0001
0000
0100
0000
,
0010
0000
1000
0000
0010
0000
0001
0000
0100
0000
0001
0000
,
1000
0100
0010
0100
1000
0000
1010
0000
0010
0100
0001
0000
,
0010
0001
0100
0010
0100
0001
0011
0000
0010
0100
1000
0000
,
0001
0010
0100
0010
0001
0000
0101
0000
0100
0010
1000
0000
,
0100
1000
0010
0100
0010
1000
1100
0000
0100
0010
0001
0000
,
1000
0010
0100
0000
0100
0001
0000
0001
0010
0100
1000
0100
,
0010
0001
0100
0000
0100
1000
0000
1000
0100
0001
0010
0100
,
1000
0010
0100
0001
0010
0100
1100
0000
0001
0010
1000
0000
,
0001
0100
0010
1000
0100
0010
0011
0000
1000
0100
0001
0000
,
0011
0000
0101
0000
1100
0000
1010
0000
0010
0100
0010
0000
,
1100
0000
0100
0010
0100
0000
0011
0000
0010
0100
0010
0000
,
0101
0000
1100
0000
1010
0000
0011
0000
1001
0000
0110
0000
,
1000
0010
0001
1000
0100
0001
0020
0000
0000
0000
0000
0000
,
0130
0000
1000
0100
0010
0001
0101
0000
1000
0010
0100
0001
,
0010
0000
0001
0010
0100
1000
1010
0000
0001
0100
0010
1000
,
0100
0000
0100
0001
0000
0001
0011
0000
0010
0001
0000
0001
,
0100
0000
0100
1000
0000
1000
1020
0000
0000
0230
0000
0000
,
0302
0000
0000
1003
0100
0010
0110
0000
0001
0010
0100
0000
,
1010
0000
0000
0000
1000
0000
0001
0000
0010
0000
0100
0000
0110
0000
0000
0000
0000
0001
0100
0000
0010
1000
0000
0000
,
0002
0000
1003
0010
0100
0000
1100
0000
0001
0010
0000
0010
,
2000
0000
0000
3200
0000
0000
0310
0001
1000
0100
0010
0001
,
0101
0000
1100
0000
1010
0000
0101
0000
0011
0000
1010
0000
,
0101
0000
1100
0000
1010
0000
0011
0001
0100
0010
1000
0100
,
0001
0100
1000
0010
0110
0000
0100
0001
0010
0100
1100
0000
,
1000
0010
0001
0010
1010
0000
0001
0100
1000
0100
0101
0000
,
2002
0000
0000
0000
,
0000
0000
0000
3003
,
0220
0000
0000
0000
,
0000
0000
0000
0000
,
0330
0000
0000
0000
;

//---------------dance-double - ----------------
#NOTEDATA:;
#CHARTNAME:;
#STEPSTYPE:dance-double;
#DESCRIPTION:;
#CHARTSTYLE:;
#DIFFICULTY:Hard;
#METER:14;
#RADARVALUES:0.615807,0.721738,0.355925,0.292650,0.953089,545.000000,500.000000,45.000000,37.000000,0.000000,0.000000,0.000000,0.000000,0.000000,0.615807,0.721738,0.355925,0.292650,0.953089,545.000000,500.000000,45.000000,37.000000,0.000000,0.000000,0.000000,0.000000,0.000000;
#CREDIT:MILEN;
#NOTES:
// measure 0
00000000
00000000
00000000
00000000
,  // measure 1
00000000
00000000
00000000
00000000
,  // measure 2
00000000
00000000
00000000
00000000
,  // measure 3
00000000
00000000
00000000
00000000
,  // measure 4
00000000
00000000
00000000
00000000
,  // measure 5
00000001
00000001
00000010
00000010
,  // measure 6
00001000
00001000
00010000
00010000
,  // measure 7
01000000
10000000
00100000
00010000
,  // measure 8
00022000
00000000
00000000
00000000
00000000
00000000
00000000
00000000
00000000
00000000
00000000
00000000
00033000
00000000
00000000
00000000
00000000
00000000
00000000
00000000
00000000
00000000
00000000
00000000
00001000
00000000
00000000
00010000
00000000
00000000
00001000
00000000
00000000
00010000
00000000
00000000
00001000
00000000
00000000
00000000
00010000
00000000
00000000
00000000
00001000
00000000
00000000
00000000
,  // measure 9
00010000
00000000
00000000
00000010
00000000
00000000
00010000
00000000
00001000
00000000
00000000
01000000
00000000
00000000
00001000
00000000
,  // measure 10
00010000
00000000
00000000
00000100
00000000
00000000
00010000
00000000
00012000
00000000
00000000
00010000
00000000
00000000
00013000
00000000
,  // measure 11
00101000
00000000
00000000
00011000
00000000
00000000
00010010
00000000
00021000
00000000
00000000
00001000
00000000
00000000
00031000
00000000
,  // measure 12
00010000
00000000
00000000
00100000
00000000
00000000
00010000
00000000
00001000
00000000
00000000
00000010
00000000
00000000
00001000
00000000
,  // measure 13
00011000
01000000
10010000
00100000
,  // measure 14
00011000
00000100
00001001
00000010
,  // measure 15
00000100
00000010
00000100
00000000
00001000
00010000
00001000
00000000
00010000
00001000
00010000
00000000
00100000
01000000
00100000
00000000
,  // measure 16
10000000
00000000
01000000
00000000
00010000
00000000
00000000
00022000
00000000
00000000
00033000
00000000
00001000
00010000
00001000
00010000
,  // measure 17
00000200
00000000
00000000
00000000
00000310
00000000
00000010
00000001
00000010
00000000
00000100
00001000
00000200
00000000
00000000
00000000
,  // measure 18
00000000
00000000
00010300
00001000
00010000
00001000
00100000
00010000
00100000
00000000
01000000
10000000
00000000
01000000
00100000
00000000
,  // measure 19
00020000
00000000
00000000
00000000
10030000
00100000
10000000
00100000
10000000
00000000
00000000
01000000
00000000
00100000
01000000
00000000
,  // measure 20
01000000
00010000
00000000
00010000
00001000
00000000
00000000
00000000
00011000
00000000
00000000
00000000
00020000
00000000
00032000
00000000
,  // measure 21
00003020
00000000
00000000
00000000
00000031
00000100
00000001
00000100
00000010
00000000
00001000
00000100
00000020
00000000
00000000
00002030
,  // measure 22
00000000
00000000
00023000
00000000
00000000
01030000
00000000
00100000
01000000
00000000
10000000
01000000
00000000
10000000
00000000
00000000
,  // measure 23
20020000
00000000
30030000
00000000
00010000
01000000
00010000
01000000
00010000
00000000
00000000
10000000
00000000
00010000
01000000
00000000
,  // measure 24
01000000
00001000
00000000
00001000
00010000
00000000
00000000
00000000
00011000
00000000
00001000
00010000
00000000
00000010
00000000
00000000
,  // measure 25
00000100
00000010
00000100
00000000
00000001
00000000
00000100
00000010
00000100
00000010
00000000
00000100
00001000
00000000
00010000
00000000
,  // measure 26
01000000
00100000
00000000
01000000
00010000
00000000
00001000
00000000
00100000
00010000
00100000
00000000
00001000
00010000
00001000
00000000
,  // measure 27
00000100
00000010
00000100
00000000
00000001
00000000
00000010
00000100
00000010
00000000
00001000
00010000
00000000
00010000
00100000
00000000
,  // measure 28
00100000
10000000
00000000
10000000
01000000
00000000
00100000
00000000
00010000
00100000
00001000
00000000
00010000
00000100
00001000
00000100
,  // measure 29
00002000
00000000
00000000
00000000
00003001
00000100
00000000
00000010
00000000
00001000
00000000
00000100
00000000
00000010
00000000
00001000
,  // measure 30
00000000
00010000
00000000
01000000
00100000
00000000
01000000
00000000
10000000
00100000
00000000
00010000
00100000
01000000
00100000
00000000
,  // measure 31
20000000
00000000
00000000
00000000
30010000
01000000
00010000
01000000
00001000
00000000
00000000
00010000
00000000
00000000
00000010
00000000
,  // measure 32
00001000
00000100
00000000
00000010
00000002
00000000
00000000
00000000
00002000
00000000
00000000
00000000
00003003
00000000
00000000
00000000
,  // measure 33
00001000
00000000
00000000
00000001
00000000
00000000
00000100
00000000
00000000
00001000
00000000
00000000
00010000
00000000
00000000
00100000
,  // measure 34
00000000
00000000
10000000
00000000
00000000
01000000
00000000
00000000
00010000
00000000
00000000
00001000
00000000
00000000
00000100
00000000
,  // measure 35
00000000
00000001
00000000
00000000
00000010
00000000
00000000
00001000
00000000
00000000
00010000
00000000
00000000
01000000
00000000
00000000
,  // measure 36
10000000
00000000
00000000
00100000
00000000
00000000
00010000
00000000
00000000
00001000
00000000
00000000
00100000
00000000
00000000
01000000
,  // measure 37
00000000
00000000
00010000
00000000
00000000
00001000
00000000
00000000
00000010
00000000
00000000
00000100
00000000
00000000
00010000
00000000
,  // measure 38
00000000
00001000
00000000
00000000
00000100
00000000
00000000
00000001
00000010
00000100
00000000
00000010
00001000
00000000
00010000
00000000
,  // measure 39
00022000
00000000
00000000
00000000
00033000
00000000
00000000
00000000
00011000
00000000
00001000
00100000
00000000
00100000
01000000
00000000
,  // measure 40
01000000
10000000
00000000
10000000
00200000
00000000
00000000
00000000
00310000
00000000
00000000
00000000
00020000
00000000
00032000
00000000
,  // measure 41
00003010
00000000
00000001
00000000
00000100
00000000
00001000
00000000
00010000
00000000
00100000
00000000
,  // measure 42
10000000
00000000
01000000
00000000
00010000
00000000
00001000
00000000
00000100
00000000
00000001
00000000
,  // measure 43
00000010
00000000
00001000
00000000
00010000
00000000
01000000
00000000
10000000
00000000
00100000
00000000
,  // measure 44
00010000
00000000
00001000
00000000
00000100
00000000
00000001
00000000
00000010
00000000
00000100
00000000
,  // measure 45
00010000
00001000
00010000
00001000
00000010
00000000
00000100
00000000
00000010
00001000
00010000
00000000
,  // measure 46
00001000
00010000
00001000
00010000
01000000
00100000
01000000
00000000
10000000
00100000
00010000
00000000
,  // measure 47
00001000
00010000
00001000
00010000
00100000
00000000
01000000
00000000
00100000
00010000
00001000
00000000
,  // measure 48
00010000
00001000
00010000
00001000
00000100
00000010
00000100
00000000
00000001
00000010
00001000
00000000
,  // measure 49
00010000
01000000
10000000
00000000
10000000
00100000
00000000
00100000
00010000
00001000
00010000
00100000
,  // measure 50
00010000
00001000
00000010
00000000
00000010
00000001
00000000
00000001
00000100
00001000
00000100
00000001
,  // measure 51
00000100
00001000
00010000
00100000
10000000
01000000
01100000
00000000
10000000
00100000
00010000
00000000
,  // measure 52
00100000
00010000
00001000
00000100
00000001
00000010
00000110
00000000
00000001
00000100
00001000
00000000
,  // measure 53
00011000
00000000
00010010
00000000
00011000
00000000
01001000
00000000
01000000
00100000
00010000
00000000
,  // measure 54
00011000
00000000
00001000
00000100
00000010
00000000
00000110
00000000
00000100
00001000
00010000
00000000
,  // measure 55
00011000
00000000
00101000
00000000
00011000
00000000
00010100
00000000
00000110
00000000
00001001
00000000
,  // measure 56
00000001
00000100
00001000
00010000
00100000
10000000
02000000
00000000
00000000
00000000
00000000
00000000
,  // measure 57
03100000
00000000
00010000
00100000
01000000
10000000
00100000
00000000
00100000
00010000
00001000
00000100
,  // measure 58
00000010
00000000
00000010
00001000
00000100
00000001
00000100
00000000
00000100
00000010
00000001
00000100
,  // measure 59
00001000
00000000
00001000
00010000
00000000
00010000
00011000
00000000
00001000
00010000
00000000
00010000
,  // measure 60
00100000
00000000
00100000
10000000
00000000
10000000
10020000
00000000
00000000
02030000
00000000
00000000
,  // measure 61
03002000
00000000
00000000
00013000
00100000
00001000
00000010
00000000
00000010
00000100
00000001
00000000
,  // measure 62
00000011
00000000
00000000
00000000
00000010
00000000
00001000
00000000
00010000
00000000
01000000
00000000
10000000
00000000
00000000
00000000
00000000
00100000
01000000
00000000
00100000
01000000
00000000
00000000
,  // measure 63
00020000
00000000
10030000
01000000
00100000
00000000
00011000
00000000
00001000
00000010
00000000
00000100
,  // measure 64
00000020
00000000
00000000
00000032
00000000
00000000
00000103
00001000
00010000
00100000
10000000
01000000
,  // measure 65
01100000
00000000
00101000
00000000
00011000
00000000
01001000
00000000
00011000
00000000
00010010
00000000
,  // measure 66
00011000
00000000
00010100
00000000
00000110
00000000
00000001
00000100
00001000
00000001
00000010
00001000
,  // measure 67
00000100
00000010
00001000
00010000
01000000
00000000
01000000
10000000
00100000
00010000
00001000
00000000
,  // measure 68
00001000
00100000
01000000
00010000
00001000
00000000
00001000
00000010
00000001
00000100
00001000
00000000
,  // measure 69
00022000
00000000
00000000
00000000
,  // measure 70
00000000
00000000
00000000
00033000
,  // measure 71
20020000
00000000
00000000
00000000
,  // measure 72
00000000
00000000
00000000
00000000
,  // measure 73
30030000
00000000
00000000
00000000
;

//---------------dance-double - ----------------
#NOTEDATA:;
#CHARTNAME:;
#STEPSTYPE:dance-double;
#DESCRIPTION:;
#CHARTSTYLE:;
#DIFFICULTY:Easy;
#METER:5;
#RADARVALUES:0.180787,0.252707,0.102823,0.134461,0.000000,160.000000,147.000000,13.000000,17.000000,0.000000,0.000000,0.000000,0.000000,0.000000,0.180787,0.252707,0.102823,0.134461,0.000000,160.000000,147.000000,13.000000,17.000000,0.000000,0.000000,0.000000,0.000000,0.000000;
#CREDIT:MILEN;
#NOTES:
// measure 0
00000000
00000000
00000000
00000000
,  // measure 1
00000000
00000000
00000000
00000000
,  // measure 2
00000000
00000000
00000000
00000000
,  // measure 3
00000000
00000000
00000000
00000000
,  // measure 4
00000000
00000000
00000000
00000000
,  // measure 5
00001000
00000000
00001000
00000000
,  // measure 6
00010000
00000000
00010000
00000000
,  // measure 7
00001000
00000000
00010000
00000000
,  // measure 8
00001000
00000000
00010000
00010000
,  // measure 9
00010000
00000000
00000100
00000000
,  // measure 10
00010000
00000000
00001000
00000000
,  // measure 11
00100000
00000000
00001000
00000000
,  // measure 12
00010000
00000000
00001000
00000000
,  // measure 13
00010000
00000010
00010000
00000000
,  // measure 14
00001000
01000000
00001000
00000000
,  // measure 15
00010000
00001000
00010000
00001000
,  // measure 16
00022000
00000000
00000000
00033000
,  // measure 17
00011000
00000000
00010000
02000000
,  // measure 18
00000000
03000000
10000000
10000000
,  // measure 19
10000000
00000000
00100000
01000000
,  // measure 20
00100000
01000000
00100000
00000000
,  // measure 21
02000000
03000000
00001000
00010000
,  // measure 22
00001000
00010000
00001000
00000000
,  // measure 23
00000020
00000030
00000001
00000001
,  // measure 24
00000001
00000100
00000010
00001000
,  // measure 25
00001001
00000000
00000001
00000100
,  // measure 26
00001000
00010000
00001000
00000000
,  // measure 27
00020000
00030000
01000000
10000000
,  // measure 28
01000000
00100000
01000000
00000000
,  // measure 29
20000000
30000000
00100000
00010000
,  // measure 30
00001000
00010000
00100000
00000000
,  // measure 31
02000000
03000000
00010000
00100000
,  // measure 32
00001000
00010000
00000200
00000300
,  // measure 33
00000110
00000000
00000001
00000000
,  // measure 34
00000000
00000000
00000100
00000000
,  // measure 35
00000000
00000000
00001000
00000000
,  // measure 36
00000000
00000000
00010000
00000000
,  // measure 37
00000000
00000000
00100000
00000000
,  // measure 38
00000000
00000000
10000000
00000000
,  // measure 39
02000000
03000000
00100000
00010000
,  // measure 40
00100000
01000000
00020000
00000000
,  // measure 41
00031000
00000000
00010000
00000000
,  // measure 42
00001000
00000000
00010000
00000000
,  // measure 43
00001000
00000000
00010000
00000000
,  // measure 44
00001000
00000000
00010000
00000000
,  // measure 45
00001000
00000000
00000100
00000000
,  // measure 46
00000001
00000000
00000010
00000000
,  // measure 47
00001000
00000000
00010000
00000000
,  // measure 48
01000000
00000000
10000000
00000000
,  // measure 49
00100000
00000000
00010000
00000000
,  // measure 50
00001000
00000000
00000010
00000000
,  // measure 51
00000001
00000000
00000100
00000000
,  // measure 52
00001000
00000000
00010000
00000000
,  // measure 53
00100000
00000000
10000000
00000000
,  // measure 54
01000000
00000000
00100000
00000000
,  // measure 55
00101000
00000000
00011000
00000000
,  // measure 56
00010010
00000000
00000220
00000330
,  // measure 57
00000100
00000000
00000001
00000000
,  // measure 58
00000010
00000000
00000100
00000000
,  // measure 59
00001000
00000000
00010000
00000000
,  // measure 60
00100000
00000000
01000000
00000000
,  // measure 61
10000000
00000000
00100000
00000000
,  // measure 62
00010000
00000000
00001000
00000000
,  // measure 63
00000100
00000000
00000001
00000000
,  // measure 64
00000010
00000000
00000100
00000100
,  // measure 65
00001001
00000000
00000100
00000000
,  // measure 66
00011000
00000000
00200000
00300000
,  // measure 67
10010000
00000000
01000000
00000000
,  // measure 68
00011000
00000000
00000200
00000300
,  // measure 69
00002002
00000000
00000000
00000000
,  // measure 70
00000000
00000000
00000000
00000000
,  // measure 71
00003003
00000000
00000000
00000000
;

//---------------dance-double - ----------------
#NOTEDATA:;
#CHARTNAME:;
#STEPSTYPE:dance-double;
#DESCRIPTION:;
#CHARTSTYLE:;
#DIFFICULTY:Medium;
#METER:11;
#RADARVALUES:0.447449,0.533493,0.300559,0.253102,0.525979,396.000000,358.000000,38.000000,32.000000,0.000000,0.000000,0.000000,0.000000,0.000000,0.447449,0.533493,0.300559,0.253102,0.525979,396.000000,358.000000,38.000000,32.000000,0.000000,0.000000,0.000000,0.000000,0.000000;
#CREDIT:MILEN;
#NOTES:
// measure 0
00000000
00000000
00000000
00000000
,  // measure 1
00000000
00000000
00000000
00000000
,  // measure 2
00000000
00000000
00000000
00000000
,  // measure 3
00000000
00000000
00000000
00000000
,  // measure 4
00000000
00000000
00000000
00000000
,  // measure 5
10000000
10000000
01000000
01000000
,  // measure 6
00010000
00010000
00001000
00001000
,  // measure 7
00000010
00000001
00000100
00001000
,  // measure 8
00022000
00000000
00033000
00000000
00010000
00001000
00010000
00001000
,  // measure 9
02000000
00000000
03002000
00000000
,  // measure 10
00023000
00000000
00000000
00000000
00000000
00000000
00000000
00000000
00030010
00000000
00000000
00010000
00000000
00000000
00001000
00000000
,  // measure 11
00022000
00000000
00000000
00000000
00033000
00000000
00000000
00000000
00100000
00000000
00000000
00001000
00000000
00000000
00010000
00000000
,  // measure 12
00022000
00033000
00020200
00030300
,  // measure 13
00000100
00000010
00001000
00010000
,  // measure 14
01000000
00100000
00001000
00010000
,  // measure 15
00000010
00001000
00000100
00010000
00001000
00100000
00010000
01000000
,  // measure 16
02200000
00000000
00000000
00000000
03300000
00000000
00100000
01000000
,  // measure 17
00200000
00000000
10300000
01000000
00100000
00010000
00200000
00000000
,  // measure 18
00000000
00000000
00301000
00000000
00001000
00000000
00010000
00000000
00000100
00000000
00000000
00001000
00000000
00000000
00000001
00000000
,  // measure 19
00002000
00000000
00000000
00000000
00003001
00000000
00000100
00000000
00000010
00000000
00000000
00001000
00000000
00000000
00000100
00000000
,  // measure 20
00000000
00010000
00000000
00000000
00001000
00000000
00000000
00000000
00011000
00000000
00000000
00000000
00010000
00000000
00001000
00000000
,  // measure 21
00200000
00000000
00000000
00000000
00310000
00000000
00100000
00000000
01000000
00000000
00000000
00000000
11000000
00000000
00000000
10000000
,  // measure 22
00000000
00000000
00100000
00000000
00000000
01000000
00000000
00000000
00010000
00000000
00100000
00000000
01000000
00000000
00100000
00000000
,  // measure 23
00020000
00000000
00000000
00000000
00130000
00000000
00001000
00000000
00010000
00000000
00000000
00000100
00000000
00000000
00001000
00000000
,  // measure 24
00000000
00000100
00000000
00000000
00000010
00000000
00000000
00000000
00000100
00000000
00000010
00000000
00000001
00000000
00000100
00000000
,  // measure 25
00001000
00000000
00001000
00000000
01000000
00000000
00010000
00000000
00110000
00000000
00000000
00100000
00000000
00000000
01000000
00000000
,  // measure 26
11000000
00000000
00000000
10000000
00000000
00000000
00100000
00000000
01100000
00000000
01000000
00000000
00010000
00000000
00100000
00000000
,  // measure 27
01000000
00000000
01000000
00000000
00010000
00000000
00001000
00000000
00011000
00000000
00000000
00010000
00000000
00000000
00000100
00000000
,  // measure 28
00000000
00001000
00000000
00000000
00001001
00000000
00000001
00000000
00000100
00000000
00000010
00000000
00001000
00000000
00000001
00000000
,  // measure 29
00000200
00000000
00000000
00000000
00000310
00000000
00010000
00000000
00001000
00000000
00100000
00000000
00010000
00000000
00000000
01000000
,  // measure 30
00000000
00000000
00100000
00000000
00000000
10000000
00000000
00000000
11000000
00000000
01000000
00000000
00010000
00000000
00001000
00000000
,  // measure 31
00000020
00000000
00000000
00000000
00000130
00000000
00000010
00000000
00000001
00000000
00000000
00000100
00000000
00000000
00001000
00000000
,  // measure 32
00000000
00010000
00000000
00000000
00100000
00000000
00000000
00000000
02200000
00000000
00000000
00000000
03300000
00000000
00000000
00000000
,  // measure 33
10010000
00000000
00000000
10000000
10100000
00100000
01000000
00000000
,  // measure 34
00000000
00000000
00000000
00001000
00011000
00000000
00000000
00000000
,  // measure 35
00001001
00000000
00000000
00000001
00000101
00000100
00000010
00000000
,  // measure 36
00000000
00000000
00000000
00010000
00011000
00000000
00000000
00000000
,  // measure 37
10010000
00000000
00000000
10000000
11000000
01000000
00100000
00000000
,  // measure 38
00000000
00000000
00000000
00000000
00000000
00000000
00001000
00000000
00011000
00000000
00000000
00010000
00000000
00000000
00000100
00000000
,  // measure 39
00000020
00000000
00000000
00000000
00000031
00000000
00000100
00000000
00000010
00000000
00000000
00001000
00000000
00000000
00010000
00000000
,  // measure 40
00000000
01000000
00000000
00000000
00100000
00000000
00000000
00000000
10100000
00000000
10000000
00000000
00010000
00000000
00100000
00000000
,  // measure 41
00001000
00000000
00001000
00000000
00001000
00000000
00010000
00000000
00010000
00000000
00010000
00000000
,  // measure 42
01000000
00000000
01000000
00000000
01000000
00000000
00010000
00000000
00010000
00000000
00010000
00000000
,  // measure 43
00001000
00000000
00001000
00000000
00001000
00000000
00000100
00000000
00000100
00000000
00000100
00000000
,  // measure 44
00001000
00000000
00001000
00000000
00001000
00000000
00010000
00000000
00010000
00000000
00010000
00000000
,  // measure 45
00100000
00000000
10000000
00000000
01000000
00000000
00100000
00000000
00001000
00010000
00001000
00000000
,  // measure 46
00000100
00000000
00000010
00000000
00000100
00000000
00001001
00000000
00001000
00000000
00000010
00000000
,  // measure 47
00000100
00000000
00000001
00000000
00000010
00000000
00000100
00000000
00010000
00001000
00010000
00000000
,  // measure 48
00100000
00000000
01000000
00000000
00100000
00000000
10010000
00000000
10000000
00000000
01000000
00000000
,  // measure 49
00010000
00000000
00001000
00000000
00010000
00000000
00011000
00000000
00000100
00000000
00001000
00000000
,  // measure 50
00000001
00000000
00000100
00000000
00000001
00000000
00000101
00000000
00000010
00000000
00001000
00000000
,  // measure 51
00000100
00000000
00010000
00000000
00000100
00000000
00010100
00000000
00001000
00000000
01000000
00000000
,  // measure 52
00100000
00000000
10000000
00000000
00100000
00000000
10100000
00000000
01000000
00000000
00010000
00000000
,  // measure 53
00100000
00000000
00001000
00000000
00010000
00000000
00000010
00000000
00010000
00000000
00001000
00000000
,  // measure 54
01000000
00000000
00001000
00000000
00010000
00000000
00000100
00000000
00010000
00000000
00001000
00000000
,  // measure 55
00000100
00000000
00000001
00000000
00000010
00000000
00001000
00000000
00010000
00000000
01000000
00000000
,  // measure 56
10000000
00100000
10000000
00100000
10000000
00100000
00020000
00000000
00000000
00000000
00000000
00000000
,  // measure 57
00031000
00000000
00010000
00000000
00001000
00000000
00000100
00000000
00000001
00000010
00000001
00000000
,  // measure 58
00000100
00000000
00001000
00000000
00010000
00000000
00022000
00000000
00000000
00033000
00000000
00000000
,  // measure 59
00001000
00000000
00010000
00000000
01000000
00000000
10000000
00000000
00100000
00000000
10000000
00000000
,  // measure 60
01000000
00000000
00010000
00000000
00001000
00000000
00000020
00000000
00000000
00000230
00000000
00000000
,  // measure 61
00000310
00000000
00000001
00000000
00000100
00000000
00001000
00000000
00010000
00000000
00001000
00000000
,  // measure 62
00000100
00000000
00001000
00000000
00010000
00000000
00001000
00000000
01001000
00000000
00010010
00000000
,  // measure 63
00010000
00000000
00001000
00000000
00010000
00000000
00100000
00000000
00010000
00000000
00001000
00000000
,  // measure 64
00200000
00000000
00000000
02300000
00000000
00000000
13000000
00000000
00100000
00000000
00010000
00000000
,  // measure 65
00001000
00010000
00001000
00000000
00100000
00000000
00001000
00010000
00001000
00000000
00000010
00000000
,  // measure 66
00001000
00010000
00001000
00000000
00100000
00000000
00101000
00000000
00010100
00000000
00011000
00000000
,  // measure 67
00010000
00001000
00010000
00000000
00000100
00000000
00010000
00001000
00010000
00000000
01000000
00000000
,  // measure 68
00010000
00001000
00010000
00000000
00000100
00000000
00001000
00000001
00000100
00001000
00010000
00000000
,  // measure 69
00022000
00000000
00000000
00000000
,  // measure 70
00000000
00000000
00000000
00033000
,  // measure 71
00011000
00000000
00000000
00000000
;
