#TITLE:Full Moon;
#SUBTITLE:;
#ARTIST:Dreamcatcher;
#TITLETRANSLIT:;
#SUBTITLETRANSLIT:;
#ARTISTTRANSLIT:;
#GENRE:K-POP;
#CREDIT:MUINELIM;
#BANNER:Full Moon.png;
#BACKGROUND:Full Moon-bg.png;
#LYRICSPATH:;
#CDTITLE:;
#MUSIC:Full Moon.mp3;
#OFFSET:-0.160000;
#SAMPLESTART:49.106998;
#SAMPLELENGTH:11.959999;
#SELECTABLE:YES;
#BPMS:0=95,16=190,233=95,262=190,269=380,388=190
;
#STOPS:140=0.947369,233=1.894737,269=0.473686,388=0.315788
;
#BGCHANGES:;
#KEYSOUNDS:;
#ATTACKS:;

//---------------dance-single - ----------------
#NOTES:
     dance-single:
     :
     Beginner:
     6:
     0.171902,0.276561,0.040110,0.048132,0.000000,150.000000,145.000000,5.000000,6.000000,0.000000,0.000000,0.171902,0.276561,0.040110,0.048132,0.000000,150.000000,145.000000,5.000000,6.000000,0.000000,0.000000:
0000
0000
0000
0000
,
0000
0000
0000
0000
,
0000
0000
0000
0000
,
0000
0000
0000
0000
,
1000
0000
0000
1000
,
1000
0000
0000
0000
,
0001
0000
0000
0001
,
0001
0000
0000
0000
,
1000
0000
0000
0000
,
0100
0000
0000
0000
,
0010
0000
0000
0000
,
0001
0000
0000
0000
,
0100
0000
0100
0000
,
0100
0000
0000
0000
,
0010
0000
0010
0000
,
0010
0000
0000
0000
,
1000
0000
0000
0000
,
0001
0000
0000
0000
,
1000
0000
1000
0000
,
1000
0000
0010
0000
,
0001
0000
0100
0000
,
0001
0000
0100
0000
,
0001
0000
1000
0000
,
0001
0000
1000
0000
,
0010
0000
1000
0000
,
0010
0000
1000
0000
,
0001
0000
1000
0000
,
0001
0000
1000
0000
,
0100
0000
0100
0000
,
0010
0000
0010
0000
,
0001
0000
0100
0000
,
0010
0000
0000
0100
,
0100
0000
0001
0000
,
1000
0000
0010
0000
,
0200
0000
0000
0300
,
0100
0010
0000
0000
,
0000
1000
0000
0100
,
0000
0010
0000
0000
,
0000
0001
0000
0010
,
0000
0100
0000
1000
,
0000
0001
0000
1000
,
0000
1001
0000
0000
,
0000
0100
0000
0010
,
0000
0100
0000
0001
,
0000
0010
0000
0000
,
0000
0100
0000
1000
,
0000
0010
0000
0000
,
0000
0100
0000
0010
,
0000
1000
0000
0001
,
0000
0100
0100
0100
,
0100
0200
0000
0300
,
0000
0001
0000
0000
,
0000
0010
0000
0000
,
0000
1000
0000
0000
,
0000
0100
0000
0000
,
0000
0001
0000
1000
,
0000
0001
0000
1000
,
0000
0001
0001
0001
,
0001
0001
0100
0000
,
0010
0000
0100
0000
,
0010
0000
0100
0000
,
0010
0000
1000
0000
,
0100
0000
0001
0000
,
0010
0000
1000
0000
,
0001
0000
2002
0000
,
0000
3003
1001
0000
,
0000
0000
0100
0100
,
0100
0100
0000
0000
,
0010
0000
0000
0000
,
1000
0000
0000
0000
,
0010
0000
0000
0000
,
1000
0000
0000
0000
,
0001
0000
0000
0000
,
0100
0000
0000
0000
,
0001
0000
0000
0000
,
0100
0000
0000
0000
,
0001
0000
0000
0000
,
0010
0000
0000
0000
,
0100
0000
0000
0000
,
1000
0000
0000
0000
,
0001
0000
0000
0000
,
1000
0000
0000
0000
,
0001
0000
0000
0000
,
1001
0000
0000
0000
,
1000
0000
0000
0000
,
0100
0000
0100
0000
,
0100
0000
0000
0000
,
1000
0000
0000
0000
,
0100
0000
0000
0000
,
0010
0000
0000
0000
,
0001
0000
0001
0000
,
0001
0000
0000
0000
,
0100
0000
0000
0000
,
1000
0000
0000
0000
,
0010
0000
0000
0000
,
0001
0000
0000
0000
,
0100
0000
0100
0000
,
0100
0000
0000
2002
,
0000
0000
3003
0000
;

//---------------dance-single - ----------------
#NOTES:
     dance-single:
     :
     Easy:
     9:
     0.299109,0.474105,0.160442,0.168464,0.000000,261.000000,241.000000,20.000000,21.000000,0.000000,0.000000,0.299109,0.474105,0.160442,0.168464,0.000000,261.000000,241.000000,20.000000,21.000000,0.000000,0.000000:
0000
0000
0000
0000
,
0000
0000
0000
0000
,
0000
0000
0000
0000
,
0000
0000
0000
0000
,
1000
0001
0000
0100
,
2000
0000
0000
3000
,
0001
1000
0000
0010
,
0002
0000
1003
0000
,
1001
0000
0100
0010
,
0100
0000
0010
0100
,
0010
0000
0100
0001
,
1000
0010
0110
0000
,
0001
0000
0010
0000
,
0100
0000
1000
0000
,
0010
0100
0001
0000
,
0100
0010
1000
0000
,
0002
0000
0103
0000
,
2000
0000
3010
0000
,
0002
0000
1003
0000
,
1000
0001
0010
0100
,
1000
0010
1000
0010
,
0010
0100
0001
0100
,
0001
0010
0001
0010
,
0100
1000
0100
1000
,
1001
0010
0100
0010
,
1010
0100
0010
0100
,
0101
0010
0100
0010
,
1000
0001
0100
0000
,
0100
0001
0010
0100
,
1000
0010
0100
0010
,
0110
0000
0000
1001
0000
0000
0220
0000
,
0000
0330
0110
0000
,
0001
0000
0000
0001
0000
0000
0100
0000
,
1000
0000
0000
1000
0000
0000
0010
0000
,
0001
1000
0001
1000
,
1001
0110
0000
0010
,
1000
0100
0010
0001
,
0100
0110
0000
0010
,
1000
0100
0010
0001
,
0100
0110
0010
1000
,
0010
0100
0001
0100
,
0010
0000
1000
0000
0000
0001
0000
0000
,
1000
0000
0010
0000
0000
0100
0000
0000
,
0010
0020
0030
1000
,
0100
0010
0000
0010
,
0001
0100
0000
0100
,
0010
1000
0000
0001
,
0010
0100
1000
0100
,
1000
0100
0010
0100
,
0010
0001
0010
0001
,
0010
0001
1000
0001
,
1000
1001
0000
0010
,
0000
0001
0000
0010
,
0000
1000
0000
0010
,
0000
0001
0000
0010
,
0000
0100
0000
1000
,
0000
0001
0000
0010
,
0000
0100
0010
0100
,
0010
0110
2000
3000
,
0200
0300
0002
0003
,
0020
0030
2000
3000
,
0002
0003
2000
0000
,
3100
0000
0002
0000
,
0013
0000
2000
0000
,
3001
0000
0220
0000
,
0000
0330
0010
1000
,
0010
0100
0001
0100
,
0010
1001
0000
0000
,
0000
0000
1000
0000
,
0100
0000
0010
0000
,
0001
0000
1000
0000
,
0100
0000
0000
0000
,
0000
0000
0001
0000
,
0010
0000
0100
0000
,
1000
0000
0001
0000
,
0010
0000
0000
0000
,
1000
0000
0000
0000
,
0001
0000
0000
0000
,
0100
0000
0000
0000
,
0110
0000
0000
0110
,
0000
0000
0110
0000
,
0010
0000
1000
0000
,
0001
0000
0100
0000
,
0010
0000
1000
0000
,
0100
0000
1000
0000
,
0001
0000
0010
0000
,
0001
0000
1000
0000
,
0010
0000
1000
0000
,
0001
0000
0100
0000
,
0001
0000
1000
0000
,
0100
0000
0010
0000
,
0001
0000
0001
0000
,
0100
0000
0100
0000
,
1000
0000
1000
0000
,
0010
0000
0010
0000
,
0001
0000
0100
0000
,
1000
0000
0010
0000
,
0002
0000
0000
2000
,
0000
0000
3003
0000
;

//---------------dance-single - ----------------
#NOTES:
     dance-single:
     :
     Medium:
     13:
     0.515705,0.711157,0.352971,0.417148,0.032088,450.000000,406.000000,44.000000,52.000000,0.000000,0.000000,0.515705,0.711157,0.352971,0.417148,0.032088,450.000000,406.000000,44.000000,52.000000,0.000000,0.000000:
0000
0000
0000
0000
,
0000
0000
0000
0000
,
0000
0000
0000
0000
,
0000
0000
0000
0000
,
1000
0100
0010
0001
,
0220
0000
0000
0330
,
0001
0010
0100
1000
,
0220
0330
1001
1000
,
0001
0000
0100
0010
0000
0110
0000
0000
,
0001
0000
1000
0010
0000
0110
0000
0000
,
1000
0000
0001
0100
0000
0000
0110
0000
,
0010
1000
0000
0000
2002
0000
3003
0000
,
0001
0000
0010
0001
0000
0100
0010
0100
,
0000
0010
1000
0010
0000
0000
1000
0001
,
1000
0000
0100
1000
0000
0100
0000
0010
,
0000
0000
0001
0200
0000
0000
0300
0000
,
0120
0000
0000
2030
0000
0000
3002
0000
,
0023
0000
0000
0230
0000
0000
2300
0000
,
3020
0000
0100
0130
0000
0000
0000
0000
,
1000
0010
0001
0100
,
1100
0000
1000
0010
0100
0000
0001
0000
,
0011
0000
0001
0100
0010
0000
1000
0000
,
1010
1000
0010
0100
,
0001
0010
0100
0010
0000
0001
0000
0100
,
0000
0000
0010
1000
0000
0100
0000
0010
,
0000
0000
0001
0100
0000
0010
0000
0000
,
2000
0000
0000
3002
0000
0000
1003
0000
,
0010
0000
0100
0010
0000
0000
1000
0001
,
0011
0011
1010
1010
,
0101
0101
1100
1100
,
1001
0000
0010
0100
0000
0010
0100
0020
,
0000
0000
0000
0000
1030
0000
1000
0100
,
0010
0000
0001
0100
0000
0010
1000
0001
,
0010
0000
0100
1000
0000
0001
0100
0010
,
1000
0001
1000
0001
1000
0001
1000
0001
,
1001
0000
0220
0000
0330
0000
0010
1000
,
0100
0000
0010
0001
0100
0000
0010
1000
,
0001
0100
0220
0000
0330
0000
0100
0001
,
0010
0000
0100
1000
0010
0000
0100
0001
,
1000
0010
0210
0000
0302
0000
0013
0100
,
1000
0010
0000
0001
0000
0100
0000
1000
,
0000
0000
1010
0000
0010
0100
0000
0001
,
0010
0000
0001
0100
0010
1000
0000
0001
,
0100
0000
1100
0000
1000
0010
0100
0000
,
0001
0010
0100
0000
1000
0100
0010
0000
,
0001
0100
0010
0000
1000
0100
0001
0000
,
1000
0010
0001
0000
0100
0010
0100
0000
,
0010
0100
0001
0010
0001
0010
0100
1000
,
0100
1000
0001
0100
0001
0100
0010
1000
,
0010
1000
0001
0010
0100
1000
0010
0100
,
0001
1000
0100
0100
0100
0100
0100
0000
,
1001
0002
0013
2000
,
3010
0002
0103
2000
,
3010
0002
1003
0200
,
0310
0000
2000
0000
3001
0000
0010
0100
,
0010
0100
0020
0000
0000
0000
1000
0000
,
0030
0200
0000
0001
,
0300
0000
0001
0010
0100
1000
0001
0010
,
0100
1000
1001
0000
0002
0000
0103
0010
,
2000
0000
3001
0010
0200
0000
1300
0010
,
0002
0000
1003
0100
0020
0000
0130
0001
,
0010
0000
0100
0000
1000
0000
0001
0000
0101
0000
0000
1000
0000
0100
0000
0010
,
0000
0000
0100
0000
1100
0000
0000
0000
1010
0000
0000
0001
0000
0010
0000
0100
,
0000
0000
0010
0000
0000
0000
0011
0000
0001
0000
0000
0100
0000
1000
0000
0000
,
0100
0010
2002
0000
,
0000
0000
3003
0000
1001
0000
1000
0010
,
0000
0010
0001
0000
0001
0100
0010
1000
,
0100
0010
0001
0000
2002
0000
0000
0000
,
0000
3003
1000
0010
,
0100
0001
0010
0100
,
1000
0010
0100
0001
,
2002
0000
0000
3003
,
0001
0100
0010
1000
,
0001
0010
0100
1000
,
0001
0100
0220
0330
,
1010
0000
0101
0000
,
0001
0010
0100
1000
,
0000
1100
0000
1010
,
0000
0022
0033
0000
,
0101
0000
0100
1000
,
0000
1000
0010
0100
,
0001
1000
0100
0010
,
0001
0100
0010
1000
,
2002
3003
0001
0010
,
0100
0000
1000
0010
,
0100
0000
0001
0100
,
0010
0000
1000
0100
,
0010
0000
0001
0100
,
1000
0000
0001
0010
,
1000
0000
0100
0010
,
0100
0000
0010
0100
,
1000
0010
0100
0001
,
1000
0100
0010
0001
,
0100
0010
1000
0001
,
0010
0100
1000
0010
,
0100
0001
0100
0000
0001
0000
1000
0000
,
0010
1000
0010
0000
1000
0000
0100
0000
,
0002
0000
0023
0000
0000
2030
0000
0000
,
0000
0000
3000
0000
;

//---------------dance-single - ----------------
#NOTES:
     dance-single:
     :
     Hard:
     16:
     0.744907,1.027227,0.529457,0.569567,0.212585,650.000000,584.000000,66.000000,71.000000,0.000000,0.000000,0.744907,1.027227,0.529457,0.569567,0.212585,650.000000,584.000000,66.000000,71.000000,0.000000,0.000000:
0000
0000
0000
0000
,
0000
0000
0000
0000
,
0000
0000
0000
0000
,
0000
0000
0000
0000
,
0001
0010
0100
2000
0000
3001
0010
0100
,
2000
0000
0000
3000
,
1000
0010
0100
0002
0000
1003
0010
0100
,
0002
0003
1001
0110
,
0010
0000
1000
0100
0000
0202
0303
0000
,
0100
0000
0001
0010
0000
2020
3030
0000
,
1001
0000
0200
0020
0300
0000
0130
0000
,
0010
1000
0002
0000
2000
0000
3003
0000
,
0001
0010
0100
1000
0000
1000
0010
0001
,
0000
0001
0100
2000
0000
0000
3010
0100
,
0001
0000
0001
0010
0000
1010
0000
2200
,
3300
0000
0100
0002
0000
0000
0003
0000
,
0022
0033
0000
0220
0330
0000
1010
0000
,
0202
0303
0000
0220
0330
0000
1100
0000
,
1001
0000
0200
0020
0000
0000
0300
0000
,
0100
0001
0100
1030
,
1001
0001
0100
0010
0100
0001
0011
0100
,
1100
1000
0010
0100
0010
1000
0100
0010
,
0110
0100
0010
0001
1000
0010
0100
0010
,
1010
1000
0001
0010
0100
0010
0001
0100
,
0101
0001
1000
0100
0010
0001
0100
0010
,
0110
0100
0001
0010
0100
0010
0100
1000
,
1001
0001
0100
0010
1000
0100
0020
0000
,
0230
0000
0310
0001
1001
0000
1000
1000
,
0110
0010
0001
0010
1000
0010
0001
0010
,
0110
0100
1000
0100
0001
0100
1000
0100
,
0102
0000
1003
2100
0000
3001
0010
0220
,
0000
0000
0330
0000
1001
0000
0001
0001
,
0110
0100
0010
1010
1000
0001
0101
1000
,
1100
0100
0010
0011
0001
0100
0110
1000
,
1001
0001
0101
0100
0110
0010
1010
1000
,
2002
0000
3003
0000
0220
0000
0000
0000
0330
0000
0000
0000
0010
1000
0010
1000
,
0010
0000
0100
0000
0001
0010
0001
0010
0001
0000
0100
0000
0010
1000
0010
1000
,
0001
0100
0001
0100
0002
0000
0000
0000
0003
0000
0000
0000
0010
0001
0010
0001
,
0010
0000
0100
0000
1000
0010
1000
0010
1000
0000
0100
0000
0010
0001
0010
0001
,
1000
0100
1000
0100
2000
0000
0000
0000
3001
0000
0010
0000
0100
0000
1000
0000
,
0010
0000
0100
0001
0100
0000
0010
1000
0010
0000
0100
0010
0100
0000
0001
1000
,
0002
0003
1001
0100
0010
1001
0010
0100
,
1001
0000
0110
1000
0001
0110
0001
1000
,
0110
0000
0000
0000
2002
0000
3003
0000
0001
0100
0001
0000
0010
0000
0100
0000
,
1000
0010
1000
0000
0100
0000
0010
0000
0001
0010
0001
0000
0100
0000
0010
0000
,
1000
0100
1000
0000
0010
0000
0100
0000
0001
1000
0001
0000
0010
0000
0100
0000
,
1000
0001
1000
0000
0010
0000
1000
0000
0100
0010
0100
0000
0010
0000
0001
0000
,
0100
0010
0100
0000
0020
0000
0000
0000
1030
0100
1000
0000
0100
1000
0100
0000
,
1000
0010
1000
0000
0010
1000
0010
0000
0100
0001
0100
0000
0001
0100
0001
0000
,
0010
0001
0010
0000
0001
0010
0001
0010
0100
0000
1000
0000
0001
0100
0001
0100
,
0010
1000
0001
0001
0010
0010
1000
1000
,
0100
0100
0002
0000
0010
0000
2003
0000
,
0010
3002
0100
2003
,
0100
3020
0001
0230
,
1000
0000
0302
0000
0010
0000
1003
0100
,
0010
0000
0001
0000
0220
0000
0000
0000
0030
0000
1300
0010
0100
0000
0000
0000
,
0000
0000
0000
0000
0220
0000
0000
0000
0030
0000
0301
0010
0100
0000
0000
0000
,
1001
0000
1000
0010
0001
0100
1000
0010
,
0100
0010
0100
0010
0100
0000
0000
0000
0102
0000
0000
0000
0013
0000
1000
0000
,
2100
0000
3100
0001
0012
0000
0103
1000
,
2010
0000
3010
0001
1002
0000
0103
0010
,
0120
0000
0000
0000
1030
0000
0001
0000
0100
0000
0010
1000
0000
0010
0000
0001
,
0000
0000
0010
0000
0110
0000
0000
0000
1001
0000
0001
0100
0000
1000
0000
0002
,
0000
0000
0013
0000
0000
0000
1000
0100
0010
0000
1000
0010
0000
0002
0000
0000
,
2003
3020
0200
0000
,
0000
0000
0000
0330
1010
1000
0001
0101
,
0100
0000
0010
0000
0110
0000
0100
0000
0001
0000
1000
0010
1000
0000
0100
0000
,
0010
0001
1001
0000
1000
0000
0100
0000
,
0010
0001
0100
0010
,
1000
0001
1000
0001
0100
0010
0100
0010
,
1000
0001
0100
0010
2000
0000
0000
0000
,
3001
0000
0001
0100
,
0010
1000
0100
0010
,
0001
0100
0001
0100
0010
1000
0010
1000
,
0001
0100
0010
1000
0200
0000
0000
0000
,
0310
0000
0010
0100
,
1000
0000
0001
0000
0100
0000
0010
1000
,
0010
0000
0100
0001
0100
0000
0001
0010
,
0001
0000
1000
0100
1000
0000
0001
0000
,
0101
0100
0010
0110
,
0100
0010
1010
1000
,
0001
0010
0100
0000
1000
0000
0010
0000
,
0100
0000
0001
0000
1000
0100
0010
0001
,
0200
0000
0000
0000
0310
1000
0100
0000
,
1000
0000
0001
0000
0010
0001
0100
0000
,
0001
0000
1000
0000
0100
0010
0001
0000
,
1000
0000
0001
0000
0010
0100
1000
0000
,
0010
0000
0100
0000
0010
1000
0100
0000
,
0010
0000
0100
0000
0010
0001
0100
0000
,
0010
0000
0100
0000
0010
1000
0001
0000
,
0100
0000
0010
0000
0100
0001
1000
0010
,
0200
0000
0000
0000
0301
0010
0100
0000
,
0010
0001
0100
0000
0010
1000
0100
0000
,
0010
0100
1000
0000
0010
0100
0001
0000
,
0100
0010
1000
0000
0010
0100
0010
0000
,
1000
0100
1000
0001
0100
0001
1000
0010
,
1000
0001
0010
0001
1000
0100
0010
0001
,
0200
0000
2300
0000
0000
0020
0000
0000
,
0000
0000
3030
0000
;

//---------------dance-double - ----------------
#NOTES:
     dance-double:
     :
     Hard:
     16:
     0.701359,0.948209,0.425170,0.553523,0.184508,612.000000,559.000000,53.000000,69.000000,0.000000,0.000000,0.701359,0.948209,0.425170,0.553523,0.184508,612.000000,559.000000,53.000000,69.000000,0.000000,0.000000:
00000000
00000000
00000000
00000000
,
00000000
00000000
00000000
00000000
,
00000000
00000000
00000000
00000000
,
00000000
00000000
00000000
00000000
,
10000000
01000000
00100000
00010000
00000000
00001000
00000100
00000010
,
00000002
00000000
00000000
00000003
,
00000001
00000100
00000010
00001000
00000000
00010000
01000000
00100000
,
20000000
30000000
10010000
01100000
,
00100000
00000000
10000000
01000000
00000000
02020000
03030000
00000000
,
00010000
00000000
00001000
00000100
00000000
00000202
00000303
00000000
,
00001001
00000000
00000020
00000200
00000030
00000000
00000310
00000000
,
00000010
00010000
00002000
00000000
00200000
00000000
00303000
00000000
,
00100000
00010000
10000000
01000000
00000000
00010000
01000000
10000000
,
00000000
10000000
00100000
00020000
00000000
00000000
00031000
00000100
,
00000001
00000000
00000010
00000100
00000000
00001100
00000000
00022000
,
00033000
00000000
00010000
02000000
00000000
00000000
03000000
00000000
,
20200000
30300000
00000000
02020000
03030000
00000000
00101000
00000000
,
00020200
00030300
00000000
00002020
00003030
00000000
00000110
00000000
,
00001001
00000000
00000002
00000200
00000000
00000000
00000003
00000000
,
00002300
00023000
00230000
10300000
,
10010000
00010000
10000000
00100000
01000000
00001000
00011000
00000100
,
00001100
00001000
00000010
00000100
00000001
00000010
00000100
00001000
,
00001100
00000100
00010000
00001000
00100000
00010000
00100000
01000000
,
11000000
10000000
00100000
01000000
00001000
00010000
00000100
00001000
,
00001010
00000010
00000100
00000001
00001000
00000100
00010000
00001000
,
00101000
00100000
00010000
00100000
01000000
10000000
00100000
01000000
,
01100000
00100000
10000000
01000000
00100000
00010000
02000000
00000000
,
03002000
00000000
00013000
00000100
00001100
00000000
00000001
00000001
,
00000101
00000100
00000001
00000010
00001000
00010000
01000000
10000000
,
10100000
00100000
00010000
00001000
00000100
00000001
00000010
00000100
,
00000120
00000000
00001030
00021000
00000000
01030000
10000000
20200000
,
00000000
00000000
30300000
00000000
01010000
00000000
10000000
10000000
,
11000000
01000000
00010000
00011000
00000000
00001000
00010000
00010000
,
00011000
00001000
00000100
00000101
00000000
00000001
00000010
00000010
,
00001010
00001000
00010000
01000000
10000000
00100000
00010000
00001000
,
00011000
00000000
00000000
00000000
00022000
00000000
00000000
00000000
00033000
00000000
00000000
00000000
00001000
00010000
00001000
00000000
,
00100000
00000000
01000000
00000000
10000000
00010000
10000000
00000000
01000000
00000000
00100000
00000000
00010000
01000000
00010000
01000000
,
00001000
00010000
00001000
00010000
00002000
00000000
00000000
00000000
00003000
00000000
00000000
00000000
00010000
00001000
00010000
00000000
,
00000010
00000000
00000100
00000000
00000001
00001000
00000001
00000000
00000100
00000000
00000010
00000000
00001000
00000100
00001000
00000100
,
00010000
00001000
00010000
00001000
00020000
00000000
00000000
00000000
00031000
00000000
00100000
00000000
00010000
00000000
01000000
00000000
,
00100000
00000000
10000000
01000000
00000000
00000000
01000000
00010000
00000000
00000000
00010000
00001000
00000000
00000000
00001000
00000010
,
00000000
00000000
00000110
00000010
00000001
00001000
00000100
00000010
,
00001000
00000000
00010000
01000000
00100000
00010000
01000000
00100000
,
01100000
00000000
00000000
00000000
20020000
00000000
30030000
00000000
10000000
01000000
10000000
00000000
00010000
00000000
01000000
00000000
,
00001000
00010000
00001000
00000000
00010000
00000000
00000010
00000000
00001000
00000100
00001000
00000000
00000001
00000000
00000100
00000000
,
00000010
00000100
00000010
00000000
00010000
00000000
00001000
00000000
01000000
00100000
01000000
00000000
00100000
00000000
10000000
00000000
,
01000000
00010000
01000000
00000000
00010000
00000000
00001000
00000000
00000010
00000001
00000010
00000000
00000001
00000000
00000100
00000000
,
00001000
00010000
00001000
00000000
00020000
00000000
00000000
00000000
00031000
00100000
00010000
00000000
01000000
00100000
10000000
00000000
,
01000000
00100000
00010000
00000000
01000000
00000000
00001000
00000000
00010000
00000100
00001000
00000000
00000010
00000100
00000001
00000000
,
00001000
00000100
00000010
00000000
00000001
00000100
00000001
00000000
00000100
00000000
00001000
00000000
00010000
00100000
00010000
00000000
,
00100000
10000000
01000000
00100000
00010000
01000000
00100000
00010000
,
00011000
00002000
01000000
00023000
,
00000010
00032000
00100000
00023000
,
00000100
00032000
00000010
00023000
,
00100000
00000000
00032000
00000000
00000100
00000000
00013000
01000000
,
10000000
00000000
00100000
00000000
02200000
00000000
00000000
00000000
00300000
00000000
03001000
00010000
00000010
00000000
00000000
00000000
,
00000000
00000000
00000000
00000000
00000220
00000000
00000000
00000000
00000300
00000000
00010030
00001000
00100000
00000000
00000000
00000000
,
01100000
00000000
10000000
00100000
00010000
00001000
00000100
00000001
,
00000010
00000100
00000010
00000100
00000010
00000000
00000000
00000000
00001002
00000000
00000000
00000000
00000103
00000000
00001000
00000000
,
00020000
00000000
00031000
00010000
00200000
00000000
10300000
01000000
,
00020000
00000000
01030000
00010000
00002000
00000000
00013000
00001000
,
00000200
00000000
00000000
00000000
00000301
00000000
00001000
00000000
00000100
00000000
00000010
00001000
00000000
00010000
00000000
00100000
,
00000000
00000000
10000000
00000000
11000000
00000000
00000000
00000000
00110000
00000000
00010000
01000000
00000000
00001000
00000000
00020000
,
00000000
00000000
00030100
00000000
00000000
00000000
00000100
00000010
00000001
00000000
00000100
00001000
00000000
00020000
00000000
00000000
,
00230000
20300000
00020000
00000000
,
00000000
00000000
00000000
30030000
10010000
00010000
01000000
00011000
,
00000100
00000000
00001000
00000000
00001001
00000000
00000100
00000000
00000100
00000000
00000010
00001000
00000010
00000000
00010000
00000000
,
00001000
00010000
00011000
00000000
00001000
00000000
00100000
00000000
,
00010000
01000000
00001000
00100000
,
00010000
00000000
01000000
00000000
10000000
00000000
01000000
00100000
,
01000000
00100000
01000000
00100000
00020000
00000000
00000000
00000000
,
00031000
00000000
00010000
00000010
,
00001000
00000100
00010000
00000010
,
00001000
00000000
00000100
00000000
00000001
00000000
00000100
00000010
,
00000100
00000010
00000100
00000010
00002000
00000000
00000000
00000000
,
00013000
00000000
00010000
01000000
,
10000000
00000000
00100000
00000000
01000000
00000000
00010000
00100000
,
00000000
00000000
00100000
01000000
00000000
00000000
01000000
00010000
,
00000000
00000000
00010000
00001000
00000000
00000000
00000010
00000000
,
00000110
00001000
00010000
00011000
,
00001000
00010000
01100000
00100000
,
10000000
01000000
00100000
00000000
01000000
00000000
00010000
00000000
,
00001000
00000000
00000010
00000000
00000001
00001000
00000010
00000100
,
00000002
00000000
00000000
00000000
00001003
00000100
00010000
00000000
,
00001000
00000000
00100000
00000000
00010000
01000000
00100000
00000000
,
10000000
00000000
00010000
00000000
00100000
01000000
10000000
00000000
,
00100000
00000000
01000000
00000000
00001000
00010000
00000100
00000000
,
00001000
00000000
00000001
00000000
00000100
00000010
00001000
00000000
,
00000100
00000000
00000010
00000000
00001000
00010000
00100000
00000000
,
10000000
00000000
01000000
00000000
00100000
01000000
00010000
00000000
,
00001000
00000000
00100000
00000000
00010000
01000000
00001000
00010000
,
00000200
00000000
00000000
00000000
00001300
00000001
00000100
00000000
,
00000010
00001000
00000100
00000000
00010000
00001000
00100000
00000000
,
00010000
00000000
10000000
00000000
00100000
01000000
00010000
00000000
,
00100000
00001000
00010000
00000000
00000100
00001000
00000010
00000000
,
00000100
00000001
00000100
00000001
00001000
00000100
00001000
00000100
,
00010000
00001000
00010000
00001000
00100000
00010000
00100000
01000000
,
20000000
00000000
30200000
00000000
00000000
00320000
00000000
00000000
,
00000000
00000000
00030000
00000000
;

//---------------dance-double - ----------------
#NOTES:
     dance-double:
     :
     Easy:
     9:
     0.291087,0.395087,0.128353,0.120331,0.000000,254.000000,238.000000,16.000000,15.000000,0.000000,0.000000,0.291087,0.395087,0.128353,0.120331,0.000000,254.000000,238.000000,16.000000,15.000000,0.000000,0.000000:
00000000
00000000
00000000
00000000
,
00000000
00000000
00000000
00000000
,
00000000
00000000
00000000
00000000
,
00000000
00000000
00000000
00000000
,
00001000
00000000
00010000
00000000
,
02000000
00000000
03000000
00000000
,
00010000
00000000
00001000
00000000
,
00000200
00000000
00000300
00000000
,
00000101
00000000
00000001
00000010
,
00000001
00000000
00001000
00000100
,
00001000
00000000
00000010
00010000
,
00001000
00000000
00011000
00000000
,
00010000
00000000
01000000
00000000
,
10000000
00000000
00100000
00000000
,
00010000
00001000
00010000
00000000
,
00001000
00010000
00001000
00000000
,
02000000
03000000
00001000
00000000
,
00020000
00030000
00000100
00000000
,
00002000
00000000
00003001
00000000
,
00000001
00000100
00000010
00010000
,
00001000
00100000
00001000
00010000
,
00010000
00000010
00010000
00010000
,
00001000
01000000
00001000
00001000
,
00010000
00000100
00010000
00010000
,
00011000
00000000
00010000
01000000
,
11000000
00000000
10000000
00100000
,
00110000
00000000
00010000
00001000
,
00000100
00000010
00000100
00000000
,
00000001
00000010
00001000
00010000
,
01000000
10000000
00100000
01000000
,
00100000
00000000
00000000
00010000
00000000
00000000
00022000
00000000
,
00000000
00033000
00011000
00000000
,
00001000
00000000
00000000
00010000
00000000
00000000
00000010
00000000
,
00010000
00000000
00000000
00001000
00000000
00000000
01000000
00000000
,
00001000
00010000
00001000
00010000
,
00011000
00011000
00000000
00001000
,
00100000
00010000
01000000
00001000
,
00010000
00001000
00000000
00010000
,
00000100
00001000
00000010
00010000
,
00001000
00010000
00100000
10000000
,
01000000
00100000
01000000
00010000
,
00001000
00000000
00000010
00000000
00000000
00000001
00000000
00000000
,
00000100
00000000
00001000
00000000
00000000
00010000
00000000
00000000
,
00100000
00200000
00300000
10000000
,
01000000
00100000
00000000
00100000
,
00010000
01000000
00000000
01000000
,
00001000
00010000
00000000
00010000
,
00000100
00001000
00000100
00001000
,
00000010
00010000
00000010
00010000
,
00001000
00100000
00001000
00100000
,
00010000
01000000
00010000
01000000
,
00001000
00011000
00000000
00100000
,
00000000
00010000
00000000
01000000
,
00000000
00001000
00000000
00010000
,
00000000
00000100
00000000
00001000
,
00000000
00000010
00000000
00010000
,
00000000
00001000
00000000
00000100
,
00000000
00000001
00000010
00000100
,
00000010
00000110
00000001
00000000
,
00000100
00000000
00001000
00000000
,
00010000
00000000
00100000
00000000
,
10000000
00000000
02000000
00000000
,
03100000
00000000
00020000
00000000
,
00031000
00000000
00000200
00000000
,
00000310
00000000
00002002
00000000
,
00000000
00003003
00000001
00000100
,
00001000
00010000
00100000
10000000
,
00010000
10010000
00000000
00000000
,
00000000
00000000
10000000
00000000
,
01000000
00000000
00100000
00000000
,
00010000
00000000
00001000
00000000
,
00000100
00000000
00000000
00000000
,
00000000
00000000
00000001
00000000
,
00000010
00000000
00000100
00000000
,
00001000
00000000
00010000
00000000
,
00100000
00000000
00000000
00000000
,
10000000
00000000
00000000
00000000
,
01000000
00000000
00000000
00000000
,
00010000
00000000
00000000
00000000
,
00011000
00000000
00000000
00011000
,
00000000
00000000
00011000
00000000
,
00001000
00000000
00100000
00000000
,
00010000
00000000
01000000
00000000
,
00001000
00000000
00010000
00000000
,
00000100
00000000
00001000
00000000
,
00000010
00000000
00000100
00000000
,
00000001
00000000
00001000
00000000
,
00000100
00000000
00000010
00000000
,
00001000
00000000
00010000
00000000
,
01000000
00000000
00100000
00000000
,
00010000
00000000
10000000
00000000
,
01000000
00000000
00010000
00000000
,
00001000
00000000
00000010
00000000
,
00000001
00000000
00000100
00000000
,
00001000
00000000
00010000
00000000
,
00001000
00010000
00001000
00010000
,
00001000
00010000
00001000
00010000
,
00002000
00000000
00000000
00020000
,
00000000
00000000
00033000
00000000
;

//---------------dance-double - ----------------
#NOTES:
     dance-double:
     :
     Medium:
     13:
     0.503099,0.671648,0.328905,0.417148,0.032088,439.000000,398.000000,41.000000,52.000000,0.000000,0.000000,0.503099,0.671648,0.328905,0.417148,0.032088,439.000000,398.000000,41.000000,52.000000,0.000000,0.000000:
// measure 0
00000000
00000000
00000000
00000000
,  // measure 1
00000000
00000000
00000000
00000000
,  // measure 2
00000000
00000000
00000000
00000000
,  // measure 3
00000000
00000000
00000000
00000000
,  // measure 4
10000000
01000000
00010000
00001000
,  // measure 5
00022000
00000000
00000000
00033000
,  // measure 6
00010000
00001000
00000100
00000001
,  // measure 7
00002002
00003003
00000110
00000010
,  // measure 8
00010000
00000000
00001000
00010000
00000000
00011000
00000000
00000000
,  // measure 9
01000000
00000000
00001000
00010000
00000000
00011000
00000000
00000000
,  // measure 10
00000100
00000000
00010000
00001000
00000000
00000000
00011000
00000000
,  // measure 11
01000000
00010000
00000000
00000000
20020000
00000000
30030000
00000000
,  // measure 12
10000000
00000000
01000000
10000000
00000000
00100000
01000000
00100000
,  // measure 13
00000000
01000000
00010000
01000000
00000000
00000000
00001000
00010000
,  // measure 14
00001000
00000000
00010000
00000100
00000000
00001000
00000000
00000001
,  // measure 15
00000000
00000000
00000100
00000020
00000000
00000000
00000030
00000000
,  // measure 16
00020010
00000000
00000000
00032000
00000000
00000000
00203000
00000000
,  // measure 17
00302000
00000000
00000000
00023000
00000000
00000000
00030200
00000000
,  // measure 18
00020300
00000000
00001000
00031000
00000000
00000000
00000000
00000000
,  // measure 19
00001000
00010000
01000000
10000000
,  // measure 20
10100000
00100000
01000000
00001000
,  // measure 21
00011000
00010000
00000010
00000100
,  // measure 22
00000101
00000001
00000010
00001000
,  // measure 23
00010000
00001000
00010000
01000000
00000000
10000000
00000000
00100000
,  // measure 24
00000000
00000000
01000000
00010000
00000000
00100000
00000000
01000000
,  // measure 25
00000000
00000000
00010000
00001000
00000000
00000010
00000000
00000000
,  // measure 26
00000002
00000000
00000000
00002003
00000000
00000000
00003010
00000000
,  // measure 27
00001000
00000000
00000100
00010000
00000000
00000000
00001000
00100000
,  // measure 28
00010000
01010000
01000000
01100000
,  // measure 29
00100000
10100000
10000000
11000000
,  // measure 30
01000000
00000000
00010000
00001000
00000000
00010000
00001000
00020000
,  // measure 31
00000000
00000000
00000000
00000000
00030010
00000000
00000010
00001000
,  // measure 32
00000100
00000000
00000010
00000001
00000000
00000100
00001000
00010000
,  // measure 33
00100000
00000000
01000000
00100000
00000000
10000000
01000000
00100000
,  // measure 34
00010000
01000000
00010000
01000000
00001000
00010000
00001000
00010000
,  // measure 35
00001000
00000000
00022000
00000000
00033000
00000000
00010000
00000100
,  // measure 36
00001000
00000000
00000100
00000010
00000001
00000000
00001000
00000010
,  // measure 37
00010000
00001000
00022000
00000000
00033000
00000000
00001000
01000000
,  // measure 38
00010000
00000000
00100000
01000000
10000000
00000000
00100000
01000000
,  // measure 39
00001000
00010000
00012000
00000000
00203000
00000000
01300000
00010000
,  // measure 40
00001000
00010000
00000000
00000100
00000000
00001000
00000000
00000010
,  // measure 41
00000000
00000000
00000110
00000000
00000100
00000001
00000000
00000010
,  // measure 42
00000100
00000000
00010000
00001000
00100000
01000000
00000000
10000000
,  // measure 43
00100000
00000000
01100000
00000000
01000000
00010000
00100000
00000000
,  // measure 44
01000000
10000000
00100000
00000000
00010000
00001000
00100000
00000000
,  // measure 45
00001000
00010000
00000010
00000000
00001000
00000100
00000010
00000000
,  // measure 46
00000001
00000010
00000100
00000000
00010000
00001000
00010000
00000000
,  // measure 47
00001000
00100000
00010000
01000000
00100000
10000000
00010000
00100000
,  // measure 48
01000000
00000000
10000000
00100000
01000000
00001000
00010000
00000100
,  // measure 49
00000010
00000000
00000001
00001000
00000010
00010000
00001000
00100000
,  // measure 50
01000000
10000000
00100000
00010000
00001000
00010000
00011000
00000000
,  // measure 51
00001010
00000002
00000103
00002000
,  // measure 52
00013000
00200000
10300000
02000000
,  // measure 53
03000000
20000000
30100000
00020000
,  // measure 54
00031000
00000000
00000200
00000000
00000301
00000000
00000010
00000100
,  // measure 55
00000010
00002001
00000000
00013000
,  // measure 56
00000000
10020000
00000000
00031000
,  // measure 57
00000000
00000000
00010000
00001000
00000100
00000010
00010000
00001000
,  // measure 58
00000100
00000010
00000110
00000000
00000002
00000000
00000103
00001000
,  // measure 59
00020000
00000000
00031000
00010000
00200000
00000000
10300000
01000000
,  // measure 60
00020000
00000000
01030000
00010000
00002000
00000000
00013000
00001000
,  // measure 61
00000100
00000000
00000001
00000000
00000010
00000000
00000100
00000000
00000110
00000000
00000000
00000001
00000000
00000100
00000000
00001000
,  // measure 62
00000000
00000000
00010000
00000000
00100000
00000000
00000000
00000000
10100000
00000000
00000000
10000000
00000000
01000000
00000000
00010000
,  // measure 63
00000000
00000000
00001000
00000000
00000000
00000000
00001100
00000000
00000001
00000000
00000000
00000010
00000000
00000100
00000000
00000000
,  // measure 64
00010000
00001000
00022000
00000000
,  // measure 65
00000000
00000000
00033000
00000000
00011000
00000000
00010000
01000000
,  // measure 66
00000000
10000000
00100000
00000000
10000000
01000000
00100000
00010000
,  // measure 67
01000000
00001000
00010000
00000000
00022000
00000000
00000000
00000000
,  // measure 68
00000000
00033000
00001000
00100000
,  // measure 69
00010000
01000000
00100000
10000000
,  // measure 70
00010000
00100000
01000000
00010000
,  // measure 71
00022000
00000000
00000000
00033000
,  // measure 72
00010000
00000100
00001000
00000010
,  // measure 73
00000100
00000001
00001000
00000100
,  // measure 74
00000010
00001000
00022000
00033000
,  // measure 75
00010010
00000000
01001000
00000000
,  // measure 76
00001000
00010000
00100000
10000000
,  // measure 77
00000000
11000000
00000000
00110000
,  // measure 78
00000000
00022000
00033000
00000000
,  // measure 79
00001010
00000000
00000100
00000001
,  // measure 80
00000000
00000010
00000100
00000010
,  // measure 81
00000001
00000100
00001000
00010000
,  // measure 82
00100000
10000000
01000000
00010000
,  // measure 83
00022000
00033000
00001000
00100000
,  // measure 84
01000000
00000000
00010000
00001000
,  // measure 85
00000010
00000000
00000001
00000100
,  // measure 86
00001000
00000000
00010000
00100000
,  // measure 87
10000000
00000000
01000000
00100000
,  // measure 88
00010000
00000000
00001000
00000100
,  // measure 89
00000010
00000000
00000001
00001000
,  // measure 90
00000001
00000000
00000100
00001000
,  // measure 91
00010000
00100000
10000000
01000000
,  // measure 92
00100000
01000000
00010000
00001000
,  // measure 93
00010000
00000010
00000100
00000010
,  // measure 94
00000001
00001000
00000100
00000001
,  // measure 95
00000010
00001000
00010000
01000000
,  // measure 96
10000000
00100000
00010000
00001000
,  // measure 97
00021000
00000000
00030200
00000000
00000000
00000020
00000000
00000000
,  // measure 98
00000000
00000000
00000330
00000000
;
