#TITLE:Friends (feat. Anne-Marie);
#SUBTITLE:;
#ARTIST:Marshmello;
#TITLETRANSLIT:;
#SUBTITLETRANSLIT:;
#ARTISTTRANSLIT:;
#GENRE:POP CHARTS;
#CREDIT:MUINELIM;
#BANNER:Friends (feat. Anne-Marie).png;
#BACKGROUND:Friends (feat. Anne-Marie)-bg.png;
#LYRICSPATH:;
#CDTITLE:;
#MUSIC:Friends (feat. Anne-Marie).ogg;
#OFFSET:-0.040000;
#SAMPLESTART:29.732210;
#SAMPLELENGTH:15.157896;
#SELECTABLE:YES;
#DISPLAYBPM:95.000000;
#BPMS:0.000000=95.000000
,140.000000=47.500000
,141.000000=95.000000
;
#STOPS:140.000000=1.263000
;
#BGCHANGES:0.000=Friends (feat. Anne-Marie).avi=1.000=1=0=0=StretchNoLoop==CrossFade==,
99999=-nosongbg-=1.000=0=0=0 // don't automatically add -songbackground-
;
#KEYSOUNDS:;
#ATTACKS:;

//---------------dance-single - ----------------
#NOTES:
     dance-single:
     :
     Beginner:
     3:
     0.090708,0.135384,0.029193,0.000000,0.000000,87.000000,83.000000,4.000000,0.000000,0.000000,0.000000,0.090708,0.135384,0.029193,0.000000,0.000000,87.000000,83.000000,4.000000,0.000000,0.000000,0.000000:
0000
0000
0000
0000
,
0000
0000
0000
0000
,
0000
0000
0000
0000
,
0000
0000
0000
0000
,
1000
0000
0001
0000
,
1000
0000
1000
0000
,
0001
0000
1000
0000
,
0001
0000
0001
0000
,
0100
0000
0100
0000
,
0010
0000
0010
0000
,
0100
0000
0010
0000
,
0100
0100
0100
0000
,
0001
0000
0001
0000
,
0001
0000
0000
0000
,
0010
0000
0010
0000
,
0010
0000
0000
0000
,
0100
0000
0100
0000
,
0100
0000
0000
0000
,
1000
0000
1000
0000
,
1000
0000
0000
0000
,
1001
0000
0000
0000
,
0001
0000
0000
0000
,
1001
0000
0000
0000
,
1000
0000
0000
0000
,
0001
0000
1000
0000
,
0001
0000
0001
0000
,
1000
0000
0001
0000
,
1000
0000
1000
0000
,
0010
0000
0000
0000
,
0010
0000
0000
0000
,
0100
0000
0000
0000
,
0100
0000
0000
0000
,
0001
0000
0000
0000
,
1000
0000
0000
0000
,
0001
0000
1000
0000
,
0000
0000
0001
0000
,
0001
0000
0001
0000
,
0001
0000
1000
0000
,
1000
0000
1000
0000
,
1000
0000
0010
0000
,
0100
0000
0010
0000
,
0100
0100
0100
0100
,
0100
0100
0000
0000
,
0000
1001
0000
0000
,
0000
1000
0000
0000
,
0000
1001
0000
0000
,
0000
0001
0000
0000
,
0000
0100
0000
0010
,
0000
0100
0000
0010
,
0000
1000
0000
0001
,
0000
1000
0000
0001
,
0000
1000
0000
1000
,
0000
1000
0000
1000
,
1000
0000
0000
0000
;

//---------------dance-single - ----------------
#NOTES:
     dance-single:
     :
     Easy:
     5:
     0.176202,0.232634,0.080281,0.094878,0.000000,169.000000,158.000000,11.000000,13.000000,0.000000,0.000000,0.176202,0.232634,0.080281,0.094878,0.000000,169.000000,158.000000,11.000000,13.000000,0.000000,0.000000:
0000
0000
0000
0000
,
0000
0000
0000
0000
,
0000
0000
0000
0000
,
0000
0000
0000
0000
,
1000
0000
0001
0000
,
1000
1000
1000
0000
,
0001
0000
1000
0000
,
0001
0001
0001
0000
,
0100
0100
0100
0000
,
0010
0010
0010
0000
,
0100
0010
0100
0100
,
0001
1000
1001
0000
,
0001
0100
0001
0010
,
0001
0000
0100
0100
,
1000
0010
1000
0100
,
1000
0000
0010
0010
,
0001
1000
0001
0100
,
0010
0000
0100
0100
,
0001
1000
0001
0100
,
0010
0010
0200
0310
,
1001
0000
0010
0100
,
1001
0000
0100
0010
,
1001
0000
0020
0130
,
1001
0000
1000
0001
,
1000
1000
0010
0100
,
0001
0001
0100
0010
,
1000
1000
0100
0010
,
0001
0001
0010
0100
,
2000
0000
0000
3000
,
0002
0000
0000
0003
,
0020
0000
0000
0030
,
0200
0000
0000
0300
,
0000
1000
0000
1000
0000
1000
1000
0000
,
0000
0001
0000
0001
0000
0001
0001
0000
,
1000
0001
0100
0220
,
0330
0000
0010
0000
,
0010
0000
0010
0000
,
0010
0000
0100
0000
,
0100
0000
0100
0000
,
0100
0001
0001
1000
,
1000
0001
1000
0001
,
1001
1000
0010
0100
,
0001
1000
0010
0200
,
0310
1001
0100
0010
,
0100
1001
0010
0100
,
0010
1001
0100
0020
,
0130
1001
0001
1000
,
0010
0100
0001
0010
,
0001
0100
0010
1000
,
0100
1000
0010
0100
,
0001
1000
0100
0010
,
0001
0200
0300
0020
,
0030
0200
0300
0010
,
0010
0010
0000
0000
0000
0000
0000
0000
;

//---------------dance-single - ----------------
#NOTES:
     dance-single:
     :
     Medium:
     9:
     0.253356,0.291134,0.124071,0.116773,0.003649,243.000000,226.000000,17.000000,16.000000,0.000000,0.000000,0.253356,0.291134,0.124071,0.116773,0.003649,243.000000,226.000000,17.000000,16.000000,0.000000,0.000000:
0000
0000
0000
0000
,
0000
0000
0000
0000
,
0000
0000
0000
0000
,
0000
0000
0000
0000
,
0010
0100
0001
1000
,
0010
0010
0010
0000
0110
0000
1001
0000
,
0100
0010
1000
0001
,
0100
0100
0100
0000
0110
0000
1001
0000
,
0001
0001
0001
0000
1000
1000
1000
0000
,
0010
0010
0100
0010
0100
0000
1001
0000
,
0010
0010
0010
0000
0100
0100
0100
0000
,
0001
0001
1000
0001
2000
0000
3002
0000
,
1003
0100
1000
0000
0001
0010
0001
0000
,
1000
0000
0001
0100
0000
0100
0001
0000
,
1000
0010
1000
0000
0001
0100
0001
0000
,
1000
0000
0001
0010
0000
0010
0001
0000
,
0100
0010
0100
0000
0001
1000
0001
0000
,
0100
0000
0010
0100
0000
0100
0010
0010
,
1000
0100
1000
0100
0010
0001
0010
0001
,
2000
3020
0230
0301
,
0011
0010
0100
0000
0000
0000
1100
0100
,
0010
0000
0001
0000
0000
0000
0101
0100
,
0010
0000
0000
0000
1010
0010
0100
0000
,
0001
0000
0000
0000
0000
1001
1000
0001
,
0100
0010
0100
0000
1000
0000
0100
0010
,
0100
0000
0001
0000
1000
0000
0010
0100
,
0010
0000
0001
0000
0010
0100
0010
0000
,
1000
0000
0001
0000
0100
0010
1000
0001
,
0200
0000
0000
0300
,
0020
0000
0000
0030
,
2000
0000
0000
3000
,
0002
0000
0000
0003
,
0000
0011
0000
1100
0000
0010
0010
0000
,
0000
0101
0000
1010
0000
0100
0100
0000
,
0001
0000
1000
0000
0010
0100
0220
0000
,
0330
1000
0010
0000
,
0010
0000
0001
0000
,
0001
0000
0100
0000
,
0100
0000
1000
0000
,
1000
0010
0010
0100
,
0100
0001
0001
1000
,
1000
0000
0010
0100
0001
0000
0100
0010
,
1000
0000
0001
0010
0100
1000
0200
0000
,
0320
0000
0031
1000
0100
0000
0001
0000
,
0100
1000
0001
0000
0100
0000
0110
0000
,
1000
0001
0010
0000
1000
0000
0010
0001
,
1000
0000
0010
0100
0010
1000
0001
1000
,
0001
0000
0010
0100
1000
0000
0001
0000
,
1000
0000
0100
0010
0001
0000
1000
0000
,
0001
0000
0100
0010
1000
0000
0010
0100
,
0001
0000
1000
0100
0010
0001
0010
0100
,
1000
0020
0030
0002
,
0003
0200
0300
1100
,
0010
0000
0100
0010
0000
0000
0000
0000
0000
0000
0000
0000
0000
0000
0000
0000
;

//---------------dance-single - ----------------
#NOTES:
     dance-single:
     :
     Hard:
     12:
     0.449367,0.485224,0.379512,0.175159,0.240844,431.000000,379.000000,52.000000,24.000000,0.000000,0.000000,0.449367,0.485224,0.379512,0.175159,0.240844,431.000000,379.000000,52.000000,24.000000,0.000000,0.000000:
0000
0000
0000
0000
,
0000
0000
0000
0000
,
0000
0000
0000
0000
,
0000
0000
0000
0000
,
1000
0010
0000
0100
0001
0000
0010
0000
0001
0100
0000
0010
1000
0000
0100
0000
,
1000
0010
0000
0100
0001
0000
0010
0000
0110
0000
0000
0000
1001
0000
0000
0000
,
0001
0010
0000
0100
1000
0000
0010
0000
1000
0100
0000
0010
0001
0000
0100
0000
,
0001
0010
0000
0100
1000
0000
0010
0000
0110
0000
0000
0000
1001
0000
0001
1000
,
0001
0000
0100
0010
1000
0000
0000
0000
0010
0100
0001
0000
0100
0000
0000
0000
,
0010
1000
0010
1000
0001
0000
0100
0001
1000
0000
0010
0000
0100
0000
0001
1000
,
0000
0010
0000
0100
0010
0000
0110
0000
0100
0001
0000
1000
0010
0000
0100
0000
,
0001
0010
0100
1000
2002
3003
0010
0100
,
0110
0010
1000
0100
1100
0010
0001
0100
,
0102
0000
1003
1010
0000
0010
0100
0010
,
0110
0100
0001
0010
0011
0100
1000
0010
,
2010
0000
3001
0101
0000
0100
0010
1000
,
1001
0001
0100
0010
1010
1000
0100
0010
,
0012
0000
1003
1100
0000
0100
0010
0001
,
0101
0100
0110
0010
1010
1000
1001
0001
,
0010
0100
1000
0000
0001
0010
0100
0000
1000
0010
0100
0001
1000
0000
0000
0000
,
0110
0000
0010
0100
0020
0000
0000
0000
0000
1030
0100
0010
0001
0000
1000
0000
,
1010
0000
0010
0000
0101
0000
0000
0000
0000
0001
0010
0100
1000
0000
0010
0000
,
0110
0000
0100
0010
0200
0000
0000
0301
0000
0001
0010
0100
1000
0000
0010
0100
,
0020
0000
0001
0000
1030
0000
0000
0000
0000
1000
0010
0100
0001
0000
0010
0100
,
0010
0000
0001
0000
1000
0000
0100
0000
0010
0100
0010
0100
0010
0000
0100
0000
,
1000
0000
0010
0000
0001
0000
0010
0000
0100
0010
0100
0010
0100
0000
0010
0000
,
0001
0000
0010
0000
1000
0000
0100
0000
0010
0100
0000
0010
0100
0000
1000
0000
,
1001
0000
0001
0000
0010
0000
0100
0010
0000
0100
0010
0000
0100
0000
1000
0000
,
1010
0010
0001
0010
1000
0100
0010
0000
,
0101
0100
1000
0100
0001
0010
0100
0000
,
1100
0001
0010
1000
0001
0100
1000
0000
,
0011
1000
0100
0001
1000
0010
0001
0000
,
0000
0101
0000
1100
0000
2020
0000
3030
,
0000
0000
0011
0000
0000
0000
1001
0000
0000
0000
0010
0100
0020
0000
0000
0000
,
1030
0100
0001
0010
1000
0001
2002
0000
,
3003
0120
0001
0000
,
0100
0000
0000
0000
1000
0000
0000
0130
,
0100
0010
0210
0000
1000
0000
0000
0000
,
0010
0000
0000
0000
0001
0000
0000
0310
,
0010
1000
1002
0000
0103
0000
2001
0000
,
3010
0000
1002
0000
0103
0000
0100
0100
,
0010
0100
0001
0001
0010
0010
1000
1000
,
0100
0000
0100
0000
0001
1000
0001
1000
0010
0100
0010
0100
0020
0000
0000
0000
,
0130
0000
0000
0000
0110
0000
0010
1000
0100
0000
1000
0000
0001
0000
0010
0001
,
0100
0000
0001
0000
1000
0000
0010
0000
0001
0000
1000
0000
0100
0000
0001
0010
,
0100
0000
1000
0000
1001
0000
0001
0000
0010
0000
0100
0000
1000
0010
0001
0000
,
0010
1000
1100
0100
0110
0010
0011
0001
,
1001
0000
1000
0000
0001
0010
0100
0000
0001
0000
0100
0000
1000
0100
0010
0000
,
1000
0000
0010
0000
0001
1000
0100
0000
0001
0000
1000
0000
0010
0000
0001
0000
,
0100
0000
1000
0000
0100
0010
0001
0000
0010
0000
1000
0000
0010
0100
1000
0000
,
0100
0000
0001
0000
1000
0010
0100
0000
1000
0000
0100
0000
0001
0100
0010
0000
,
0001
0010
1000
0000
1200
0000
0000
0000
0000
0000
0310
0000
0012
0000
0000
0000
,
0000
0103
2100
0000
0000
3010
0012
0000
,
2003
0000
0010
3010
0000
0000
0000
0000
0000
0000
0000
0000
0000
0000
0000
0000
;

//---------------dance-double - ----------------
#NOTES:
     dance-double:
     :
     Hard:
     12:
     0.441027,0.485224,0.313827,0.197054,0.237195,423.000000,380.000000,43.000000,27.000000,0.000000,0.000000,0.441027,0.485224,0.313827,0.197054,0.237195,423.000000,380.000000,43.000000,27.000000,0.000000,0.000000:
00000000
00000000
00000000
00000000
,
00000000
00000000
00000000
00000000
,
00000000
00000000
00000000
00000000
,
00000000
00000000
00000000
00000000
,
00001000
01000000
00000000
00001000
00010000
00000000
00100000
00000000
00010000
00001000
00000000
00010000
00000010
00000000
00001000
00000000
,
00000010
00010000
00000000
00001000
01000000
00000000
00100000
00000000
00020000
00000000
00000000
00000000
00031000
00000000
00000000
00000000
,
00010000
00000100
00000000
00010000
00001000
00000000
00000010
00000000
00001000
00010000
00000000
00001000
00100000
00000000
00010000
00000000
,
00100000
00001000
00000000
00010000
00000100
00000000
00000010
00000000
00002000
00000000
00000000
00000000
00013000
00000000
00001000
00010000
,
00001000
00000000
00010000
00000000
00100000
00000000
00000000
00000000
00100000
10000000
00100000
00000000
10000000
00000000
00000000
00000000
,
01000000
00010000
01000000
00000000
00010000
00000000
00001000
00010000
00001000
00000000
00000010
00000000
00000001
00000000
00000100
00000010
,
00000000
00001000
00000000
00000001
00000100
00000000
00000110
00000000
00000010
00010000
00000000
00001000
01000000
00000000
00010000
00000000
,
00100000
01000000
10000000
00100000
02200000
03300000
01000000
00001000
,
00011000
00010000
00000010
00000100
00000110
00000001
00000100
00000010
,
00020010
00000000
00031000
01001000
00000000
01000000
00001000
00010000
,
00011000
00001000
01000000
00100000
01100000
10000000
00100000
01000000
,
01002000
00000000
00013000
00010100
00000000
00000100
00010000
00001000
,
00011000
00010000
00000100
00000010
00000110
00000001
00000010
00000100
,
00020100
00000000
00031000
00101000
00000000
00100000
00001000
00010000
,
00011000
00001000
01001000
00010000
00010010
00001000
00011000
00010000
,
00001000
00010000
00000100
00000000
00010000
00001000
00100000
00000000
00001000
00010000
00001000
00010000
00000010
00000000
00000000
00000000
,
00000110
00000000
00000100
00000010
00000200
00000000
00000000
00000000
00000000
00000301
00001000
00000001
00001000
00000000
00000100
00000000
,
00010000
00000000
00001000
00000000
00011000
00000000
00000000
00000000
00000000
00010000
00001000
00010000
00001000
00000000
00100000
00000000
,
00110000
00000000
00010000
00100000
00020000
00000000
00000000
10030000
00000000
10000000
00100000
10000000
00100000
00000000
01000000
00010000
,
01000000
00000000
00001000
00000000
00011000
00000000
00000000
00000000
00000000
00010000
00000100
00010000
00000100
00000000
00001000
00000010
,
00001000
00000000
00000001
00000000
00000100
00000000
00001000
00000000
00010000
00001000
00010000
00001000
00010000
00000000
00100000
00000000
,
10000000
00000000
01000000
00000000
00100000
00000000
00001000
00000000
00010000
00000100
00010000
00000100
00010000
00000000
00000010
00000000
,
00001000
00000000
00000100
00000000
00000010
00000000
00000001
00000000
00000100
00001000
00000000
00010000
01000000
00000000
10000000
00000000
,
10010000
00000000
00010000
00000000
00100000
00000000
01000000
00010000
00000000
00001000
00000100
00000000
00000001
00000000
00001000
00000000
,
00001001
00000001
00000010
00000100
00001000
00010000
00100000
00000000
,
10010000
10000000
01000000
00100000
00010000
00001000
00000100
00000000
,
00000110
00000001
00000100
00001000
00010000
01000000
10000000
00000000
,
01100000
10000000
00100000
00010000
00001000
00000010
00000001
00000000
,
00000000
00002001
00000000
00003200
00000000
00020300
01000000
00030000
,
00000000
00000000
21000000
00000000
00000000
00000000
30200000
00000000
00000000
00000000
00310000
00001000
00020000
00000000
00000000
00000000
,
00030100
00000010
00000001
00000100
00001000
00010000
00022000
00000000
,
00033000
02001000
00010000
00000000
,
10000000
00000000
00000000
00000000
00010000
00000000
00000000
03001000
,
00001000
00010000
00010200
00000000
00001000
00000000
00000000
00000000
,
00000001
00000000
00000000
00000000
00001000
00000000
00000000
00010300
,
00010000
00001000
00021000
00000000
01030000
00000000
00012000
00000000
,
00003100
00000000
00021000
00000000
00130000
00000000
00010000
00010000
,
00001000
00000010
00010000
00010000
00100000
00100000
00001000
00001000
,
00000100
00000000
00000100
00000000
00010000
01000000
00010000
01000000
00100000
10000000
00100000
10000000
01000000
00100000
01000000
00100000
,
01000000
00000000
00000000
00000000
01100000
00000000
00100000
00010000
00100000
00000000
00001000
00000000
00010000
00000000
00000100
00001000
,
00000100
00000000
00000010
00000000
00000001
00000000
00000100
00000000
00001000
00000000
00010000
00000000
00100000
00000000
10000000
01000000
,
10000000
00000000
00010000
00000000
10010000
00000000
10000000
00000000
00100000
00000000
00010000
00000000
00001000
00010000
00001000
00000000
,
00000100
00000001
00000011
00000100
00001000
00010000
00100000
01000000
,
11000000
00000000
10000000
00000000
00100000
01000000
00100000
00000000
00010000
00000000
00001000
00000000
00000100
00000010
00000100
00000000
,
00000001
00000000
00000010
00000000
00001000
00010000
00001000
00000000
00010000
00000000
01000000
00000000
10000000
00000000
00100000
00000000
,
00010000
00000000
00001000
00000000
00100000
01000000
00100000
00000000
00001000
00000000
00010000
00000000
00000100
00000010
00000100
00000000
,
00001000
00000000
00000001
00000000
00000100
00001000
00000100
00000000
00001000
00000000
00010000
00000000
00100000
10000000
00100000
00000000
,
10000000
01000000
01020000
00000000
00000000
00031000
00002010
00000000
,
00000000
00013000
00120000
00000000
00000000
00031000
00001200
00000000
,
00000302
00000000
00000013
00000100
00000000
00000000
00000000
00000000
00000000
00000000
00000000
00000000
00000000
00000000
00000000
00000000
;

//---------------dance-double - ----------------
#NOTES:
     dance-double:
     :
     Easy:
     5:
     0.174117,0.232086,0.087580,0.094878,0.000000,167.000000,155.000000,12.000000,13.000000,0.000000,0.000000,0.174117,0.232086,0.087580,0.094878,0.000000,167.000000,155.000000,12.000000,13.000000,0.000000,0.000000:
00000000
00000000
00000000
00000000
,
00000000
00000000
00000000
00000000
,
00000000
00000000
00000000
00000000
,
00000000
00000000
00000000
00000000
,
00100000
00000000
00001000
00000000
,
00010000
00010000
00010000
00000000
,
00000100
00000000
00010000
00000000
,
00001000
00001000
00001000
00000000
,
00100000
00100000
00100000
00000000
,
01000000
01000000
01000000
00000000
,
00010000
00001000
00010000
00010000
,
00000100
00000010
00000110
00000000
,
00000001
00000100
00001000
00010000
,
00001000
00000000
00010000
00100000
,
10000000
01000000
00010000
00001000
,
00010000
00000000
00001000
00000100
,
00000001
00000010
00001000
00010000
,
00001000
00000000
00010000
01000000
,
10000000
00100000
00010000
00001000
,
00010000
00010000
00002000
00013000
,
00011000
00000000
00000000
01000000
,
00011000
00000000
00000000
00000010
,
00011000
00000000
00020000
00031000
,
00011000
00000000
00100000
00001000
,
00010000
00010000
00000010
00010000
,
00001000
00001000
01000000
00001000
,
00010000
00010000
00000100
00010000
,
00001000
00001000
00100000
01000000
,
20000000
00000000
00000000
30000000
,
00200000
00000000
00000000
00300000
,
00020000
00000000
00000000
00030000
,
00002000
00000000
00000000
00003000
,
00000000
00010000
00000000
00001000
00000000
00010000
00010000
00000000
,
00000000
00000010
00000000
00000100
00000000
00000010
00000010
00000000
,
00010000
00001000
00010000
00022000
,
00033000
00000000
01000000
00000000
,
01000000
00000000
00001000
00000000
,
00001000
00000000
00010000
00000000
,
00010000
00000000
00000010
00000000
,
00000010
00010000
00010000
00001000
,
00001000
01000000
00001000
00010000
,
00011000
00000100
00001000
00000001
,
00000100
00001000
00010000
00200000
,
10300000
10010000
10000000
01000000
,
00010000
00011000
00001000
00000010
,
00000001
00001001
00000001
00000200
,
00001300
00011000
00010000
01000000
,
10000000
00100000
01000000
00010000
,
00100000
00001000
00010000
00000100
,
00001000
00000010
00000100
00000001
,
00000010
00001000
00010000
01000000
,
10000000
00200000
00300000
00020000
,
00030000
00002000
00003000
00010000
,
00011000
00000000
00000000
00000000
;

//---------------dance-double - ----------------
#NOTES:
     dance-double:
     :
     Medium:
     9:
     0.241887,0.291134,0.072983,0.131370,0.003649,232.000000,222.000000,10.000000,18.000000,0.000000,0.000000,0.241887,0.291134,0.072983,0.131370,0.003649,232.000000,222.000000,10.000000,18.000000,0.000000,0.000000:
// measure 0
00000000
00000000
00000000
00000000
,  // measure 1
00000000
00000000
00000000
00000000
,  // measure 2
00000000
00000000
00000000
00000000
,  // measure 3
00000000
00000000
00000000
00000000
,  // measure 4
00001000
00100000
01000000
00010000
,  // measure 5
00001000
00010000
00001000
00000000
00020000
00000000
00031000
00000000
,  // measure 6
00010000
00000100
00000010
00001000
,  // measure 7
00010000
00001000
00010000
00000000
00002000
00000000
00013000
00000000
,  // measure 8
00001000
00010000
00000100
00000000
00010000
00001000
00100000
00000000
,  // measure 9
00001000
00010000
00000010
00000000
00010000
00000000
00011000
00000000
,  // measure 10
00001000
00010000
00000010
00000000
00010000
00001000
01000000
00000000
,  // measure 11
00001000
00010000
00000100
00000000
00020000
00000000
00032000
00000000
,  // measure 12
00103000
00010000
01000000
00000000
00100000
00010000
00001000
00000000
,  // measure 13
00010000
00000000
00000010
00001000
00000000
00001000
00000010
00000000
,  // measure 14
00000100
00000010
00001000
00000000
00000100
00010000
00001000
00000000
,  // measure 15
00100000
00000000
00010000
01000000
00000000
01000000
00010000
00000000
,  // measure 16
00100000
01000000
00010000
00000000
00001000
00000010
00000100
00000000
,  // measure 17
00010000
00000000
00001000
00010000
00000000
00010000
00001000
00001000
,  // measure 18
00100000
00010000
01000000
00001000
00010000
00000010
00001000
00000100
,  // measure 19
00000020
00000032
00002003
00003100
,  // measure 20
00000110
00000010
00000100
00000000
00000000
00000000
00010000
00001000
,  // measure 21
01000000
00000000
00100000
00000000
00000000
00000000
01100000
01000000
,  // measure 22
00100000
00000000
00000000
00000000
00010000
00001000
00000100
00000000
,  // measure 23
00000010
00000000
00000000
00000000
00000000
00001001
00000001
00001000
,  // measure 24
00000010
00000100
00000010
00000000
00001000
00000000
00100000
01000000
,  // measure 25
00100000
00000000
00010000
00000000
00001000
00000000
01000000
00100000
,  // measure 26
01000000
00000000
00010000
00000000
00000100
00000010
00000100
00000000
,  // measure 27
00001000
00000000
00010000
00000000
00100000
10000000
00010000
00000000
,  // measure 28
02100000
00000000
00000000
03000000
,  // measure 29
00002000
00000000
00000000
00003000
,  // measure 30
00020000
00000000
00000000
00030000
,  // measure 31
00000020
00000000
00000000
00000030
,  // measure 32
00000000
00000110
00000000
00001000
00000000
00010000
00100000
00000000
,  // measure 33
00000000
01100000
00000000
00010000
00000000
00001000
00000100
00000000
,  // measure 34
00000000
00000000
00000001
00000000
00000010
00001000
00022000
00000000
,  // measure 35
00033000
00010000
00000010
00000000
,  // measure 36
00000010
00000000
00001000
00000000
,  // measure 37
00001000
00000000
00100000
00000000
,  // measure 38
00100000
00000000
00010000
00000000
,  // measure 39
00010000
00001000
00001000
00000100
,  // measure 40
00000100
00010000
00010000
01000000
,  // measure 41
01000000
00000000
00100000
00010000
00001000
00000000
00010000
00001000
,  // measure 42
00000100
00000000
00000001
00000010
00001000
00010000
00002000
00000000
,  // measure 43
00023000
00000000
01030000
10000000
00010000
00000000
01000000
00000000
,  // measure 44
00010000
10000000
01000000
00000000
00010000
00000000
00011000
00000000
,  // measure 45
00000100
00001000
00000001
00000000
00000100
00000000
00000001
00001000
,  // measure 46
00000100
00000000
00010000
00001000
00010000
00100000
01000000
00100000
,  // measure 47
10000000
00000000
01000000
00010000
00001000
00000000
00010000
00000000
,  // measure 48
00000100
00000000
00000010
00001000
00010000
00000000
00001000
00000000
,  // measure 49
00100000
00000000
01000000
10000000
00100000
00000000
00010000
00001000
,  // measure 50
00000100
00000000
00000001
00000010
00000100
00000010
00001000
00010000
,  // measure 51
01000000
20000000
30000000
00200000
,  // measure 52
00300000
00020000
00030000
00011000
,  // measure 53
00001000
00000000
00010000
00001000
00000000
00000000
00000000
00000000
00000000
00000000
00000000
00000000
00000000
00000000
00000000
00000000
;
