#TITLE:Fracture Temporelle;
#SUBTITLE:;
#ARTIST:黒皇帝;
#TITLETRANSLIT:;
#SUBTITLETRANSLIT:;
#ARTISTTRANSLIT:Kurokotei;
#GENRE:VARIETY;
#CREDIT:MUINELIM;
#BANNER:Fracture Temporelle.png;
#BACKGROUND:Fracture Temporelle-bg.png;
#LYRICSPATH:;
#CDTITLE:;
#MUSIC:Fracture Temporelle.mp3;
#OFFSET:-0.095000;
#SAMPLESTART:43.543274;
#SAMPLELENGTH:12.393795;
#SELECTABLE:YES;
#DISPLAYBPM:116.000000:232.000000;
#BPMS:0.000000=116,30.000000=232,79.000000=116,103.000000=232,199.000000=116,202.000000=58,205.000000=232,315.000000=464,316.000000=232;
#STOPS:30.000000=2.845,205.000000=0.129,205.500000=0.129,206.000000=0.129,206.500000=0.129,207.000000=0.129,207.500000=0.129,315.000000=0.388;
#BGCHANGES:;
#KEYSOUNDS:;
#ATTACKS:;

//---------------dance-single - ----------------
#NOTES:
     dance-single:
     :
     Beginner:
     6:
     0.155868,0.302358,0.027739,0.036986,0.000000,118.000000,115.000000,3.000000,4.000000,0.000000,0.000000,0.155868,0.302358,0.027739,0.036986,0.000000,118.000000,115.000000,3.000000,4.000000,0.000000,0.000000:
0000
0000
0000
0000
,
0000
0000
0000
0000
,
0000
0000
0000
0000
,
0000
0000
0000
0000
,
0000
0000
1000
0000
,
0000
0001
0000
0000
,
1000
0000
0000
1000
0000
0000
0001
0000
,
0000
0001
0000
0000
0000
0000
0100
0000
,
0000
0000
0000
0000
,
0000
0010
0000
0000
,
0010
0000
0010
0010
,
0000
0000
0000
0000
,
0000
0100
0000
0000
,
0100
0100
0100
0100
,
0000
0000
0001
0000
,
0000
1000
0000
0000
,
0010
0000
0000
1000
,
0000
0000
0001
0000
,
0000
0100
0000
0000
,
0010
0010
0010
0010
,
0000
0000
1000
0000
,
0000
0100
0000
0000
,
0010
0000
0000
0001
,
0000
0000
0100
0000
,
0000
0000
0010
0000
0000
0010
0000
0000
,
0100
0000
0000
0100
0100
0100
0100
0000
,
0000
0000
0001
0000
,
0000
0100
0000
0000
,
0001
0000
0000
1000
,
0000
0000
0010
0000
,
0000
1000
0000
0000
,
0010
0000
0000
0100
,
0000
0000
0001
0000
,
0000
1000
0000
0000
,
0010
0000
0000
0100
,
0000
0000
0010
0000
,
0000
0100
0000
0000
,
0010
0010
0010
0010
,
0000
0000
0000
0000
,
0000
1000
0000
0000
,
0000
0000
0000
0100
,
0000
0000
0000
0000
,
0000
0001
0000
0000
,
0000
0000
0000
0010
,
0000
0000
1000
0000
,
0000
0100
0000
0000
,
0001
0000
0000
0010
,
0000
0000
0100
0000
,
0000
0010
0000
0000
,
0100
0100
0100
0100
,
0000
0001
0000
0000
1000
0000
0000
0000
,
0000
2002
0000
0000
,
3003
0000
0000
1000
,
0000
0000
0001
0000
,
0000
0010
0000
0000
,
0100
0000
0000
1000
,
0000
0000
0010
0000
,
0000
0100
0000
0000
,
0001
0000
0000
0001
,
0000
0000
1000
0000
,
0000
1000
0000
0000
,
0001
0000
0000
1000
,
0000
0000
1001
0000
,
0000
0001
0001
0001
,
0001
0000
0000
0100
,
0000
0000
0010
0000
,
0000
1000
0000
0000
,
0100
0000
0000
0010
,
0000
0000
0001
0000
,
0000
1000
0000
0000
,
0010
0000
0000
0100
,
0000
0000
0010
0000
,
0000
0010
0000
0000
,
1000
0000
0000
0001
,
0000
0000
1000
0000
,
0000
0100
0000
0000
,
0001
0000
0000
0010
,
0000
0000
1000
1000
,
1000
0001
0001
0001
,
2002
0000
0000
0000
,
0000
0000
0000
0000
,
0000
0000
0000
3003
;

//---------------dance-single - ----------------
#NOTES:
     dance-single:
     :
     Easy:
     10:
     0.393633,0.529126,0.221914,0.101711,0.000000,298.000000,274.000000,24.000000,11.000000,0.000000,0.000000,0.393633,0.529126,0.221914,0.101711,0.000000,298.000000,274.000000,24.000000,11.000000,0.000000,0.000000:
0000
0000
0000
0000
,
0000
0000
0000
0000
,
0000
0000
0000
0000
,
0000
0000
0000
0000
,
0000
0000
0000
0000
1000
0000
0000
1000
,
0000
0000
0001
0000
0000
0001
0000
0000
,
0100
0000
0000
0100
0000
0000
0010
0000
,
0000
0020
0000
0000
0030
0000
0110
0000
,
0000
0000
0000
0000
,
0000
0110
0000
0000
,
1001
0000
0010
0110
,
0000
0000
0000
0000
,
0000
1001
0000
0000
,
0100
0020
0130
0100
,
0001
0100
0001
0000
,
0100
0010
1000
0010
,
1000
0000
0010
0100
,
0001
0100
0010
1000
,
0010
0100
0001
0010
,
0100
1000
0010
0110
,
0000
0100
0000
0010
0010
0000
0000
1000
,
0000
0001
0001
0000
0000
0010
0000
0100
,
0100
0000
0000
1000
0000
0010
0010
0000
,
0000
0100
0000
0001
0001
0000
0000
1000
,
0000
0010
0010
0000
0001
0001
0000
0100
,
0100
0000
1000
1000
0001
0001
1001
0000
,
1000
0100
1000
0100
,
1000
0100
0010
0100
,
0010
0100
0010
0001
,
0010
0001
0010
0001
,
0010
0001
1000
0001
,
1000
0001
1000
1001
,
0001
0100
0001
0100
,
0001
1000
0010
1000
,
0010
1000
0001
0010
,
0010
0100
0010
0010
,
1000
0010
0010
0001
,
0010
0100
0010
0110
,
0000
0100
0000
0000
1000
0000
0001
0000
,
1000
0000
1001
0000
0000
0001
0000
0000
,
0100
0010
0100
0110
,
0000
0010
0000
0000
1000
0000
0001
0000
,
1000
0000
1001
0000
0000
0001
0000
0000
,
0100
0010
0100
0001
,
0010
0001
0010
0010
,
0100
1000
0100
1000
,
0100
0100
0010
0001
,
0100
0001
1000
0010
,
1000
0001
0100
1000
,
0010
0001
1000
1001
,
0000
0110
0000
0010
0020
0000
0000
0000
,
0030
2002
0000
3003
,
1001
0001
0100
0010
,
0100
0001
1000
0010
,
0100
0010
1000
0001
,
0010
0100
0010
0001
,
1000
0100
0010
0100
,
1000
0010
0100
0010
,
1010
1000
0100
0011
,
0001
0100
0020
0000
,
1030
0001
1000
0100
,
0110
0010
0001
1000
,
0001
0010
0200
0000
,
0000
0000
1300
0001
1000
0001
1000
0000
,
0110
0001
0100
1000
,
0100
0001
0010
1000
,
0010
0001
0100
0010
,
1000
0100
0001
0100
,
1000
0010
0001
0010
,
1000
0100
0010
0001
,
0101
1000
0010
1100
,
0001
0010
2002
3003
,
0010
0100
0010
1000
,
0001
0001
0100
1000
,
1000
0010
0001
1000
,
0001
0100
0010
0100
,
1000
0001
1000
0010
,
0100
0000
0010
0000
0001
1000
0001
1000
,
0001
0000
0100
0010
0100
0010
0100
0000
,
0220
0000
0000
0000
,
0000
0000
0000
0000
,
0000
0000
0000
0330
;

//---------------dance-single - ----------------
#NOTES:
     dance-single:
     :
     Medium:
     14:
     0.602338,0.907073,0.406842,0.342117,0.069348,456.000000,412.000000,44.000000,37.000000,0.000000,0.000000,0.602338,0.907073,0.406842,0.342117,0.069348,456.000000,412.000000,44.000000,37.000000,0.000000,0.000000:
0000
0000
0000
0000
,
0000
0000
0000
0000
,
0000
0000
0000
0000
,
0000
0000
0000
0000
,
0000
0000
0000
0000
0000
0000
0000
0000
0110
0000
0000
0010
0100
0000
0010
0000
,
1000
0000
0001
0000
1001
0000
0000
1000
0001
0000
1000
0000
0010
0000
0100
0000
,
0001
0010
0001
0000
1000
0000
0001
0100
0001
0000
1000
0000
0001
0010
0000
0001
,
0100
0000
0000
0010
0000
0000
1000
0000
0000
0000
0000
0000
0000
0000
0001
0000
0000
0000
0000
0000
0000
0000
0200
0000
0000
0000
0000
0000
0000
0000
0000
0000
0000
0000
0000
0000
0020
0000
0000
0000
0000
0000
0000
0000
0000
0000
0000
0000
,
0000
0000
0000
0000
,
0330
2002
0000
3003
,
0220
0330
1001
0202
,
0000
0000
0000
0000
,
0303
2020
0000
3030
,
1100
0000
0011
0000
1001
0000
1000
0001
,
1000
0010
0100
0001
,
1000
0000
0001
1000
0001
0000
0100
0000
,
0010
0000
1000
0000
0001
0000
0100
0010
,
0100
0010
1000
0000
0010
0100
0010
0100
,
0001
0000
0100
0010
0100
0010
1000
0100
,
0010
0001
1000
0001
1000
0001
2000
0000
,
0000
0000
3020
0000
0000
0000
0100
0000
0130
0000
0100
0001
0010
0000
0001
0000
,
0100
0000
0010
0000
1010
0000
0000
1000
0100
0000
1000
0000
0010
0000
0100
0000
,
0101
0000
0001
0010
0100
1000
0020
0000
,
0000
0230
0000
0001
0301
0000
0001
0010
,
0100
0000
1000
0000
0010
0100
0010
0000
0001
0000
0010
0100
0010
0000
0100
0000
,
0010
0100
0010
0000
1000
0000
1100
0000
0011
0000
0110
0000
1001
0000
0000
0000
,
1000
0010
0001
0010
,
1000
0000
0100
0000
0010
0100
0010
0000
,
0001
0000
0010
0100
0010
0000
1000
0000
,
0010
0001
0100
1000
,
0100
0001
0010
0100
,
1000
0010
0100
0001
0100
0010
2000
0000
,
3001
0010
0100
1000
,
0010
0110
0100
0001
,
1000
0000
0010
0100
0010
0100
0001
0010
,
0100
1000
0010
0000
1000
0100
0010
0001
,
0100
0000
0010
1000
0010
0100
0001
0100
,
0010
1000
0100
0010
0001
0100
0120
0000
,
0000
2030
0000
0000
3100
0000
0010
0000
,
0001
0000
0201
0000
0000
0320
0000
0000
,
1030
0001
0010
0210
,
0000
2300
0000
0000
3010
0000
0100
0000
,
0001
0000
0021
0000
0000
0230
0000
0000
,
1300
0000
0001
0000
1001
0000
1000
0010
,
0100
0010
1000
0000
0001
0010
0100
0010
,
0001
0000
1000
0100
0010
0100
1000
0000
,
0001
0100
0010
0100
0001
0000
1000
0100
,
0010
0001
0100
0001
0001
0010
0100
1000
,
0010
1000
1000
0100
0010
0001
0010
0100
,
1000
0100
0010
0001
0010
0100
2000
0000
,
0000
0000
3002
0000
0000
0000
0000
0203
0020
0000
0000
0000
0000
0000
0000
0000
,
0000
0330
1000
0010
0001
0100
1000
0010
,
0210
0301
0120
1030
,
0010
0000
0100
0000
1001
0000
0001
0100
,
1000
0100
0001
0000
0010
0000
0100
0000
,
1001
0000
0001
0000
1000
0010
0001
0000
,
0010
1000
1100
0101
,
1010
0000
0011
0000
0001
0010
0100
1000
,
0010
0100
0001
0100
0010
0000
0100
0001
,
0010
0001
0100
0000
0102
0000
0000
1003
,
0100
0010
0100
0000
1000
0010
0100
1000
,
0100
0010
1000
0100
0010
0001
0200
0000
,
0000
0310
1000
0000
1100
0000
0011
0000
,
1001
0000
1000
0010
1000
0001
0100
0001
,
2001
3010
1002
0103
,
0001
0000
1000
0000
0110
0000
0001
0010
,
1000
0010
0001
0000
0100
0000
0010
0000
,
0110
0000
1000
0100
0001
0100
1000
0000
,
0010
0100
0101
1100
,
0011
0000
1010
0000
1000
0001
0010
0100
,
1000
0010
0001
0010
1000
0000
0001
0100
,
1000
0100
0001
0000
0021
0000
0000
0130
,
1000
0001
0010
0000
1000
0010
0001
0010
,
0100
1000
0100
0001
0100
0010
0002
0000
,
0000
1003
0010
0000
0100
0001
0100
1000
,
0100
0000
0010
0001
0010
1000
0010
0000
,
0100
1000
0100
0001
1000
0000
0010
0001
,
0010
1000
0001
0000
0010
1000
0010
0001
,
1000
0100
0001
0100
1000
0001
0010
0000
,
0220
0000
0000
0000
,
0000
0000
0000
0000
,
0000
0000
0000
0330
;

//---------------dance-single - ----------------
#NOTES:
     dance-single:
     :
     Hard:
     18:
     0.869163,1.209431,0.656496,0.767453,0.443828,658.000000,587.000000,71.000000,83.000000,0.000000,0.000000,0.869163,1.209431,0.656496,0.767453,0.443828,658.000000,587.000000,71.000000,83.000000,0.000000,0.000000:
0000
0000
0000
0000
,
0000
0000
0000
0000
,
0000
0000
0000
0000
,
0000
0000
0000
0000
,
0000
0000
0000
0000
0000
0000
0000
0000
1001
0000
0000
0001
0100
1000
0100
0000
,
0010
0000
0100
0000
0110
0000
0000
0001
0010
1000
0010
0000
0100
0010
0100
1000
,
0001
0100
1000
0100
0010
1000
0010
0100
0001
0100
0010
0001
0010
2000
0000
3100
,
0010
0000
0000
0001
0000
0000
0101
0000
0000
0000
0000
0000
0000
0000
1010
0000
0000
0000
0000
0000
0000
0000
2002
0000
0000
0000
0000
0000
0000
0000
3003
0000
0000
0000
0000
0000
0220
0000
0000
0000
0000
0000
0000
0000
0000
0000
0000
0000
,
0000
0000
0000
0000
,
0330
0202
0000
0303
,
2020
0000
3030
0000
2200
3300
0022
0000
,
0000
0000
0000
0000
,
0033
2002
0000
3003
,
0220
0000
0330
0000
0010
0100
0010
0100
0010
0000
0000
0000
1000
0000
0001
0000
,
0010
0001
1000
0001
0010
0001
1000
0001
,
0010
0001
1001
1000
0100
1000
0001
1000
,
0100
1000
0001
1000
0100
1000
1001
0001
,
0100
0100
0010
0010
0110
0100
0010
0010
,
1000
0000
1000
0000
0001
0010
0001
0000
1000
0100
1000
0000
0010
0100
0010
0000
,
1000
0001
1000
0001
0100
0010
0100
0010
1000
0001
0100
0010
2000
0000
0000
0000
,
0000
0000
3200
0000
0000
0000
0320
0000
0032
0000
0103
0010
2000
0000
3002
0000
,
0023
2030
3002
0000
0000
0203
0000
2300
,
3020
0000
0000
0032
2003
3200
0302
0000
,
0000
0000
0023
0000
0000
0000
0230
0000
2300
0000
0000
0000
3010
0100
0002
0000
,
1003
0100
0010
0001
0100
0100
1000
0010
0100
0001
0010
0010
1000
0100
0010
0001
,
0100
0100
1000
0010
0100
0001
0011
0000
1010
0000
1001
0000
0001
0000
0100
0000
,
0001
0100
0001
0100
0010
1000
0010
1000
,
0010
1000
0100
0010
0100
0010
0100
0010
,
0001
1000
0001
1000
0001
1000
0010
0001
,
0010
0001
0010
0001
1000
0100
1000
0100
,
1000
0100
0001
0010
0001
0010
0001
0010
,
0100
1000
0100
1000
0100
1000
1001
0001
,
0100
0010
1000
0100
0010
0100
0010
0001
,
0100
0010
0110
0100
0001
0010
0100
1000
,
0001
0000
1000
0000
0001
0100
0001
0100
0001
0000
0100
0000
0110
0000
0010
0000
,
1000
1000
0001
0001
1001
1000
0010
0010
,
0100
0000
0100
0000
0001
0100
0001
0000
1000
0010
1000
0000
0001
0010
0001
0000
,
1000
0100
1000
0000
0010
0100
0010
0100
0020
0000
0030
0000
2002
0000
3003
0000
,
0000
2200
3300
0000
0101
0000
1010
0000
,
0011
0000
2002
3003
0000
0220
0330
0000
,
0001
0010
1000
0001
0100
1000
2020
3030
,
0000
0022
0033
0000
1100
0000
0101
0000
,
1001
0000
2200
3300
0000
0022
0033
0000
,
0220
0000
0330
0000
1000
0001
1000
0001
1000
0000
0000
0000
1010
0000
0010
0000
,
0100
0101
1000
0100
0010
0001
0100
1000
,
0100
0001
0011
0010
0100
1100
0001
0100
,
0010
1000
0100
0001
0100
1000
1010
0010
,
0100
0100
0001
0001
0011
0010
0100
0100
,
1000
0000
1000
0000
0010
0100
0010
0000
0100
0001
0100
0000
0010
1000
0010
0000
,
1000
0100
1000
0100
0010
0001
0010
0001
0100
0010
1000
0001
0020
0000
0000
0000
,
0000
0000
0230
0000
0000
0000
0000
2300
0002
0000
0000
0000
0000
0000
0000
0000
,
0000
3003
1010
0011
0101
1100
1010
0011
,
1001
1000
0010
0100
0010
0001
1000
0100
,
0010
0100
0001
1000
0100
0001
0100
0010
,
0001
1000
0100
0010
1000
0010
0001
0100
,
1000
0001
0010
0100
0001
1000
0010
0100
,
1000
0001
0010
1000
0100
0010
0001
1000
,
0100
0001
1000
0010
0002
0203
0320
2030
,
3001
0010
0100
0010
0001
0000
0100
0000
1000
0000
0100
0000
0001
0100
0010
0100
,
0001
0010
1000
0010
0012
0000
0000
0103
,
0010
1000
1100
0000
0100
0010
0001
0100
,
0010
1000
0100
0001
0100
1000
0010
0100
0001
2000
0000
0000
,
0000
0100
3100
0000
0110
0001
0010
0100
,
1000
0000
0010
0000
0100
0001
0010
0000
0100
1000
0010
0000
0100
0001
1000
0000
,
1002
0103
0100
0010
1000
0100
0120
0031
,
0001
0100
0010
1000
1200
0310
0010
0100
,
1000
0001
0012
0103
0120
1030
2100
3001
,
0201
0310
0010
1000
1002
0013
0210
1300
,
1000
0010
0100
0001
0021
0130
0100
1000
,
0001
0100
0120
1030
1000
0100
0010
0001
,
0100
0010
1000
0010
0100
0000
1000
0000
0100
0000
0001
0000
0010
0100
1000
0100
,
0010
1000
0010
0001
0201
0000
0000
1300
,
0100
0010
1010
0000
0101
1000
0010
0100
,
0001
0010
0001
0010
0100
0010
0100
0010
0100
1000
0100
1000
0200
0000
0000
0000
,
1300
0010
0100
0001
0020
0000
0030
0000
0011
0000
0001
0000
0100
0000
0100
0000
,
1000
1000
0001
0001
0010
0010
1000
1000
,
1100
0100
0001
0100
0010
0001
0101
0100
,
1000
0000
0100
0000
0010
0000
1000
0000
0001
0010
0001
0010
0100
1000
0100
1000
,
0010
0100
0010
0100
0001
1000
0100
0010
0001
1000
0010
0100
0020
0000
0030
0000
,
2002
0000
0000
0000
,
0000
0000
0000
0000
,
0000
0000
0000
3003
;

//---------------dance-double - ----------------
#NOTES:
     dance-double:
     :
     Easy:
     10:
     0.363252,0.491331,0.157189,0.212668,0.000000,275.000000,258.000000,17.000000,23.000000,0.000000,0.000000,0.363252,0.491331,0.157189,0.212668,0.000000,275.000000,258.000000,17.000000,23.000000,0.000000,0.000000:
00000000
00000000
00000000
00000000
,
00000000
00000000
00000000
00000000
,
00000000
00000000
00000000
00000000
,
00000000
00000000
00000000
00000000
,
00000000
00000000
00000000
00000000
01000000
00000000
00000000
01000000
,
00000000
00000000
00001000
00000000
00000000
00001000
00000000
00000000
,
00010000
00000000
00000000
00010000
00000000
00000000
00000010
00000000
,
00000000
00000020
00000000
00000000
00000030
00000000
00000110
00000000
,
00000000
00000000
00000000
00000000
,
00000000
00001001
00000000
00000000
,
00011000
00000000
00100000
01100000
,
00000000
00000000
00000000
00000000
,
00000000
10010000
00000000
00000000
,
01000000
00200000
01300000
00100000
,
00010000
00001000
00000100
00000000
,
00000010
00000100
00001000
00010000
,
00100000
00000000
10000000
01000000
,
00100000
00001000
00010000
00000100
,
00000010
00000001
00000100
00001000
,
00010000
00100000
10000000
10010000
,
00000000
00010000
00000000
01000000
01000000
00000000
00000000
00001000
,
00000000
00010000
00010000
00000000
00000000
00000010
00000000
00001000
,
00001000
00000000
00000000
00000100
00000000
00000010
00000010
00000000
,
00000000
00000001
00000000
00000100
00000100
00000000
00000000
00001000
,
00000000
00010000
00010000
00000000
00100000
00100000
00000000
10000000
,
10000000
00000000
01000000
01000000
00010000
00001000
00011000
00000000
,
00010000
00000100
00001000
00000100
,
00000010
00000001
00000010
00000100
,
00001000
00000100
00010000
00001000
,
00100000
00010000
00100000
01000000
,
10000000
01000000
00100000
00010000
,
00100000
00001000
00010000
00011000
,
00001000
01000000
00010000
10000000
,
00100000
00010000
00001000
00000100
,
00000001
00001000
00000010
00010000
,
00010000
00000100
00010000
00010000
,
00001000
00010000
00010000
01000000
,
10000000
00100000
00010000
00022000
,
00000000
00033000
00000000
00000000
00001000
00000000
01000000
00000000
,
00001000
00000000
02002000
00000000
00000000
03003000
00000000
00000000
,
00010000
00000100
00010000
00020200
,
00000000
00030300
00000000
00000000
00001000
00000000
00010000
00000000
,
00001000
00000000
00022000
00000000
00000000
00033000
00000000
00000000
,
00010000
00001000
00010000
00100000
,
10000000
01000000
00100000
00010000
,
01000000
00001000
00010000
00000010
,
00001000
00000100
00000010
00000001
,
00000100
00001000
00010000
01000000
,
10000000
00100000
00010000
00001000
,
00000010
00000001
00001000
00001001
,
00000000
00000110
00000000
00000100
00002000
00000000
00000000
00000000
,
00000000
00020000
00000000
00033000
,
00011000
00010000
01000000
10000000
,
00100000
00010000
00100000
10000000
,
01000000
00100000
01000000
00010000
,
00001000
00010000
00000010
00000100
,
00000010
00000010
00001000
00000100
,
00000010
00000001
00000100
00001000
,
00020000
00000000
00031000
00200000
,
00000000
00301000
02000000
00000000
,
03001000
00010000
01000000
10000000
,
00200000
00000000
00310000
00001000
,
00100000
01000000
00020000
00000000
,
00000000
00001000
00001000
00031000
,
00011000
00001000
00000100
00000001
,
00000010
00001000
00000010
00000001
,
00000100
00000010
00000100
00001000
,
00010000
00001000
00100000
01000000
,
00100000
00100000
00010000
01000000
,
00100000
10000000
01000000
00010000
,
00002000
00000000
00013000
00000020
,
00000000
00010030
00000200
00000000
,
00010300
00001000
00000100
00000001
,
00000020
00000000
00001030
00010000
,
00100000
10000000
01000000
01000000
,
00100000
00001000
00001000
00010000
,
00000100
00000100
00000010
00000001
,
00000001
00000100
00010000
01000000
,
00100000
00001000
00000010
00010000
,
00022000
00000000
00000000
00000000
,
00000000
00000000
00000000
00000000
,
00000000
00000000
00000000
00033000
;

//---------------dance-double - ----------------
#NOTES:
     dance-double:
     :
     Hard:
     18:
     0.840103,1.171637,0.610264,0.684235,0.397596,636.000000,570.000000,66.000000,74.000000,0.000000,0.000000,0.840103,1.171637,0.610264,0.684235,0.397596,636.000000,570.000000,66.000000,74.000000,0.000000,0.000000:
// measure 0
00000000
00000000
00000000
00000000
,  // measure 1
00000000
00000000
00000000
00000000
,  // measure 2
00000000
00000000
00000000
00000000
,  // measure 3
00000000
00000000
00000000
00000000
,  // measure 4
00000000
00000000
00000000
00000000
00000000
00000000
00000000
00000000
10010000
00000000
00000000
10000000
01000000
00100000
00010000
00000000
,  // measure 5
00001000
00000000
00000010
00000000
00000110
00000000
00000000
00000001
00000010
00000100
00001000
00000000
00010000
01000000
00100000
01000000
,  // measure 6
00100000
10000000
01000000
00100000
00001000
00010000
00000100
00000010
00000001
00000100
00001000
00010000
00100000
20000000
00000000
31000000
,  // measure 7
00100000
00000000
00000000
00010000
00000000
00000000
00001000
00000000
00000000
00000000
00000000
00000000
00000000
00000000
00010000
00000000
00000000
00000000
00000000
00000000
00000000
00000000
00022000
00000000
00000000
00000000
00000000
00000000
00000000
00000000
00033000
00000000
00000000
00000000
00000000
00000000
02002000
00000000
00000000
00000000
00000000
00000000
00000000
00000000
00000000
00000000
00000000
00000000
,  // measure 8
00000000
00000000
00000000
00000000
,  // measure 9
03003000
00020200
00000000
00030300
,  // measure 10
00202000
00000000
00303000
00000000
00022000
00033000
00020200
00000000
,  // measure 11
00000000
00000000
00000000
00000000
,  // measure 12
00030300
00202000
00000000
00303000
,  // measure 13
00022000
00000000
00033000
00000000
00010000
00001000
00010000
00001000
00010000
00000000
00000000
00000000
00000100
00000000
00001000
00000000
,  // measure 14
00000100
00000010
00000001
00000100
00001000
00010000
00100000
10000000
,  // measure 15
01000000
00100000
00010000
00100000
00001000
00010000
00100000
10000000
,  // measure 16
01000000
00010000
00001000
00000010
00000001
00000100
00000110
00000010
,  // measure 17
00010000
00001000
01000000
00100000
01100000
01000000
00001000
00010000
,  // measure 18
00000010
00000100
00000001
00000001
00000010
00000010
00001000
00001000
,  // measure 19
00010000
00001000
00010000
00001000
00010000
00001000
00010000
00001000
00010000
00001000
00010000
00001000
00020000
00000000
00000000
00000000
,  // measure 20
00000000
00000000
00030200
00000000
00000000
00000000
00002300
00000000
00003020
00000000
00010030
00001000
00020000
00000000
00230000
00000000
,  // measure 21
20300000
32000000
03020000
00000000
00000000
00032000
00000000
00203000
,  // measure 22
02300000
00000000
00000000
03020000
00032000
00003020
00000032
00000000
,  // measure 23
00000000
00000000
00000203
00000000
00000000
00000000
00000320
00000000
00002030
00000000
00000000
00000000
00013000
00100000
00020000
00000000
,  // measure 24
10030000
01000000
00100000
00010000
00100000
00100000
00010000
00001000
00000100
00001000
00010000
00010000
00001000
00000100
00000010
00000100
,  // measure 25
00001000
00001000
00000100
00000010
00000001
00000100
00000110
00000000
00001000
00000000
00011000
00000000
00010000
00000000
01000000
00000000
,  // measure 26
00010000
01000000
00010000
01000000
10000000
00100000
10000000
00100000
,  // measure 27
10000000
00100000
00010000
00001000
00010000
00001000
00010000
00001000
,  // measure 28
00000100
00000001
00000100
00000001
00000100
00000001
00000010
00001000
,  // measure 29
00000010
00001000
00000010
00001000
00010000
00100000
00010000
00100000
,  // measure 30
00010000
00100000
00001000
00000010
00001000
00000010
00001000
00000010
,  // measure 31
00010000
00001000
00010000
00001000
00010000
00001000
00011000
00010000
,  // measure 32
01000000
10000000
00100000
01000000
00100000
10000000
01000000
00010000
,  // measure 33
00001000
00010000
00011000
00001000
00000100
00000001
00000010
00000001
,  // measure 34
00000100
00000000
00001000
00000000
00010000
00001000
00010000
00001000
00010000
00000000
01000000
00000000
01100000
00000000
00100000
00000000
,  // measure 35
00001000
00010000
00000100
00000010
00000110
00000100
00010000
00001000
,  // measure 36
00100000
01000000
10000000
10000000
00100000
00100000
00010000
00010000
,  // measure 37
00001000
00010000
00001000
00010000
00001000
00010000
00001000
00010000
00002000
00000000
00003000
00000000
00022000
00000000
00033000
00000000
,  // measure 38
00000000
00020200
00030300
00000000
00000110
00000000
00000011
00000000
,  // measure 39
00001100
00000000
00020020
00030030
00000000
02002000
03003000
00000000
,  // measure 40
01000000
00001000
00010000
00100000
10000000
01000000
02200000
03300000
,  // measure 41
00000000
20020000
30030000
00000000
11000000
00000000
00110000
00000000
,  // measure 42
01001000
00000000
00020020
00030030
00000000
00202000
00303000
00000000
,  // measure 43
00020200
00000000
00030300
00000000
00000100
00001000
00000100
00000000
00000020
00000000
00000030
00000000
00000011
00000000
00000001
00000000
,  // measure 44
00000100
00000100
00001000
00000001
00000010
00000100
00010000
00001000
,  // measure 45
00100000
01000000
11000000
10000000
00100000
00100000
00010000
10000000
,  // measure 46
00100000
01000000
00001000
00010000
00000100
00000010
00000011
00000001
,  // measure 47
00000100
00001000
00010000
01000000
11000000
10000000
00100000
00010000
,  // measure 48
00001000
00000100
00000001
00000001
00000010
00000010
00000100
00000100
,  // measure 49
00010000
00001000
00010000
00001000
00010000
00001000
00010000
00001000
00010000
00001000
00010000
00001000
00020000
00000000
00000000
00000000
,  // measure 50
00000000
00000000
00000020
00000000
00000030
00000000
00000000
00032000
00200000
00000000
00000000
00000000
00000000
00000000
00000000
00000000
,  // measure 51
00000000
00303000
00110000
01001000
00010100
00101000
00010010
00001100
,  // measure 52
00011000
00010000
01000000
00100000
00010000
10000000
01000000
00100000
,  // measure 53
10000000
00100000
00010000
00100000
00001000
00010000
00000100
00001000
,  // measure 54
00000100
00000001
00000100
00000010
00000001
00001000
00000100
00000010
,  // measure 55
00001000
00010000
00100000
00010000
00001000
00000100
00001000
00010000
,  // measure 56
01000000
00010000
00001000
00000100
00000001
00000010
00001000
00010000
,  // measure 57
01000000
10000000
00100000
00010000
00001000
00100000
01000000
00010000
,  // measure 58
00001000
00000000
00000010
00000000
00000001
00000000
00002000
00000000
00000000
00003100
00000000
00000000
00000010
00000000
00000000
00001000
00000000
00000000
00010000
00000000
00100000
00000000
10000000
00000000
,  // measure 59
00020000
00130000
01000000
00010000
00012000
00000000
00000000
00003010
,  // measure 60
00000001
00000100
00000110
00000000
00000010
00001000
00000100
00000010
,  // measure 61
00000001
00000100
00000010
00001000
00000100
00000010
00001000
00010000
01000000
20000000
00000000
00000000
,  // measure 62
00000000
00100000
30100000
00000000
01100000
01000000
00010000
00100000
,  // measure 63
01000000
00000000
00010000
00000000
00001000
00010000
00001000
00000000
00010000
00000010
00010000
00000000
00001000
01000000
00001000
00000000
,  // measure 64
00011000
00010000
00000100
00000010
00000001
00001000
00001010
00000010
,  // measure 65
00000100
00001000
00010000
00100000
10100000
10000000
01000000
00100000
,  // measure 66
00010000
01000000
01001000
00001000
00011000
00010000
00010100
00000100
,  // measure 67
00001100
00001000
00000001
00000100
00000110
00000010
00010010
00010000
,  // measure 68
00010100
00000100
00000010
00001000
00011000
00010000
00100000
10000000
,  // measure 69
01000000
00100000
01100000
01000000
00010000
00001000
00000010
00000001
,  // measure 70
00001000
00000000
00000010
00000000
00010000
00000000
00200000
00000000
00000000
10300000
00000000
00000000
01000000
00000000
00000000
00100000
00000000
00000000
00010000
00000000
01000000
00000000
00001000
00000000
,  // measure 71
00000200
00000301
00000010
00001000
00021000
00000000
00000000
00130000
,  // measure 72
10000000
01000000
01100000
00000000
10010000
10000000
01000000
00100000
,  // measure 73
00010000
01000000
00100000
00010000
00001000
00000010
00000001
00000100
00001000
00020000
00000000
00000000
,  // measure 74
00130000
01000000
00100000
00000000
20000000
00000000
30000000
00000000
11000000
00000000
01000000
00000000
00100000
00000000
00100000
00000000
,  // measure 75
00010000
00010000
00001000
00001000
00000100
00000100
00000010
00000010
,  // measure 76
00000011
00000001
00000100
00001000
00010000
00100000
10100000
10000000
,  // measure 77
01000000
00000000
00100000
00000000
00010000
00000000
01000000
00000000
00001000
00010000
00001000
00010000
00001000
00010000
00001000
00010000
,  // measure 78
00001000
00010000
00001000
00010000
00001000
00010000
00001000
00010000
00001000
00010000
00001000
00020000
00002000
00000000
00033000
00000000
,  // measure 79
00022000
00000000
00000000
00000000
,  // measure 80
00000000
00000000
00000000
00000000
,  // measure 81
00000000
00000000
00000000
00033000
;

//---------------dance-double - ----------------
#NOTES:
     dance-double:
     :
     Medium:
     14:
     0.578561,0.831484,0.342117,0.425335,0.069348,438.000000,401.000000,37.000000,46.000000,0.000000,0.000000,0.578561,0.831484,0.342117,0.425335,0.069348,438.000000,401.000000,37.000000,46.000000,0.000000,0.000000:
// measure 0
00000000
00000000
00000000
00000000
,  // measure 1
00000000
00000000
00000000
00000000
,  // measure 2
00000000
00000000
00000000
00000000
,  // measure 3
00000000
00000000
00000000
00000000
,  // measure 4
00000000
00000000
00000000
00000000
00000000
00000000
00000000
00000000
00011000
00000000
00000000
00010000
00001000
00000000
00010000
00000000
,  // measure 5
00000010
00000000
00010000
00000000
00011000
00000000
00000000
00001000
00010000
00000000
00001000
00000000
01000000
00000000
00001000
00000000
,  // measure 6
00010000
00000100
00010000
00000000
00001000
00000000
00010000
00000100
00010000
00000000
00001000
00000000
00100000
00001000
00000000
00010000
,  // measure 7
00000010
00000000
00000000
00010000
00000000
00000000
00001000
00000000
00000000
00000000
00000000
00000000
00000000
00000000
00010000
00000000
00000000
00000000
00000000
00000000
00000000
00000000
00011000
00000000
00000000
00000000
00000000
00000000
00000000
00000000
00000000
00000000
00000000
00000000
00000000
00000000
00022000
00000000
00000000
00000000
00000000
00000000
00000000
00000000
00000000
00000000
00000000
00000000
,  // measure 8
00000000
00000000
00000000
00000000
,  // measure 9
00033000
02002000
00000000
03003000
,  // measure 10
00020020
00030030
00011000
00202000
,  // measure 11
00000000
00000000
00000000
00000000
,  // measure 12
00303000
00020200
00000000
00030300
,  // measure 13
01001000
00000000
00010010
00000000
00011000
00000000
00001000
00010000
,  // measure 14
00001000
00000100
00000001
00000010
,  // measure 15
00001000
00000000
00010000
00001000
00010000
00000000
01000000
00000000
,  // measure 16
10000000
00000000
00100000
00000000
00010000
00000000
00001000
00010000
,  // measure 17
00001000
00010000
00000010
00000000
00010000
00001000
00010000
00001000
,  // measure 18
01000000
00000000
00001000
00010000
00001000
00010000
00100000
00010000
,  // measure 19
00001000
00000010
00001000
00010000
00001000
00010000
00200000
00000000
,  // measure 20
00000000
00000000
20300000
00000000
00000000
00000000
01000000
00000000
31000000
00000000
01000000
00100000
00010000
00000000
00100000
00000000
,  // measure 21
00001000
00000000
00010000
00000000
00011000
00000000
00000000
00001000
00010000
00000000
00000100
00000000
00001000
00000000
00000100
00000000
,  // measure 22
00000110
00000000
00000010
00000001
00000100
00001000
00020000
00000000
,  // measure 23
00000000
00030200
00000000
00000010
00000310
00000000
00000010
00001000
,  // measure 24
00010000
00000000
00100000
00000000
10000000
01000000
10000000
00000000
00010000
00000000
10000000
01000000
10000000
00000000
00100000
00000000
,  // measure 25
10000000
01000000
10000000
00000000
01000000
00000000
00010000
00000000
00001000
00000000
00010000
00000000
00011000
00000000
00000000
00000000
,  // measure 26
00001000
00100000
01000000
10000000
,  // measure 27
00100000
00000000
00010000
00000000
00001000
00010000
00001000
00000000
,  // measure 28
01000000
00000000
00001000
00010000
00001000
00000000
00100000
00000000
,  // measure 29
01000000
00010000
00001000
00000010
,  // measure 30
00000100
00001000
00000001
00000010
,  // measure 31
00001000
00010000
00000100
00001000
00000100
00010000
00002000
00000000
,  // measure 32
00103000
01000000
10000000
00100000
,  // measure 33
00010000
00011000
00001000
00000100
,  // measure 34
00000001
00000000
00000010
00000100
00000010
00000100
00001000
00000100
,  // measure 35
00000010
00000000
00000001
00000000
00000100
00001000
00010000
00000000
,  // measure 36
00100000
00000000
10000000
01000000
00100000
00000000
01000000
00000000
,  // measure 37
00010000
00001000
00000010
00000001
00001000
00000001
00002001
00000000
,  // measure 38
00000000
00003020
00000000
00000000
00010030
00000000
00001000
00000000
,  // measure 39
00100000
00000000
00120000
00000000
00000000
02030000
00000000
00000000
,  // measure 40
03100000
10000000
01000000
01020000
,  // measure 41
00000000
00032000
00000000
00000000
00003100
00000000
00000001
00000000
,  // measure 42
00000010
00000000
00000210
00000000
00000000
00020300
00000000
00000000
,  // measure 43
00031000
00000000
00100000
00000000
01100000
00000000
01000000
10000000
,  // measure 44
00100000
10000000
01000000
00000000
00010000
00001000
00000100
00001000
,  // measure 45
00010000
00000000
00001000
00010000
01000000
00010000
00001000
00000000
,  // measure 46
00000100
00000001
00000010
00000001
00000100
00000000
00000010
00001000
,  // measure 47
00000100
00000000
00000010
00000000
00000001
00000100
00001000
00000000
,  // measure 48
00010000
00000000
00100000
10000000
01000000
00000000
00010000
00000000
,  // measure 49
00001000
00010000
00100000
00010000
00001000
00000010
00002000
00000000
,  // measure 50
00000000
00000000
00100000
00000000
00000000
00000000
00000000
00023000
00000020
00000000
00000000
00000000
00000000
00000000
00000000
00000000
,  // measure 51
00000000
00030030
00010000
00001000
00000100
00010000
01000000
00001000
,  // measure 52
00021000
00030100
00012000
00103000
,  // measure 53
01000000
00000000
10000000
00000000
10010000
00000000
00010000
00100000
,  // measure 54
01000000
00010000
00001000
00000000
00000010
00000000
00000001
00000000
,  // measure 55
00001001
00000000
00001000
00000000
00000100
00000010
00001000
00000000
,  // measure 56
00010000
00100000
20100000
32000000
,  // measure 57
03200000
00000000
00320000
00000000
01030000
00100000
00010000
00001000
,  // measure 58
00100000
01000000
00010000
00001000
00010000
00000000
00000100
00000010
,  // measure 59
00001000
00010000
00001000
00000000
00021000
00000000
00000000
00030100
,  // measure 60
00001000
00000100
00000010
00000000
00000001
00000100
00001000
00010000
,  // measure 61
00100000
10000000
01000000
00100000
00010000
01000000
00002000
00000000
,  // measure 62
00000000
00013000
00000010
00000000
00001010
00000000
00000101
00000000
,  // measure 63
00001001
00000000
00001000
00000100
00000010
00000001
00000100
00001000
,  // measure 64
00021000
00030010
00012000
01003000
,  // measure 65
00100000
00000000
10000000
00000000
10010000
00000000
00010000
01000000
,  // measure 66
00100000
00010000
00001000
00000000
00000100
00000000
00000001
00000000
,  // measure 67
00001001
00000000
00001000
00000000
00000010
00000100
00001000
00000000
,  // measure 68
00010000
01000000
21000000
30200000
,  // measure 69
02300000
00000000
03020000
00000000
00130000
01000000
00010000
00001000
,  // measure 70
01000000
00100000
00010000
00001000
00010000
00000000
00000010
00000100
,  // measure 71
00001000
00010000
00001000
00000000
00021000
00000000
00000000
00030010
,  // measure 72
00001000
00000010
00000100
00000000
00000001
00000010
00001000
00010000
,  // measure 73
01000000
10000000
00100000
01000000
00010000
00100000
00002000
00000000
,  // measure 74
00023000
00000000
00030200
00000000
00000310
00000001
00000100
00001000
,  // measure 75
00010000
00000000
01000000
10000000
00100000
00010000
00001000
00000000
,  // measure 76
00000100
00000001
00000010
00001000
00010000
00000000
00100000
10000000
,  // measure 77
01000000
00010000
00001000
00000000
00000100
00001000
00010000
01000000
,  // measure 78
00010000
00001000
00000010
00001000
00010000
00100000
00010000
00000000
,  // measure 79
00022000
00000000
00000000
00000000
,  // measure 80
00000000
00000000
00000000
00000000
,  // measure 81
00000000
00000000
00000000
00033000
;
