#TITLE:Fires of Destiny;
#SUBTITLE:;
#ARTIST:Jehezukiel;
#TITLETRANSLIT:;
#SUBTITLETRANSLIT:;
#ARTISTTRANSLIT:;
#GENRE:VARIETY;
#CREDIT:MUINELIM;
#BANNER:Fires of Destiny.png;
#BACKGROUND:Fires of Destiny-bg.png;
#LYRICSPATH:;
#CDTITLE:;
#MUSIC:Fires of Destiny.ogg;
#OFFSET:-0.145000;
#SAMPLESTART:26.460148;
#SAMPLELENGTH:10.000000;
#SELECTABLE:YES;
#DISPLAYBPM:84.000000:155.000000;
#BPMS:0.000000=155.000000
,134.000000=132.000000
,136.000000=122.000000
,138.000000=112.000000
,139.000000=92.000000
,142.000000=85.000000
,143.000000=80.000000
,144.000000=155.000000
;
#STOPS:
;
#BGCHANGES:0.000=Fires of Destiny.avi=1.000=0=0=0=StretchNoLoop====,
99999=-nosongbg-=1.000=0=0=0 // don't automatically add -songbackground-
;
#KEYSOUNDS:;
#ATTACKS:;

//---------------dance-single - ----------------
#NOTES:
     dance-single:
     :
     Beginner:
     4:
     0.164868,0.212555,0.016141,0.048423,0.000000,143.000000,141.000000,2.000000,6.000000,0.000000,0.000000,0.164868,0.212555,0.016141,0.048423,0.000000,143.000000,141.000000,2.000000,6.000000,0.000000,0.000000:
0000
0000
0000
0000
,
0000
0000
0000
0000
,
0000
0000
0000
0000
,
0000
0000
0000
0000
,
0000
0000
0000
0000
,
1000
0000
1000
0000
,
0001
0000
0001
0000
,
1000
0000
0001
0000
,
1001
0000
0000
0000
,
1000
0000
0010
0000
,
1000
0000
0010
0000
,
0100
0000
0001
0000
,
0100
0000
0100
0000
,
0001
0000
0010
0000
,
0001
0000
0010
0000
,
0100
0000
1000
0000
,
0100
0000
0100
0000
,
1000
0000
0001
0000
,
1000
0000
0001
0000
,
0010
0000
0100
0000
,
0010
0000
0010
0000
,
0001
0000
0100
0000
,
0010
0000
1000
0000
,
0001
0000
0100
0000
,
0010
0010
0010
0000
,
0020
0000
0000
0000
,
0030
0000
0000
0000
,
2000
0000
0000
0000
,
3000
0000
0000
0000
,
0002
0000
0000
0000
,
0003
0000
0000
0000
,
0200
0000
0000
0000
,
0300
0000
0000
0000
,
0010
0000
0000
0000
,
0010
0000
0000
0000
,
0010
0000
0000
0000
,
0020
0000
0030
0000
,
1000
0000
0001
0000
,
1000
0000
0001
0000
,
0010
0000
0100
0000
,
0010
0000
0100
0000
,
1000
0000
0010
0000
,
0100
0000
0001
0000
,
0100
0000
0010
0000
,
1000
0000
0100
0000
,
0010
0000
0001
0000
,
1000
0000
0001
0000
,
1000
0000
0010
0000
,
0100
0000
0010
0000
,
1000
0000
1000
0000
,
0001
0000
0001
0000
,
1000
1000
1000
0000
,
0001
0001
0001
0000
,
0100
0100
0100
0000
,
0010
0010
0010
0000
,
0100
0100
0100
0000
,
0001
0001
0001
0000
,
1000
1000
1000
0000
,
0010
0010
0010
0100
,
0000
0010
0010
0010
,
0000
1000
1000
0001
,
0001
0000
1000
0000
,
0010
0100
0010
0010
,
1000
0000
0100
0000
,
0010
0000
0001
0000
,
1000
0000
0100
0000
,
0010
0000
0001
0002
,
0003
1000
0000
0010
,
0000
0100
0000
0001
,
0000
0010
0000
0100
,
0000
1000
1000
0000
,
0010
0000
0001
0000
,
0100
0000
1000
0000
,
0010
0000
0001
0000
,
0100
0100
0100
0100
,
0000
1001
0000
0000
;

//---------------dance-single - ----------------
#NOTES:
     dance-single:
     :
     Easy:
     8:
     0.319359,0.455475,0.169479,0.129127,0.000000,277.000000,256.000000,21.000000,16.000000,0.000000,0.000000,0.319359,0.455475,0.169479,0.129127,0.000000,277.000000,256.000000,21.000000,16.000000,0.000000,0.000000:
0000
0000
0000
0000
,
0000
0000
0000
0000
,
0000
0000
0000
0000
,
0000
0000
0000
0000
,
0000
0000
0000
0000
,
1000
1000
0001
0001
,
1000
1000
0001
0001
,
1000
0001
1000
0001
,
1001
0000
0000
1001
,
1000
0010
1000
0100
,
1000
0000
0010
0000
1000
0000
0100
0100
,
0100
0001
0010
0001
,
0100
0001
0020
0030
,
0001
0100
0001
0010
,
0001
0000
0100
0000
0001
0000
0010
0010
,
0010
1000
0100
1000
,
0010
1000
0200
0300
,
1000
0001
0100
0010
,
1000
0000
0001
0000
0100
0000
0010
0010
,
0010
1000
0001
0100
,
0010
0100
0110
0000
,
1000
1000
0010
0010
,
0001
0001
0100
0100
,
1000
0001
0010
0100
,
1000
0010
1000
0000
0001
0100
0001
0000
,
2000
0000
0000
0000
,
0000
0000
0000
3000
,
0020
0000
0000
0000
,
0000
0000
0000
0030
,
0200
0000
0000
0000
,
0000
0000
0000
0300
,
0002
0000
0000
0000
,
0000
0000
0000
0003
,
0020
0000
0000
0030
,
0200
0000
0000
0300
,
2000
0000
0000
0000
,
0002
0000
0000
3003
,
0001
1000
0010
0100
,
0010
1000
0001
0100
,
0010
0100
0001
0010
,
0100
1000
0010
0100
,
0010
0010
0010
0000
1000
0000
0001
0000
,
0100
0100
0100
0000
0001
0000
1000
0000
,
0010
0100
0001
0000
0100
0010
1000
0000
,
0001
0000
1000
1000
0000
0001
0001
0000
,
1000
0100
0010
0001
,
0010
0100
1000
0010
,
0110
0100
0101
0001
,
1001
1000
1010
0010
,
0200
0301
0001
0100
,
0020
1030
1000
0010
,
0110
0000
0100
0000
0100
0000
0001
0010
,
0001
0000
0001
0000
0001
0000
1000
0100
,
1000
1000
1000
1000
,
0010
0000
0010
0000
0010
0000
0010
0100
,
0001
0001
0001
0001
,
1000
0000
1000
0000
1000
0000
1000
0010
,
0100
0100
0100
0100
,
0010
0000
0010
0000
0010
0000
0010
0010
,
0000
0000
1001
0000
1000
1000
0000
0010
,
0000
0100
0100
0000
0001
0000
1000
0000
,
1001
0000
0001
0001
0001
0001
0000
0100
,
0000
0010
0010
0000
1000
0000
1001
0000
,
0001
0100
0010
0110
,
1000
0100
0010
0110
,
0001
0101
1000
1010
,
0001
1001
0110
2002
,
3003
1001
0001
0100
,
1000
0100
0001
0010
,
1000
0010
0001
0100
,
0010
0100
0220
0330
,
0010
1000
0100
0001
,
1000
0010
0001
0100
,
0010
1000
0010
0000
0100
0001
0100
0000
,
0001
1000
0001
0000
0100
0010
0100
0100
,
0000
1001
0000
0000
;

//---------------dance-single - ----------------
#NOTES:
     dance-single:
     :
     Medium:
     12:
     0.525731,0.607301,0.355099,0.282465,0.129127,456.000000,412.000000,44.000000,35.000000,0.000000,0.000000,0.525731,0.607301,0.355099,0.282465,0.129127,456.000000,412.000000,44.000000,35.000000,0.000000,0.000000:
0000
0000
0000
0000
,
0000
0000
0000
0000
,
0000
0000
0000
0000
,
0000
0000
0000
0000
,
0000
0000
0000
0000
,
1000
1000
0001
0001
,
0100
0100
0010
0010
,
1000
0000
0001
0000
0010
0100
0010
0100
,
0020
0000
0030
0110
,
0100
1000
0100
0000
1000
0010
1000
0000
,
0001
0100
0001
0000
0010
0001
0010
0010
,
0010
0001
0100
0000
0010
1000
0100
0000
,
1000
0000
0010
0000
0100
0000
0001
0000
1000
0000
0000
1000
0000
0000
1000
0000
,
0010
1000
0100
0000
0100
0001
0100
0000
,
0001
0010
0001
0000
1000
0100
1000
1000
,
1000
0001
0010
0000
0001
1000
0100
0000
,
1000
0010
0100
0001
0020
0000
0030
0000
,
0010
0001
0100
0000
0010
1000
0100
0000
,
1000
0001
0100
0000
0001
1000
0010
0010
,
0010
0100
0001
0000
0100
0010
1000
0000
,
0100
0000
0010
0001
0000
0100
0000
0001
2000
0000
0000
0000
3000
0000
0000
0000
,
1000
0000
0000
0010
0000
0000
1010
0000
1000
0000
0000
0001
0000
0000
0101
0000
,
0001
0000
0000
0010
0000
0000
1100
0000
1000
0000
0000
0100
0000
0000
0011
0000
,
0001
0100
0010
1000
0010
0100
0001
0010
,
0100
0000
0100
0000
1000
0010
0000
0000
0100
0000
0001
0000
1001
0000
0000
0000
,
2000
0010
0010
0010
,
0010
0010
0010
3010
,
0020
0100
0100
0100
,
0100
0100
0100
0130
,
0200
0001
0001
0001
,
0001
0001
0001
0301
,
0002
1000
1000
1000
,
1000
1000
1000
1003
,
1000
0010
0001
0100
,
1000
0010
0001
0100
,
1000
0010
0001
0100
,
2002
0000
0000
3003
,
1000
0010
0100
0001
0010
0100
1000
0100
,
0010
0001
1000
0001
0010
0100
1000
0010
,
0100
0001
0100
0010
1000
0010
0100
0001
,
0010
0100
1000
0001
1000
0100
0010
0001
,
2000
0000
0000
3020
0000
0000
0230
0000
0000
0302
0000
0000
0013
0000
0010
0000
,
0200
0000
0000
2300
0000
0000
3002
0000
0000
0203
0000
0000
0310
0000
0010
0000
,
2000
0000
0000
3200
0000
0000
0320
0000
0000
0032
0000
0000
1003
0000
1000
0000
,
0020
0000
0100
0230
0000
0301
0010
0100
,
1000
0010
0001
0010
1000
0100
0001
0100
,
1000
0010
0100
0001
0010
0100
1000
0010
,
0200
0000
0000
0001
0000
0000
0310
0000
0020
0000
0000
0100
0000
0000
1030
0000
,
2000
0000
0000
0100
0000
0000
3001
0000
0202
0000
0000
0000
0303
0000
0000
0000
,
0100
0001
0100
0000
0010
0000
1000
0000
0100
0000
0010
0000
0001
0000
0000
0000
,
1000
0100
1000
0000
0001
0000
0010
0000
0100
0000
1000
0000
0010
0000
0000
0000
,
0110
0000
0110
0000
0110
0000
0110
0010
,
1000
0000
1010
0000
1010
1000
0100
0010
,
0001
0011
0011
0011
,
0101
0000
0101
0000
0101
0100
0010
1000
,
0100
1100
1100
1100
,
1001
0000
1001
0000
1001
0000
1001
0001
,
0100
0110
1010
1100
,
0011
0000
0101
0000
0110
0000
0010
0020
,
0000
0000
0030
0000
1000
0001
1000
0001
1000
0000
0100
0000
0000
0000
1100
0000
,
0000
1000
0010
0100
0001
0010
0100
0010
,
0011
0000
0000
0000
0001
0100
0001
0100
0001
0000
0010
0000
0000
0000
0110
0000
,
0000
0000
0100
0000
1000
0000
0001
0100
0001
0000
0000
0000
1001
0000
0000
0000
,
1000
0010
0100
0010
0001
0010
0100
0000
,
0001
0100
0010
0100
1000
0100
0010
0000
,
0100
0001
0010
1000
0001
0100
1000
0010
,
0001
1000
0100
0001
0010
0100
2000
0002
,
3003
0000
1001
0000
0001
0100
1000
0000
,
0001
0010
1000
0000
0001
0100
1000
0000
,
0001
0010
1000
0100
0010
0001
1000
0200
,
0000
0000
0310
0001
0100
0000
0010
0000
2002
0000
0000
0000
3003
0000
0000
0000
,
0001
0000
0000
0100
0000
0000
1100
0000
1000
0000
0000
0100
0000
0000
0101
0000
,
0001
0000
0000
0010
0000
0000
1010
0000
1000
0000
0000
0010
0000
0000
0011
0000
,
0001
0100
0010
0001
1000
0100
0010
1000
,
0001
0010
0001
0000
0100
0000
0010
0000
1000
0100
1000
0000
0010
0000
0020
0000
,
0030
1001
0000
0000
;

//---------------dance-single - ----------------
#NOTES:
     dance-single:
     :
     Hard:
     16:
     0.747092,1.002046,0.661776,0.403522,0.593177,648.000000,566.000000,82.000000,50.000000,0.000000,0.000000,0.747092,1.002046,0.661776,0.403522,0.593177,648.000000,566.000000,82.000000,50.000000,0.000000,0.000000:
0000
0000
0000
0000
,
0000
0000
0000
0000
,
0000
0000
0000
0000
,
0000
0000
0000
0000
,
0000
0000
0000
0000
,
1000
1000
0001
0001
,
0100
0100
0010
0010
,
1000
0000
0000
0000
0001
0000
0000
0000
0100
0000
0100
0000
0100
0000
0010
0100
,
0020
0000
0030
0110
,
1000
0000
0001
0000
1000
0000
0010
0100
0010
0000
0100
0000
0001
0000
0010
0001
,
0010
0000
0001
0000
0100
0000
0010
1000
0010
0000
0100
0000
0001
0000
0010
0100
,
0010
0000
0100
0000
1000
0000
0001
0010
0001
0000
1000
0000
0100
0000
0010
0001
,
0010
0000
0100
0000
1000
0000
1010
0000
0101
0000
0000
0011
0000
0000
1100
0000
,
0100
0000
0010
0000
0100
0000
1000
0001
1000
0000
0001
0000
0100
0000
0010
1000
,
0010
0000
0100
0000
0001
0000
0010
0001
0010
0000
0001
0000
0100
0000
0110
0000
,
0110
0000
0010
0000
1000
0000
0100
0010
0100
0000
1000
0000
0010
0000
0100
0001
,
0100
0010
1000
1100
0022
0000
0033
0000
,
0001
0000
0100
0000
0010
0000
1000
0100
0010
0000
0100
0000
1000
0000
0001
0010
,
0100
0000
0010
0000
0001
0000
1000
0010
0100
0000
0010
0000
1000
0000
0001
0100
,
0010
0000
0100
0000
0001
0000
1000
0001
0100
0000
0010
0000
0100
0000
0001
1000
,
0010
0000
0100
0010
0000
0100
0000
0001
2000
0000
0000
0000
3000
0000
0000
0000
,
1100
0000
0000
1100
0000
0000
0101
0000
0011
0000
0000
1010
0000
0000
1010
0000
,
0101
0000
0000
1100
0000
0000
1100
0000
1010
0000
0000
0011
0000
0000
0011
0000
,
0001
0100
0001
0100
0010
1000
0010
1000
0001
0010
0001
0010
0100
1000
0100
1000
,
0010
0000
0010
0000
0100
0002
0000
1003
0010
0100
0001
0010
0200
0000
0300
0000
,
2100
3020
0230
0302
,
2003
3200
0320
0031
,
0201
0320
2030
3002
,
0023
0230
2300
3010
,
0210
0302
2003
3020
,
0032
0023
2030
3100
,
0120
0032
0203
2300
,
3200
0302
2003
3010
,
0110
0101
1010
1001
,
0110
0011
1100
1001
,
0101
1100
1010
0011
,
2002
0000
0000
3003
,
1000
0010
1000
0000
0010
1000
0010
0000
0100
0001
0100
0000
0001
0100
0001
0000
,
0010
0001
0010
0000
0100
0010
0100
0000
1000
0100
1000
0000
0001
1000
0001
0000
,
1000
0010
0100
0000
0001
0100
0010
0000
0100
0001
1000
0000
0010
1000
0001
0000
,
0010
0100
1000
0000
0001
0010
0100
0000
1000
0001
0100
0000
0001
1000
0010
0000
,
1000
0100
0000
0100
0010
0000
0010
0001
0000
0001
1000
0000
0010
0000
0100
0000
,
0001
0100
0000
0100
0010
0000
0010
1000
0000
1000
0001
0000
0010
0000
0100
0000
,
1000
0010
0100
0001
1000
0000
0100
0000
0010
0001
1000
0010
0100
0000
0001
0000
,
0021
0000
0000
0000
0130
0000
2100
0000
0000
0000
3010
0100
0001
0000
0100
0000
,
0110
0000
0010
1000
0100
0000
1000
0001
0010
0000
0001
1000
0100
0000
0010
0001
,
0010
0100
1000
0010
0200
0000
0301
1000
0010
0000
0100
0010
0000
0001
0010
0000
,
1000
0000
0010
0100
0000
1000
0100
0000
0001
0000
0010
0100
0000
0010
1000
0000
,
0010
0000
0100
0001
0000
0100
0010
0000
0002
0000
0000
0000
2003
0000
0000
0000
,
3010
0100
0001
0000
0010
0001
0100
0000
0010
1000
0100
0000
1000
0010
0100
0000
,
0001
0010
0100
0000
1000
0100
0010
0000
0001
1000
0010
0000
1000
0001
0100
0000
,
0110
0000
1010
0000
0101
0000
0011
0100
,
1100
0000
0000
0000
1001
0000
0000
0000
0101
0000
0010
0000
1010
0000
1000
0100
,
0020
0030
0011
0000
0101
0000
1100
0000
,
1010
0000
0000
0000
0110
0000
0000
0000
1001
0000
0001
0000
0100
0010
1000
0001
,
0200
0300
0110
0000
1010
0000
0101
0000
,
1100
0000
0000
0000
0011
0000
0000
0000
1001
0000
0000
0000
0110
0000
0010
1000
,
0002
0003
0101
0000
1100
0000
1010
0000
,
0011
0000
1100
0000
0101
0000
1001
2002
,
3003
0000
0000
0000
1000
0010
0100
0001
0010
0000
0011
0000
0000
0000
1010
0000
,
0000
0000
1100
0000
0100
0010
0100
1000
0100
0000
0010
0000
0011
0000
1000
0000
,
1010
0000
0000
0000
0010
1000
0100
0010
0001
0000
0101
0000
0000
0000
1010
0000
,
0000
0000
1000
0001
0010
0000
0001
1000
0200
0000
0300
0000
0110
0000
0000
0000
,
0011
0001
0100
0100
1000
1000
0100
0010
,
1010
1000
0100
0100
0001
0001
0100
0010
,
0001
0100
0010
0000
0010
0100
0001
0000
1000
0100
0010
0000
0010
0100
1000
0000
,
0001
0100
0001
0010
0100
1000
0001
0100
0001
0010
0100
1000
0020
0000
0000
0000
,
0130
0000
0000
0000
1001
0000
0001
0100
0010
0000
0001
0000
0010
0000
1000
0010
,
0100
0000
1000
0000
0100
0000
0001
0010
0100
0000
0001
0000
0100
0000
1000
0100
,
0010
0000
0010
0001
0100
0000
0100
0010
1000
0000
1000
0001
0010
0100
0020
0000
,
0000
0000
0031
0100
0010
1000
0001
0010
0200
0000
0000
0000
0300
0000
0000
0000
,
1000
0010
0000
0001
0010
0000
0100
0000
0001
0100
0000
1000
0100
0000
0001
0000
,
0010
1000
0000
0010
0001
0000
1000
0000
0100
0001
0000
0100
1000
0000
0010
0000
,
0100
0001
0100
0001
0010
0100
0010
0100
1000
0010
1000
0010
0100
0001
0010
0100
,
1000
0010
1000
0001
0010
0100
1000
0010
1000
0001
0010
0100
1000
0010
0001
0010
,
1000
1001
0000
0000
;

//---------------dance-double - ----------------
#NOTES:
     dance-double:
     :
     Hard:
     16:
     0.719422,0.880586,0.573001,0.177550,0.540719,624.000000,553.000000,71.000000,22.000000,0.000000,0.000000,0.719422,0.880586,0.573001,0.177550,0.540719,624.000000,553.000000,71.000000,22.000000,0.000000,0.000000:
// measure 0
00000000
00000000
00000000
00000000
,  // measure 1
00000000
00000000
00000000
00000000
,  // measure 2
00000000
00000000
00000000
00000000
,  // measure 3
00000000
00000000
00000000
00000000
,  // measure 4
00000000
00000000
00000000
00000000
,  // measure 5
01000000
01000000
00001000
00001000
,  // measure 6
00010000
00010000
00000010
00000010
,  // measure 7
00010000
00000000
00000000
00000000
00001000
00000000
00000000
00000000
00010000
00000000
00001000
00000000
00010000
00000000
00001000
00010000
,  // measure 8
00002000
00000000
00003000
00011000
,  // measure 9
00010000
00000000
00000100
00000000
00001000
00000000
00000001
00000010
00000001
00000000
00001000
00000000
00000100
00000000
00000010
00000100
,  // measure 10
00000010
00000000
00000001
00000000
00000100
00000000
00001000
00010000
00001000
00000000
00010000
00000000
00100000
00000000
10000000
01000000
,  // measure 11
10000000
00000000
01000000
00000000
00010000
00000000
00001000
00010000
00001000
00000000
00100000
00000000
01000000
00000000
00010000
00001000
,  // measure 12
00010000
00000000
00001000
00000000
00000010
00000000
00000011
00000000
00000011
00000000
00000000
00000101
00000000
00000000
00001010
00000000
,  // measure 13
00001000
00000000
00000100
00000000
00000010
00000000
00001000
00010000
00001000
00000000
00010000
00000000
01000000
00000000
10000000
00100000
,  // measure 14
10000000
00000000
00010000
00000000
00100000
00000000
01000000
00100000
01000000
00000000
10000000
00000000
00100000
00000000
00010000
00000000
,  // measure 15
00011000
00000000
00001000
00000000
00000100
00000000
00000001
00000010
00000001
00000000
00000010
00000000
00001000
00000000
00010000
00001000
,  // measure 16
00010000
01000000
10000000
00010000
20020000
00000000
30030000
00000000
,  // measure 17
10000000
00000000
01000000
00000000
00100000
00000000
00010000
00100000
00010000
00000000
01000000
00000000
00100000
00000000
00010000
00001000
,  // measure 18
00010000
00000000
00001000
00000000
00000100
00000000
00000010
00001000
00000010
00000000
00001000
00000000
00000100
00000000
00000010
00000001
,  // measure 19
00000010
00000000
00000001
00000000
00000100
00000000
00001000
00010000
00001000
00000000
00010000
00000000
01000000
00000000
10000000
00100000
,  // measure 20
10000000
00000000
00100000
01000000
00000000
00001000
00000000
00010000
00002000
00000000
00000000
00000000
00003000
00000000
00000000
00000000
,  // measure 21
01001000
00000000
00000000
00001000
00000000
00000000
00011000
00000000
00010010
00000000
00000000
00010000
00000000
00000000
00011000
00000000
,  // measure 22
00101000
00000000
00000000
00001000
00000000
00000000
00011000
00000000
00010100
00000000
00000000
00010000
00000000
00000000
00011000
00000000
,  // measure 23
00001000
00100000
00001000
00100000
00010000
01000000
00010000
01000000
00100000
10000000
00100000
10000000
01000000
00100000
00010000
00100000
,  // measure 24
00001000
00000000
00001000
00000000
00010000
00000200
00000000
00001300
00000010
00001000
00000100
00000010
00000002
00000000
00000003
00000000
,  // measure 25
00000101
00000100
00000010
00001000
,  // measure 26
00010000
01000000
00100000
10000000
,  // measure 27
11000000
01000000
00100000
00010000
,  // measure 28
00001000
00000100
00000010
00000001
,  // measure 29
00000011
00000010
00000100
00001000
,  // measure 30
00010000
00100000
01000000
10000000
,  // measure 31
10100000
00100000
01000000
00010000
,  // measure 32
00001000
00000010
00000100
00000001
,  // measure 33
00000011
00001100
00010010
01001000
,  // measure 34
00010100
00101000
01010000
10100000
,  // measure 35
01001000
00010100
00101000
00010010
,  // measure 36
00022000
00000000
00000000
00033000
,  // measure 37
00001000
00100000
00010000
00000000
00010000
01000000
00100000
00000000
00100000
10000000
01000000
00000000
00100000
00000000
00001000
00000000
,  // measure 38
00010000
00000010
00001000
00000000
00001000
00000100
00000010
00000000
00000010
00000001
00000100
00000000
00000010
00000000
00010000
00000000
,  // measure 39
00001000
00100000
01000000
00000000
01000000
10000000
00010000
00000000
00010000
01000000
00100000
00000000
00010000
00000000
00001000
00000000
,  // measure 40
00010000
00000010
00000100
00000000
00000100
00000001
00001000
00000000
00001000
00000100
00000010
00000000
00001000
00000000
00010000
00000000
,  // measure 41
01000000
10000000
00000000
01000000
00100000
00000000
01000000
00010000
00000000
00001000
00010000
00000000
00000100
00000000
00001000
00000000
,  // measure 42
00000010
00000001
00000000
00000010
00000100
00000000
00000010
00001000
00000000
00000100
00010000
00000000
00001000
00000000
00100000
00000000
,  // measure 43
01000000
10000000
01000000
00100000
01000000
00000000
00010000
00000000
00001000
00010000
00001000
00000010
00001000
00000000
00010000
00000000
,  // measure 44
00012000
00000000
00000000
00000000
01003000
00000000
00021000
00000000
00000000
00000000
00030100
00001000
00000001
00000000
00000100
00000000
,  // measure 45
00000110
00000000
00000010
00001000
00000100
00000000
00000100
00000010
00000001
00000000
00000001
00000100
00001000
00000000
00001000
00010000
,  // measure 46
00001000
00100000
00010000
00100000
02000000
00000000
13000000
00000000
00100000
00000000
00010000
00001000
00000000
00010000
00000100
00000000
,  // measure 47
00001000
00000000
00000010
00010000
00000000
00001000
00010000
00000000
00001000
00000000
00100000
00010000
00000000
01000000
00010000
00000000
,  // measure 48
00100000
00000000
00001000
00010000
00000000
00000010
00001000
00000000
00000200
00000000
00000000
00000000
00000320
00000000
00000000
00000000
,  // measure 49
00000031
00000100
00001000
00000000
00010000
00000000
00001000
00000000
00000100
00001000
00010000
00000000
00001000
00000000
00000100
00000000
,  // measure 50
00001000
00010000
01000000
00000000
00010000
00000000
00001000
00000000
00010000
01000000
10000000
00000000
00100000
00000000
00010000
00000000
,  // measure 51
00011000
00000000
01001000
00000000
00010100
00000000
00101000
00010000
,  // measure 52
00010010
00000000
00000000
00000000
00001100
00000000
00000000
00000000
00000011
00000000
00000100
00000000
00001100
00000000
00001000
00000010
,  // measure 53
00020000
00030000
00011000
00000000
00101000
00000000
00010010
00000000
,  // measure 54
01001000
00000000
00000000
00000000
00010100
00000000
00000000
00000000
00011000
00000000
00001000
00000000
00100000
00010000
00100000
01000000
,  // measure 55
20000000
30000000
10100000
00000000
01010000
00000000
00011000
00000000
,  // measure 56
00001100
00000000
00000000
00000000
00000011
00000000
00000000
00000000
00001001
00000000
00000000
00000000
00000110
00000000
00000010
00001000
,  // measure 57
00000002
00000003
00000101
00000000
00001010
00000000
00011000
00000000
,  // measure 58
00110000
00000000
11000000
00000000
01100000
00000000
10010000
20020000
,  // measure 59
30030000
00000000
00000000
00000000
10000000
00100000
01000000
00010000
00100000
00000000
01000000
00000000
00000000
00000000
01010000
00000000
,  // measure 60
00000000
00000000
00011000
00000000
00001000
00010000
00001000
00000100
00000010
00000000
00001000
00000000
00000100
00000000
00000010
00000000
,  // measure 61
00000011
00000000
00000000
00000000
00000001
00000100
00001000
00010000
00100000
00000000
10000000
00000000
00000000
00000000
11000000
00000000
,  // measure 62
00000000
00000000
01000000
00100000
00010000
00000000
00100000
00001000
00020000
00000000
00030000
00000000
00011000
00000000
00000000
00000000
,  // measure 63
00001000
00000100
00000001
00000010
00001000
00010000
01000000
10000000
,  // measure 64
00100000
00010000
00001000
00000100
00000001
00000010
00001000
00010000
,  // measure 65
00000100
00001000
00000010
00000000
00010000
00001000
00000100
00000000
00001000
00010000
01000000
00000000
00100000
00010000
01000000
00000000
,  // measure 66
00100000
10000000
00100000
10000000
00010000
01000000
00010000
01000000
00001000
00010000
00001000
00010000
00000200
00000000
00000000
00000000
,  // measure 67
00000310
00000000
00000000
00000000
00001001
00000000
00000001
00000100
00001000
00000000
00000100
00000000
00000001
00000000
00000010
00001000
,  // measure 68
00010000
00000000
00100000
00000000
10000000
00000000
01000000
00010000
00001000
00000000
00010000
00000000
01000000
00000000
10000000
00100000
,  // measure 69
00010000
00000000
00010000
00001000
00100000
00000000
00100000
01000000
00010000
00000000
00010000
00001000
00000010
00000001
00002000
00000000
,  // measure 70
00000000
00000000
00003010
00000100
00000010
00001000
00000100
00000010
00000002
00000000
00000000
00000000
00000003
00000000
00000000
00000000
,  // measure 71
00001000
00000001
00000000
00000100
00001000
00000000
00010000
00000000
00100000
10000000
00000000
01000000
00100000
00000000
00010000
00000000
,  // measure 72
00001000
00000010
00000000
00000100
00000001
00000000
00000010
00000000
00000100
00001000
00000000
00010000
00100000
00000000
01000000
00000000
,  // measure 73
10000000
00100000
01000000
00000000
01000000
00010000
00100000
00000000
00100000
01000000
00010000
00000000
00010000
00001000
00000010
00000000
,  // measure 74
00000010
00000001
00000100
00000010
00001000
00000010
00010000
00001000
00100000
00010000
00100000
01000000
10000000
00100000
01000000
00010000
,  // measure 75
10000000
10010000
00000000
00000000
;

//---------------dance-double - ----------------
#NOTES:
     dance-double:
     :
     Easy:
     8:
     0.305524,0.394745,0.121057,0.145268,0.000000,265.000000,250.000000,15.000000,18.000000,0.000000,0.000000,0.305524,0.394745,0.121057,0.145268,0.000000,265.000000,250.000000,15.000000,18.000000,0.000000,0.000000:
// measure 0
00000000
00000000
00000000
00000000
,  // measure 1
00000000
00000000
00000000
00000000
,  // measure 2
00000000
00000000
00000000
00000000
,  // measure 3
00000000
00000000
00000000
00000000
,  // measure 4
00000000
00000000
00000000
00000000
,  // measure 5
00001000
00001000
00010000
00010000
,  // measure 6
00001000
00001000
00010000
00010000
,  // measure 7
00001000
00010000
00001000
00010000
,  // measure 8
00011000
00000000
00000000
00011000
,  // measure 9
00001000
00100000
00001000
00010000
,  // measure 10
00001000
01000000
00001000
00010000
,  // measure 11
00000010
00010000
00001000
00010000
,  // measure 12
00000100
00010000
00002000
00003000
,  // measure 13
00010000
00000100
00010000
00001000
,  // measure 14
00010000
00000010
00010000
00001000
,  // measure 15
01000000
00001000
00010000
00001000
,  // measure 16
00100000
00001000
00020000
00030000
,  // measure 17
00000100
00001000
00000010
00010000
,  // measure 18
00001000
00100000
00010000
01000000
,  // measure 19
00100000
00010000
00001000
00000100
,  // measure 20
00000010
00000100
00000110
00000000
,  // measure 21
00000001
00000001
00000100
00000100
,  // measure 22
00001000
00001000
00100000
00100000
,  // measure 23
10000000
01000000
00100000
00010000
,  // measure 24
00100000
00001000
00000010
00000001
,  // measure 25
00002000
00000000
00000000
00000000
,  // measure 26
00000000
00000000
00000000
00003000
,  // measure 27
00000020
00000000
00000000
00000000
,  // measure 28
00000000
00000000
00000000
00000030
,  // measure 29
00020000
00000000
00000000
00000000
,  // measure 30
00000000
00000000
00000000
00030000
,  // measure 31
00002000
00000000
00000000
00000000
,  // measure 32
00000000
00000000
00000000
00003000
,  // measure 33
00200000
00000000
00000000
00300000
,  // measure 34
02000000
00000000
00000000
03000000
,  // measure 35
20000000
00000000
00000000
00000000
,  // measure 36
00020000
00000000
00000000
30030000
,  // measure 37
10000000
00100000
00010000
00100000
,  // measure 38
01000000
00100000
00010000
00001000
,  // measure 39
00000100
00000010
00000100
00001000
,  // measure 40
00000100
00000001
00000010
00000100
,  // measure 41
00010000
00001000
00010000
00000000
00000010
00000000
00010000
00000000
,  // measure 42
00001000
00010000
00001000
00000000
01000000
00000000
00001000
00000000
,  // measure 43
00010000
00001000
00100000
00000000
00001000
00010000
00000100
00000000
,  // measure 44
00010000
00000000
00001000
00010000
00000000
00010000
00001000
00000000
,  // measure 45
00010000
01000000
10000000
00100000
,  // measure 46
00010000
00001000
00000100
00000001
,  // measure 47
00000020
00000130
00000200
00010300
,  // measure 48
00020000
00031000
00002000
01003000
,  // measure 49
01010000
00010000
10000000
00100000
,  // measure 50
10100000
10000000
01000000
00010000
,  // measure 51
00011000
00000000
00001000
00000000
00001000
00000000
00001000
00010000
,  // measure 52
00000100
00000000
00000100
00000000
00000100
00000000
00000100
00001000
,  // measure 53
00000001
00000001
00000001
00000001
,  // measure 54
00000010
00000000
00000010
00000000
00000010
00000000
00000010
00001000
,  // measure 55
00010000
00010000
00010000
00010000
,  // measure 56
00001000
00000000
00001000
00000000
00001000
00000000
00001000
00100000
,  // measure 57
01000000
01000000
01000000
01000000
,  // measure 58
10000000
00000000
10000000
00000000
10000000
00000000
10000000
10000000
,  // measure 59
00000000
00000000
10010000
00000000
00010000
01000000
00000000
00001000
,  // measure 60
00000000
00010000
00000100
00000000
00001000
00000000
00000001
00000000
,  // measure 61
00001001
00000000
00000100
00000000
00000100
00000010
00000000
00010000
,  // measure 62
00000000
00001000
00100000
00000000
00010000
00000000
10010000
00000000
,  // measure 63
10000000
01000000
00010000
00011000
,  // measure 64
00001000
00000010
00000001
00001001
,  // measure 65
00001000
00000010
00010000
00100000
,  // measure 66
10000000
01000000
00010000
00022000
,  // measure 67
00033000
00011000
00001000
00000100
,  // measure 68
00000001
00001000
00000100
00000010
,  // measure 69
00001000
00100000
00010000
01000000
,  // measure 70
00100000
10000000
20020000
30030000
,  // measure 71
00010000
01000000
00001000
00010000
,  // measure 72
00100000
00001000
00000010
00000100
,  // measure 73
00000001
00000010
00000001
00000000
00001000
00000001
00001000
00000000
,  // measure 74
00000100
00001000
00000100
00000000
00010000
00001000
00010000
00001000
,  // measure 75
00000000
00011000
00000000
00000000
;

//---------------dance-double - ----------------
#NOTES:
     dance-double:
     :
     Medium:
     12:
     0.517661,0.576935,0.355099,0.169479,0.100880,449.000000,405.000000,44.000000,21.000000,0.000000,0.000000,0.517661,0.576935,0.355099,0.169479,0.100880,449.000000,405.000000,44.000000,21.000000,0.000000,0.000000:
// measure 0
00000000
00000000
00000000
00000000
,  // measure 1
00000000
00000000
00000000
00000000
,  // measure 2
00000000
00000000
00000000
00000000
,  // measure 3
00000000
00000000
00000000
00000000
,  // measure 4
00000000
00000000
00000000
00000000
,  // measure 5
00000100
00000100
00010000
00010000
,  // measure 6
00001000
00001000
00100000
00100000
,  // measure 7
00001000
00000000
00010000
00000000
00000100
00001000
00000001
00001000
,  // measure 8
00000200
00000000
00000300
00000110
,  // measure 9
00000010
00000001
00000010
00000000
00000100
00001000
00000100
00000000
,  // measure 10
00010000
00001000
00010000
00000000
00100000
01000000
00100000
00100000
,  // measure 11
00100000
10000000
01000000
00000000
00100000
00010000
01000000
00000000
,  // measure 12
00100000
00000000
00010000
00000000
00001000
00000000
00010000
00000000
00000010
00000000
00000000
00000010
00000000
00000000
00000010
00000000
,  // measure 13
00001000
00000100
00001000
00000000
00000001
00000010
00000001
00000000
,  // measure 14
00000100
00000010
00000100
00000000
00001000
00010000
00001000
00001000
,  // measure 15
00001000
00100000
00010000
00000000
00100000
01000000
10000000
00000000
,  // measure 16
00100000
00010000
00001000
00000010
00000002
00000000
00000003
00000000
,  // measure 17
00000001
00000100
00000010
00000000
00001000
00000100
00000010
00000000
,  // measure 18
00001000
00010000
01000000
00000000
10000000
00100000
01000000
01000000
,  // measure 19
01000000
00010000
00100000
00000000
01000000
00010000
00001000
00000000
,  // measure 20
00000010
00000000
00000011
00000000
00000000
00000101
00000000
00000000
00002020
00000000
00000000
00000000
00003030
00000000
00000000
00000000
,  // measure 21
00001000
00000000
00000000
00000100
00000000
00000000
00000010
00000000
00001000
00000000
00000000
00010000
00000000
00000000
01000000
00000000
,  // measure 22
00100000
00000000
00000000
00001000
00000000
00000000
00010000
00000000
00100000
00000000
00000000
01000000
00000000
00000000
00010000
00000000
,  // measure 23
10000000
00100000
00010000
00001000
00100000
01000000
00010000
00001000
,  // measure 24
00000010
00000000
00000010
00000000
00000001
00000100
00000000
00000000
00000010
00000000
00010000
00000000
00011000
00000000
00000000
00000000
,  // measure 25
00002000
00100000
00100000
00100000
,  // measure 26
00100000
00100000
00100000
00103000
,  // measure 27
00020000
00000010
00000010
00000010
,  // measure 28
00000010
00000010
00000010
00030010
,  // measure 29
00002000
01000000
01000000
01000000
,  // measure 30
01000000
01000000
01000000
01003000
,  // measure 31
00020000
00000100
00000100
00000100
,  // measure 32
00000100
00000100
00000100
00030100
,  // measure 33
00010000
00001000
00000100
00000001
,  // measure 34
00000010
00001000
00010000
01000000
,  // measure 35
10000000
00100000
00010000
00001000
,  // measure 36
00022000
00000000
00000000
00033000
,  // measure 37
00010000
00000100
00001000
00000001
00001000
00000100
00000010
00000001
,  // measure 38
00000100
00000010
00001000
00000010
00010000
00001000
01000000
00010000
,  // measure 39
01000000
00100000
10000000
00010000
10000000
00100000
01000000
00010000
,  // measure 40
00100000
01000000
10000000
00100000
00010000
00001000
00000100
00000001
,  // measure 41
00000010
00000000
00000000
00000100
00000000
00000000
00000010
00000000
00000000
00001000
00000000
00000000
00010000
00000000
00010000
00000000
,  // measure 42
01000000
00000000
00000000
00100000
00000000
00000000
01000000
00000000
00000000
10000000
00000000
00000000
00100000
00000000
00100000
00000000
,  // measure 43
00010000
00000000
00000000
00001000
00000000
00000000
00000010
00000000
00000000
00001000
00000000
00000000
00010000
00000000
00010000
00000000
,  // measure 44
00000200
00000000
00001000
00002300
00000000
00003001
00000100
00000010
,  // measure 45
00001000
00000100
00000010
00001000
00010000
01000000
00100000
00010000
,  // measure 46
01000000
10000000
01000000
00100000
00010000
00001000
00000100
00000010
,  // measure 47
00001000
00000000
00000000
00000001
00000000
00000000
00000100
00000000
00001000
00000000
00000000
00010000
00000000
00000000
00100000
00000000
,  // measure 48
10000000
00000000
00000000
01000000
00000000
00000000
00010000
00000000
00022000
00000000
00000000
00000000
00033000
00000000
00000000
00000000
,  // measure 49
00001000
00000100
00000001
00001000
00000100
00000010
00001000
00000000
,  // measure 50
00010000
01000000
10000000
00010000
01000000
00100000
00010000
00000000
,  // measure 51
00011000
00000000
00011000
00000000
00011000
00000000
00011000
00001000
,  // measure 52
00000100
00000000
00000101
00000000
00000101
00000001
00000010
00001000
,  // measure 53
00010000
00011000
00011000
00011000
,  // measure 54
00110000
00000000
00110000
00000000
00110000
00100000
10000000
01000000
,  // measure 55
00100000
01100000
01100000
01100000
,  // measure 56
00101000
00000000
00101000
00000000
00101000
00000000
00101000
00001000
,  // measure 57
00010000
00010010
00010010
00010010
,  // measure 58
00001100
00000000
00001100
00000000
00001100
00000000
00000100
00000200
,  // measure 59
00000000
00000000
00000300
00000000
00000010
00000001
00000010
00000000
00000100
00000000
00000100
00000000
00000000
00000000
00010100
00000000
,  // measure 60
00000000
00010000
00001000
00010000
01000000
10000000
00100000
00010000
,  // measure 61
00011000
00000000
00000000
00000000
00001000
00010000
00001000
00000000
01000000
00000000
01000000
00000000
00000000
00000000
01001000
00000000
,  // measure 62
00000000
00000000
00001000
00000000
00010000
00000000
00000100
00000010
00000100
00000000
00000000
00000000
00001001
00000000
00000000
00000000
,  // measure 63
00000001
00000100
00001000
00010000
00100000
10000000
00010000
00000000
,  // measure 64
10000000
01000000
00010000
00001000
00000010
00000001
00001000
00000000
,  // measure 65
00000001
00000100
00001000
00010000
00000010
00001000
00010000
00100000
,  // measure 66
00001000
00010000
01000000
10000000
00100000
00010000
00001000
00022000
,  // measure 67
00033000
00000000
00011000
00000000
00010000
00001000
00000010
00000000
,  // measure 68
00001000
00010000
00100000
00000000
00010000
00001000
00000100
00000000
,  // measure 69
00001000
00010000
01000000
00010000
00001000
00000010
00000001
00000200
,  // measure 70
00000000
00000310
00001000
00010000
00220000
00000000
00330000
00000000
,  // measure 71
11000000
00000000
00000000
10000000
00000000
00000000
00100000
00000000
00110000
00000000
00000000
00010000
00000000
00000000
00001000
00000000
,  // measure 72
00001010
00000000
00000000
00000010
00000000
00000000
00000001
00000000
00000101
00000000
00000000
00000100
00000000
00000000
00001000
00000000
,  // measure 73
00010000
01000000
10000000
00100000
01000000
00010000
00001000
00000010
,  // measure 74
00000100
00000001
00000100
00000000
00001000
00000000
00010000
00000000
01000000
10000000
01000000
00000000
00010000
00000000
00002000
00000000
,  // measure 75
00003000
00011000
00000000
00000000
;
