#TITLE:FINITE;
#SUBTITLE:;
#ARTIST:Crolul & Rion;
#TITLETRANSLIT:;
#SUBTITLETRANSLIT:;
#ARTISTTRANSLIT:;
#GENRE:VARIETY;
#CREDIT:MUINELIM;
#BANNER:FINITE.png;
#BACKGROUND:FINITE-bg.png;
#LYRICSPATH:;
#CDTITLE:;
#MUSIC:FINITE.ogg;
#OFFSET:1.590000;
#SAMPLESTART:43.923618;
#SAMPLELENGTH:13.443146;
#LASTBEATHINT:0.863300;
#SELECTABLE:YES;
#DISPLAYBPM:89.000000:356.000000;
#BPMS:0=89,16=178,20=356,22=178,88=356,90=89,105.5=178,137.5=89,141.5=178,149.5=89,153.5=178,193.5=356,195.5=89,210.5=712,214.5=356;
#STOPS:
;
#BGCHANGES:-10000.000=black.mpg=1.000=1=0=1===CrossFade==,
-0.300=906.mpg=1.000=0=0=0=StretchNoLoop====,
0.000=FINITE.mpg=1.000=1=0=0=StretchNoLoop==CrossFade==,
99999=-nosongbg-=1.000=0=0=0 // don't automatically add -songbackground-
;
#KEYSOUNDS:;
#ATTACKS:;

//---------------dance-single - ----------------
#NOTES:
     dance-single:
     :
     Beginner:
     6:
     0.171257,0.266122,0.026640,0.035520,0.000000,135.000000,132.000000,3.000000,4.000000,0.000000,0.000000,0.171257,0.266122,0.026640,0.035520,0.000000,135.000000,132.000000,3.000000,4.000000,0.000000,0.000000:
0000
0000
0000
0000
,
0000
0000
0000
0000
,
0000
0000
0000
0000
,
0000
0000
0000
0000
,
0020
0000
0000
0000
,
0030
0000
0010
0000
,
1000
0000
0010
0000
,
0000
0000
0100
0000
,
0001
0000
0100
0000
,
0000
0000
0001
0000
,
0010
0000
0001
0000
,
0000
0000
1000
0000
,
0100
0000
1000
0000
,
0000
0000
0001
0000
,
0100
0000
0001
0000
,
0000
0000
1000
0000
,
0010
0000
1000
0000
,
0000
0000
0100
0000
,
1000
0000
0100
0000
,
0000
0000
0010
0000
,
0001
0000
0010
0000
,
0010
0000
0200
0000
,
0300
0000
0100
0000
,
0000
0000
0000
1000
0000
0000
0000
0000
,
0000
0000
0001
0000
,
0000
0000
0000
0010
0000
0000
0100
0000
,
0010
0000
0010
0010
0000
0000
0000
0001
,
0000
0000
0000
0010
0000
0000
0000
0001
,
0000
0000
0000
0100
0000
0000
0000
1000
,
0000
0000
0000
0100
0000
0000
0000
1000
,
0000
0000
0000
0010
0000
0000
0000
0001
,
0000
0000
0000
0100
0000
0000
0000
1000
,
0000
0000
0000
0010
0000
0000
0000
0001
,
0000
0000
0000
0100
0000
0000
0000
0001
,
0000
0000
0000
1001
0000
0000
0000
0000
,
0000
0000
0000
0010
0000
0000
0000
1000
,
0000
0000
0000
0100
0000
0000
0000
1000
,
0000
0000
0000
1001
0000
0000
0000
0000
,
0000
0000
0000
0100
0000
0000
0000
0001
,
0000
0000
0000
0010
0000
0000
0000
0001
,
0000
0000
0000
1000
0000
0000
0000
1000
,
0000
0000
0000
1000
0000
1000
0000
1000
,
0000
0000
0000
0001
0000
0000
0000
0001
,
0000
0000
0000
0001
0000
0001
0000
0001
,
0000
0000
0000
0100
0000
0000
0000
0100
,
0000
0000
0000
0100
0000
0100
0000
0100
,
0000
0000
0000
0010
0000
0000
0000
0010
,
0000
0000
0000
0010
0000
0010
0000
0010
,
0000
0010
0000
0010
0000
0000
0000
0010
,
0000
0000
0000
1000
,
0000
0000
0000
0001
,
0000
0000
0000
0100
,
0000
0000
0010
0010
0100
0100
0000
0000
,
0000
0000
0000
0000
0000
0100
0000
0000
,
0000
0000
0000
0000
0000
0001
0000
0000
,
0000
0000
0000
0000
0000
1000
0000
0000
,
0000
0000
0000
0000
0000
0010
0000
0000
,
0000
0000
0000
0000
0000
0100
0000
0000
,
0000
0000
0000
0000
0000
0100
0000
0000
,
0000
0000
0000
0000
0000
0100
0000
0000
,
0000
0000
0000
0000
0000
0100
0000
0000
,
0000
0100
0000
0000
0000
0100
0000
0000
,
0000
0000
0000
0000
0000
0001
0000
0000
,
0000
0000
0000
0000
0000
1000
0000
0000
,
0000
0000
0000
0000
0000
0100
0000
0000
,
0000
0000
0000
0000
0000
0010
0000
0000
,
0000
0000
0000
0000
0000
0010
0000
0000
,
0000
0000
0000
0000
0000
0010
0000
0000
,
0000
0010
0000
0000
0000
0010
0000
0000
,
0000
0010
0000
0000
0000
0002
0000
0000
,
0000
0000
0000
0000
,
0000
0003
0000
0000
0000
2000
0000
0000
,
0000
3000
0000
0000
0000
0001
0000
0000
,
0000
0000
0000
0000
0000
0010
0000
0000
,
0000
0000
0000
0000
0000
0100
0000
0000
,
0000
0000
0000
0000
0000
1000
0000
0000
,
0000
0000
0000
0000
0000
0010
0000
0000
,
0000
0010
0000
0000
0000
0100
0000
0000
,
0000
0000
0000
0000
0000
0010
0000
0000
,
0000
0000
0000
0000
0000
0100
0000
0000
,
0000
0100
0000
0000
0000
0100
0000
0000
,
0000
0100
0000
0000
0000
0001
0000
0000
,
0000
1000
0000
0000
0000
0001
0000
0000
,
0000
1000
0000
0000
0000
0100
0000
0000
,
0000
0010
0000
0000
0000
0001
0000
0000
,
0000
1000
0000
0000
0000
1001
0000
0000
;

//---------------dance-single - ----------------
#NOTES:
     dance-single:
     :
     Easy:
     11:
     0.341245,0.461536,0.221999,0.106560,0.000000,269.000000,244.000000,25.000000,12.000000,0.000000,0.000000,0.341245,0.461536,0.221999,0.106560,0.000000,269.000000,244.000000,25.000000,12.000000,0.000000,0.000000:
0000
0000
0000
0000
,
0000
0000
0000
0000
,
0000
0000
0000
0000
,
0000
0000
0000
0000
,
0020
0000
0000
0030
,
0010
0000
0010
1000
,
0010
0000
1000
0100
,
1000
0000
0001
0010
,
0001
0000
0100
0001
,
0100
0000
0001
1000
,
0100
0000
1000
0001
,
0010
0000
0001
0100
,
0010
0000
1000
0010
,
0100
0000
1001
1000
,
0100
1000
0001
1000
,
0100
0000
1001
0001
,
0010
0001
1000
0001
,
0010
0000
0110
1000
,
0100
0010
0100
1000
,
0100
0000
0110
0001
,
0100
0010
0100
0001
,
0100
0010
2000
3002
,
1003
0000
1000
0000
,
0000
0000
0000
0100
0000
0000
0000
0000
,
0000
0000
0001
0000
,
0000
0000
0000
0010
0000
0000
0100
0100
,
0010
0100
0010
1000
0000
1000
0000
0100
,
0000
0001
0000
0100
0000
1000
0000
1001
,
0000
0000
0000
0001
0000
0001
0000
0010
,
0000
1000
0000
0010
0000
0001
0000
1001
,
0000
0000
0000
2000
0000
3000
0000
0100
,
0000
1000
0000
0100
0000
0010
0000
0110
,
0000
0000
0000
0100
0000
0010
0000
0001
,
0000
0010
0000
0100
0000
0010
0000
0001
,
1000
0001
0000
1000
0000
0010
0000
0001
,
0000
0100
0000
1001
0000
1000
0000
0010
,
0000
0100
0000
0001
0000
0010
0000
0100
,
0000
1000
0000
0001
0000
0010
0000
1000
,
0000
0100
0000
0001
0000
1000
0000
0100
,
0000
0010
0000
0001
0000
1000
0000
0010
,
0100
0000
0100
0010
0000
1000
0000
0100
,
0000
1000
0000
1010
0000
0001
0000
0020
,
0000
0030
0000
0010
0000
0001
0000
0100
,
0000
0001
0000
0011
0000
1000
0000
0010
,
0000
1010
0000
0100
0000
0001
0000
0010
,
0000
0001
0000
0101
0000
1000
0000
0200
,
0000
0300
0000
0100
0000
1000
0000
0010
,
0000
1000
0000
1100
0000
0001
0000
0100
,
0000
0101
0000
1000
0000
0000
0000
1000
,
0000
0000
0000
0100
,
0000
0000
0000
0000
0000
0001
0001
0000
,
0000
0010
1000
0001
,
0100
0010
0100
0010
0010
1001
0000
0000
,
0000
0000
0000
0000
0000
1001
0000
0000
,
0000
1000
0000
0000
0000
0001
0000
0000
,
0000
1000
0000
0000
0000
0010
0000
0000
,
0000
0100
0000
0000
0000
0010
0000
0000
,
0000
0100
0000
0000
0000
0001
0000
0010
,
0000
0001
0000
0000
0000
1000
0000
0100
,
0000
1000
0000
0000
0000
0010
0000
0100
,
0000
0010
0000
0100
0000
0020
0000
0000
,
0000
1030
0000
0001
0000
0000
0000
0001
,
0000
1000
0000
0000
0000
0100
0000
0000
,
0000
0010
0000
0000
0000
0001
0000
0000
,
0000
1000
0000
0000
0000
0010
0000
0000
,
0000
0100
0000
0000
0000
0101
0000
0000
,
0000
0000
0000
1010
0000
0000
0000
0000
,
0000
1001
0000
0000
0000
0001
0000
0010
,
0000
0001
0000
0010
0000
0100
0000
1000
,
0000
0100
0000
1000
0000
0200
0000
0000
,
0000
0000
0000
0000
,
0000
0000
0000
0300
0000
0020
0000
0000
,
0000
0000
0000
0030
0000
0001
0000
0010
,
0000
0100
0000
0000
0000
0010
0000
0100
,
0000
1000
0000
0000
0000
0100
0000
1000
,
0000
0010
0000
0000
0000
0100
0000
0001
,
0000
0010
0000
0000
0000
1001
0000
0000
,
0000
0110
0000
0000
0000
1000
0000
0000
,
0000
0001
0000
0000
0000
0100
0000
0000
,
0000
0010
0000
0000
0000
1000
0000
0001
,
0000
1000
0000
0001
0000
0200
0000
0300
,
0000
0200
0000
0300
0000
1100
0000
0000
,
0000
0011
0000
0000
0000
1010
0000
0000
,
0000
0101
0000
0000
0000
0001
0000
1000
,
0000
0100
0000
0010
0000
0001
0000
0100
,
0000
1000
0000
0100
0000
0020
0000
0000
,
0000
0000
0000
0000
0000
0030
0000
0000
;

//---------------dance-single - ----------------
#NOTES:
     dance-single:
     :
     Medium:
     14:
     0.598764,0.923073,0.381839,0.364079,0.284159,472.000000,429.000000,43.000000,41.000000,0.000000,0.000000,0.598764,0.923073,0.381839,0.364079,0.284159,472.000000,429.000000,43.000000,41.000000,0.000000,0.000000:
0000
0000
0000
0000
,
0000
0000
0000
0000
,
0000
0000
0000
0000
,
0000
0000
0000
0000
,
1000
0010
0100
0001
1000
0010
0100
0000
,
0020
0000
0130
0110
,
0010
0000
1000
0000
0000
0000
1000
0000
0010
0000
0000
0000
1000
0000
0000
0001
,
0000
0100
1100
0000
0010
0000
0110
0000
,
0100
0000
0001
0000
0000
0000
0001
0000
0100
0000
0000
0000
0001
0000
0000
1000
,
0000
0100
0001
0010
0100
0000
0110
0000
,
0010
0000
0001
0000
0000
0000
0001
0000
0010
0000
0000
0000
0001
0000
0000
1000
,
0000
0100
0101
0000
0100
0000
0110
0000
,
0010
0000
1000
0000
0000
0000
1000
0000
0000
0010
0000
0000
0001
0000
0000
1000
,
0000
0100
0010
0100
1000
0010
0100
0000
,
1000
0000
0100
0000
0000
0000
0100
0000
0001
0000
0010
0000
0100
0000
0000
0110
,
0000
1000
1001
0000
0001
0100
0010
0000
,
0001
0000
0010
0000
0000
0000
0010
0000
1000
0000
0100
0000
0010
0000
0000
0110
,
0000
1000
0010
0001
0010
0100
0001
0000
,
1000
0000
0100
0000
0000
0000
0100
0000
0001
0000
0100
0000
0010
0000
0000
0011
,
0000
0100
1100
0000
1000
0010
0100
0000
,
1000
0000
0010
0000
0000
0000
0010
0000
0001
0000
0000
0101
0000
0000
1100
0000
,
1000
0000
0000
1010
0000
0000
0011
0000
0001
0000
0100
0000
0010
0000
1000
0000
,
0002
0000
0000
0000
0000
0000
0000
0000
1003
0000
1000
0010
0000
0100
0002
0000
,
0000
0000
0000
0000
0000
0000
0000
0013
0100
0000
1000
0010
0100
0000
0002
0000
,
2003
0000
3020
0000
0130
0001
0100
0000
0010
1000
0000
0001
0200
0000
0000
0000
,
0000
0000
0000
0000
0000
0000
0000
0301
1000
0000
0100
0010
0100
0010
0001
0100
,
0010
1000
0001
0010
0010
0010
0110
0000
1000
0000
0100
0000
0010
0000
0001
0000
,
1000
0000
0100
0000
0010
0000
0001
0000
0100
0000
0010
0000
0000
1010
0000
0000
,
0100
0101
0000
0001
0100
1000
0000
0001
,
0010
0000
1000
0000
0000
0000
0100
0000
0010
0000
0001
0000
0000
0101
0000
0000
,
1000
1010
0000
0010
0100
0001
0000
0100
,
0010
0000
1000
0000
0100
0000
0010
0000
0001
0000
0100
0000
0000
1100
0000
0000
,
0010
0011
0000
0001
0100
1000
0000
0001
,
0010
0000
1000
0000
0100
0010
0000
0010
0100
0010
0000
0000
0011
0000
0000
1010
,
0000
0000
1000
0001
1000
0000
0010
0000
0000
0010
0000
0000
0010
0000
0000
0020
,
0000
0000
0000
0000
0130
0001
0010
0000
0001
0000
0100
0000
0000
0000
0100
0000
,
1000
0010
0000
0010
0001
0100
0010
1000
,
0001
0000
0101
0000
0000
0000
0100
0000
0000
0100
0000
0000
0100
0000
0000
0200
,
0000
0000
0000
0000
0310
1000
0100
0000
1000
0000
0010
0000
0000
0000
0010
0000
,
0001
0100
0000
0100
1000
0001
0010
0110
,
0000
1100
0000
0000
0101
0000
0001
0000
0000
0010
0000
0000
0100
0000
0000
1000
,
0000
0010
0100
0001
0100
1000
0100
0010
,
0100
0000
0220
0000
0330
0000
1000
0000
0000
0100
0000
0000
0010
0000
0000
0001
,
0000
0100
0010
1000
0001
0011
0000
0001
,
1000
0000
1100
0000
0000
0000
0001
0000
0000
0010
0000
0000
1000
0000
0000
0100
,
0000
0000
0001
0000
0010
0000
0110
0000
0000
1100
0000
0000
0101
0000
0001
0000
,
1000
0000
0100
0000
0010
0000
0001
0000
0000
0100
0000
0000
1000
0000
0000
0010
,
0000
0000
0001
0000
1000
0000
0010
0100
0000
0100
0020
0000
0000
0000
1030
0100
,
0000
0100
0010
0000
0001
0000
2000
0000
0000
0000
0000
0000
0000
0000
3001
0000
,
0001
0100
0000
1000
0100
0000
0001
0000
0010
0000
0100
0000
1100
0000
1000
0010
,
0000
0001
0010
0000
1000
0000
0100
0000
0010
0000
0001
0100
0020
0000
1030
0100
,
0000
0001
0010
0000
2000
0000
3200
0000
0320
0000
0032
0000
0103
0000
1000
0010
,
0000
0001
0100
0000
1000
0010
0100
0001
0010
0100
1001
0000
0000
0000
0000
0000
,
0000
0000
0000
0000
0000
1001
0000
0000
,
0000
0002
0000
0100
0000
0003
0000
2000
,
0000
0100
0000
3000
0000
0002
0000
0003
,
0000
0020
0000
0100
0000
0030
0000
1000
,
0000
0010
0000
0001
0000
0100
0000
0010
,
0000
1000
0000
0010
0000
0100
0000
0001
,
0000
0100
0000
0010
0000
1000
0000
0100
,
0000
0001
0000
0100
0000
2000
0000
0000
,
0000
3001
0000
0010
0000
2000
0000
0000
,
0000
3010
0000
0001
0000
0200
0000
0000
,
0000
1300
0000
0100
0000
0002
0000
0000
,
0000
1003
0000
0100
0000
0020
0000
0000
,
0000
0031
0000
0200
0000
0010
0000
0300
,
0000
0002
0000
0010
0000
0003
0000
2000
,
0000
0010
0000
3000
0000
0001
0000
0010
,
0000
0100
0000
0001
0000
0100
0000
1000
,
0000
0100
0000
0010
0000
0002
0000
0000
,
0000
0000
0000
0000
,
0000
0000
0000
0000
0000
2003
0000
0000
,
0000
0000
0000
0000
0000
3001
0000
0100
,
0000
1000
0000
0100
0000
0010
0000
0001
,
0000
0010
0000
1000
0000
0100
0000
0010
,
0000
1000
0000
0010
0000
0100
0000
0001
,
0000
0100
0000
0010
0000
0022
0000
0033
,
0000
2200
0000
3300
0000
1000
0000
0010
,
0000
0001
0000
1000
0000
0100
0000
0001
,
0000
0010
0000
1000
0000
0001
0000
0100
,
0000
1000
0000
0010
0000
0220
0000
0330
,
0000
2002
0000
3003
0000
0001
0000
0000
,
0100
0000
0000
1000
0000
0000
0010
0000
,
0000
0110
0000
0110
0000
0100
0001
0100
,
0000
0010
1000
0010
0000
0100
1000
0100
,
0000
0010
0001
0010
0001
0020
0000
0000
,
0000
0000
0000
0000
0000
0030
0000
0000
;

//---------------dance-single - ----------------
#NOTES:
     dance-single:
     :
     Hard:
     16:
     0.762409,1.230764,0.639358,0.594958,0.497278,601.000000,529.000000,72.000000,67.000000,0.000000,0.000000,0.762409,1.230764,0.639358,0.594958,0.497278,601.000000,529.000000,72.000000,67.000000,0.000000,0.000000:
0000
0000
0000
0000
,
0000
0000
0000
0000
,
0000
0000
0000
0000
,
0000
0000
0000
0000
,
1000
0000
0100
0000
0010
0000
0001
0000
0100
0010
0100
0010
0200
0000
0000
0000
,
0310
0000
0000
0000
0110
1000
0002
0000
,
0013
0000
0200
0000
0000
0000
1300
0000
0010
0000
0100
0000
0001
0000
0000
0011
,
0000
1000
1010
0000
0010
0100
0002
0000
,
1003
0000
0200
0000
0000
0000
0310
0000
0001
0000
0100
0000
0010
0000
0000
1010
,
0000
0000
0101
0000
0001
1000
0010
0000
0100
0000
0001
0000
0020
0000
0000
0000
,
0130
0000
2000
0000
0000
0000
3010
0000
0100
0000
0001
0000
1000
0000
0000
1100
,
0000
0010
0011
0000
0001
0100
0020
0000
,
1030
0000
0002
0000
0000
0000
0013
0100
0000
0010
0100
0000
1000
0000
0010
0000
,
0001
0010
1001
0000
1000
0100
0010
0100
,
1000
0000
0100
0000
0001
0000
0100
0000
1000
0000
0100
0000
0010
0000
0000
0011
,
0000
1100
1001
0000
0001
0010
0100
0010
,
0001
0000
0010
0000
1000
0000
0010
0000
0001
0000
0010
0000
0100
0000
0000
1100
,
0000
0000
0011
0000
0001
0100
0010
0000
1000
0000
0100
0000
0001
0000
1000
0000
,
0010
0000
0001
0000
0100
0000
1000
0000
0001
0000
0010
0000
1000
0000
0000
1100
,
0000
0101
1001
0000
1000
0010
0001
1000
,
0100
0000
0001
0000
0010
0000
0100
0000
1100
0000
0000
1010
0000
0000
0011
0000
,
0101
0000
0000
1100
0000
0000
1010
0000
0010
0000
0010
0000
0100
0001
0010
0100
,
2000
0000
0000
0000
0000
0000
0000
0000
0000
0000
0000
0000
0000
0000
0000
0000
3001
0000
0000
0100
0000
0000
0001
0000
0000
0100
0000
0000
0002
0000
0000
0000
,
0000
0000
0000
0000
0000
0000
0000
0000
0000
0000
0000
0000
0000
0000
1003
0000
0000
0100
0000
0000
1000
0000
0000
0100
0000
0000
1000
0000
0020
0000
0000
0000
,
0230
0000
0000
0000
0301
0000
0010
0000
1000
0000
0010
0000
0001
0000
0000
0000
0100
0000
0000
0010
0000
0000
1000
0000
0000
0001
0000
0000
0020
0000
0000
0000
,
0000
0000
0000
0000
0000
0000
0000
0000
0000
0000
0000
0000
0000
0000
0130
0000
0000
1000
0000
0000
0001
0000
0000
0100
0000
0000
0010
0000
1000
0000
0100
0000
,
0001
0100
1000
0010
0001
0010
1001
0000
1000
0000
0100
0000
0001
0000
0100
0000
,
0010
0000
1000
0000
0010
0000
0001
0000
0100
0000
0110
0000
0000
1010
0000
0000
,
0011
1001
1000
0010
0200
0000
0301
0100
,
0020
0000
1030
0000
0010
0000
0100
0000
0001
0000
0011
0000
0000
1010
0000
0000
,
1100
1001
0001
0100
2000
0000
3100
0001
,
0010
0000
0100
0000
0001
0000
0100
0000
1000
0000
1010
0000
0000
0011
0000
0000
,
0101
1001
1000
0100
0010
0002
0000
1003
,
0010
0000
0100
0000
0001
1000
0000
0100
0010
0100
0000
0000
0011
0000
0000
1100
,
0000
0000
1000
0010
0100
0001
2000
0000
0000
3200
0000
0000
0320
0000
0000
0032
,
0000
0000
0000
0000
0000
0000
0000
0000
1003
0010
1000
0000
0100
0000
0000
0000
0010
0000
0000
0000
0011
0000
0000
0000
0001
0000
0000
0000
0100
0000
0000
0000
,
0010
0000
1010
0000
1000
0000
0100
0000
0010
0000
0011
0000
0000
1100
0000
0000
,
1010
0000
0010
0100
0001
1000
0200
0000
0000
0320
0000
0000
0032
0000
0000
2003
,
0000
0000
0000
0000
0000
0000
0000
0000
3010
0100
0010
0000
0100
0000
0000
0000
0001
0000
0000
0000
0011
0000
0000
0000
0010
0000
0000
0000
0100
0000
0000
0000
,
1000
0000
1010
0000
0010
0000
0100
0001
0000
0100
0001
0000
0010
0000
0011
0000
,
0000
1010
0000
0000
0101
0000
2000
0000
0000
3200
0000
0000
0320
0000
0000
0032
,
0000
0000
0103
0000
0010
0000
0110
0000
0000
0101
0000
0000
1010
0000
0010
1000
,
0001
0000
0100
0001
1000
0010
0200
0000
0000
0302
0000
0000
2003
0000
0000
3020
,
0000
0000
0130
0000
0001
0000
0010
0000
0000
0000
0011
0000
0000
1100
0000
0000
,
1010
0000
0202
0000
0303
0000
0001
0010
0000
0010
0100
0000
0100
1000
0000
1000
,
0010
0000
0100
0000
0001
0000
0011
0000
0000
1010
0000
0000
1100
0000
0100
0010
,
0001
0000
1000
0010
1000
0010
1000
0100
0000
0100
0010
0000
0010
0001
0000
0001
,
0100
0000
1000
0000
0100
0000
0010
0100
0000
0010
0100
0000
0001
0000
0010
0100
,
0010
0000
0100
0000
1000
0000
0001
0000
1000
0000
0001
0000
0200
0000
0000
0000
0000
0000
0000
0000
0000
0000
0000
0000
0000
0000
0000
0000
0310
0000
0000
1000
,
0000
0000
0100
0000
0000
0010
0000
0000
0001
0000
0000
0000
0100
0000
0000
0000
0110
0000
0000
0000
0010
0000
0000
0000
1000
0000
0001
0000
0000
0010
0000
0000
,
0100
0000
0000
1000
0000
0000
0010
0000
0100
0000
0000
0000
0110
0000
0000
0000
0001
0000
0000
0000
1000
0100
1000
0000
0020
0000
0000
0000
0130
0000
0000
0001
,
0000
0000
1000
0000
0000
0100
0000
0000
0020
0000
0032
0000
0203
0000
0320
0000
2030
0000
3002
0000
0023
0000
0000
0000
0130
0000
1000
0000
0000
0010
0000
0000
,
0001
0000
0000
1000
0000
0000
0100
0000
0010
0100
0010
0000
1000
0010
1000
0000
0001
0100
0001
0100
0002
0000
0000
0000
0000
0000
0000
0000
0000
0000
0000
0000
,
0000
0000
0000
0000
0000
1003
0000
0100
,
0000
0010
0000
0001
0000
1000
0000
0010
,
0000
0100
0000
0001
0000
0010
0000
0100
,
0000
1000
0000
0001
0000
0200
0000
0320
,
0000
1030
0100
1000
0100
1000
0000
0001
,
0100
0001
0000
1000
0010
1000
0000
0001
,
0010
0001
0000
1000
0010
0100
0000
0001
,
0100
0010
0000
1000
0001
0200
0000
0000
,
0000
0301
1000
0010
0100
0002
0000
0000
,
0000
0013
0000
0100
0000
2100
0000
0000
,
0000
3010
0000
0210
0000
0000
0000
0301
,
0000
1000
0000
0100
0000
0010
0000
0001
,
0000
0202
0000
0303
0000
2020
0000
3030
,
0000
1100
0000
0022
0000
0033
0000
0110
,
0000
2002
0000
3003
0000
0001
0100
0010
,
0000
1000
0010
0100
0000
0001
0010
0100
,
1000
0100
0010
0001
1000
0020
0000
0000
,
0000
0000
0000
0000
,
0000
0000
0000
0000
0000
0230
0000
0000
,
0000
0000
0000
0000
0000
0301
0010
0100
,
0010
0100
1000
0010
0100
0001
0010
0001
,
0000
0100
1000
0100
0000
0001
0010
0001
,
0000
1000
0010
1000
0000
0100
0001
0100
,
0000
1000
0010
1000
0001
0200
0000
0000
,
0000
0320
0000
0000
0000
1030
0000
0100
,
0000
0001
0000
1000
0000
0010
0000
0001
,
0000
0100
0000
1000
0000
0001
0000
0010
,
0000
1000
0000
0100
0000
0010
0200
0000
,
0000
0310
0200
0000
0000
0310
0000
0000
,
0011
0000
0000
1100
0000
0000
1010
0000
,
0000
0101
0000
1001
0000
0001
0100
0010
,
0000
0001
0010
1000
0000
0100
1000
0010
,
1000
0100
0001
0100
1000
0020
0000
0000
,
0000
0000
0000
0000
0000
0030
0000
0000
;

//---------------dance-single - ----------------
#NOTES:
     dance-single:
     :
     Challenge:
     18:
     0.899414,1.653839,0.603838,0.443998,0.785877,709.000000,641.000000,68.000000,50.000000,0.000000,0.000000,0.899414,1.653839,0.603838,0.443998,0.785877,709.000000,641.000000,68.000000,50.000000,0.000000,0.000000:
0000
0000
0000
0000
,
0000
0000
0000
0000
,
0000
0000
0000
0000
,
0000
0000
0000
0000
,
1001
0000
0100
0000
0001
0100
0000
1000
0100
0000
0001
0010
0200
0000
0000
0000
,
0320
0000
0000
0000
0130
1000
1100
0100
,
0010
0000
0001
0000
0011
0000
0010
0000
0100
0000
1000
0000
1010
0000
0000
0011
,
0000
1100
1001
0000
0001
0100
0101
0001
,
1000
0000
0010
0000
1010
0000
1000
0000
0001
0000
0010
0000
0011
0000
0000
0101
,
0000
0000
1100
0000
1000
0010
0100
0001
1000
0000
0100
0000
0110
0000
0010
0000
,
0001
0000
1000
0000
1010
0000
0010
0000
0100
0000
0001
0000
1001
0000
0000
1100
,
0000
0101
0110
0000
0010
1000
1100
0100
,
0010
0000
0001
0000
0101
0000
0100
0010
0000
1000
0010
0000
0001
0000
0010
0100
,
0000
0001
0100
0000
1000
0100
0010
1000
0100
0000
0010
0000
0011
0000
0100
0000
,
0010
0000
1000
0000
1100
0000
0010
0000
0100
0000
0001
0000
0010
1000
0000
0010
,
0001
0000
0100
0000
0010
1000
0100
0010
0001
0000
1000
0000
1010
0000
0100
0000
,
1000
0000
0001
0000
0101
0000
0010
0000
0001
0000
1000
0000
1100
0000
0001
0010
,
0000
0100
0010
0000
0001
0100
0010
0001
0010
0000
1000
0000
1100
0000
0010
0000
,
1000
0000
0001
0000
0011
0000
0100
0000
0001
0000
1000
0000
0010
0100
0000
1000
,
0100
0000
0001
0010
0100
1000
0100
1000
0100
0000
1000
0000
0110
0000
0001
0000
,
0010
0000
0001
0000
0110
0000
1000
0000
1001
0000
0000
1010
0000
0000
0011
0000
,
0000
0101
0000
0000
2200
0000
3300
0000
0020
0000
0130
0000
0010
1000
0001
0100
,
0020
0000
0000
0000
0000
0000
0000
0000
0000
0000
0000
0000
0000
0000
0000
0000
1030
0000
0000
0100
0000
0000
0010
0000
0000
0001
0000
0000
2000
0000
0000
0000
,
0000
0000
0000
0000
0000
0000
0000
0000
0000
0000
0000
0000
0000
0000
3001
0000
0000
0010
0000
0000
0100
0000
0000
1000
0000
0000
0010
0000
0100
0001
0100
0000
,
0010
1000
0000
0000
0100
0010
0100
0010
0001
1000
0001
1000
0002
0000
0000
0000
0103
0000
0000
1000
0000
0000
0010
0000
0000
0001
0000
0000
0200
0000
0000
0000
,
0000
0000
0000
0000
0000
0000
0000
0000
0000
0000
0000
0000
0000
0000
0310
0000
0000
1000
0000
0000
0100
0000
0000
0001
0000
0000
0010
0000
0010
0000
0100
0010
,
0100
0000
0010
1000
0100
0010
0001
0100
0010
0000
1000
0001
1000
0000
0000
0000
0001
0000
0000
0000
0100
0000
0001
0000
0010
0000
0000
0000
0001
0000
0000
0000
,
1000
0000
0010
1000
0100
0000
1000
0000
0001
0000
0011
0000
0000
0101
0000
0000
,
1100
0000
1010
0000
0010
0000
1000
0000
0100
0010
0001
0000
0100
0000
0001
0000
,
0010
0100
1000
0000
0010
0000
0100
0000
0001
0000
0010
0000
0100
0001
0000
0100
,
1000
0000
1010
0000
0101
0000
0001
0010
0100
0000
0001
0000
0100
0000
1000
0100
,
0010
0000
1000
0000
0010
0000
0011
0000
0100
0000
1100
0000
1000
0010
0000
0001
,
0010
0000
0110
0000
0000
0000
1000
0010
0001
0000
0010
0000
0100
0000
0001
0100
,
1000
0000
0100
0000
0010
0100
0000
1000
0100
0001
0000
0000
0011
0000
0000
1100
,
0000
0000
1000
0010
0100
0001
0020
0000
0000
0230
0000
0000
2300
0000
0000
3002
,
0000
0000
0000
0000
0000
0000
0000
0000
0103
0010
1000
0001
0010
0000
0000
0000
0100
0000
0000
0000
1100
0000
0000
0000
0001
0000
0000
0000
0100
0000
0000
0000
,
0010
0000
1010
0000
0100
0000
0202
0000
0303
0000
0011
0000
0010
1000
0000
0010
,
0100
0000
0010
0000
0001
0100
2000
0000
0000
3200
0000
0000
0302
0000
0000
0023
,
0000
0000
0000
0000
0000
0000
0000
0000
0130
1000
0001
0100
0010
0000
0000
0000
0100
0000
0000
0000
0101
0000
0000
0000
1000
0000
0000
0000
0100
0000
0000
0000
,
0010
0000
0011
0000
1000
0010
0000
0001
0100
0000
1000
0000
0100
0010
1010
0000
,
0000
1001
0000
0000
0101
0000
0001
0000
0010
0100
0000
0010
0001
0000
0010
1000
,
0000
0010
0100
0000
0010
0001
1000
0000
0000
1010
0000
0000
0101
0000
0001
0010
,
0100
0010
0100
1000
0010
0100
0001
0000
0100
1000
0000
0100
0010
0000
0100
1000
,
0000
0100
0001
0000
0100
0010
2000
0000
0000
0000
3001
0000
0010
0100
0000
0010
,
0100
0000
1100
0000
0000
0000
1010
0000
0010
0001
0000
0010
1000
0000
0100
0001
,
0000
0100
1000
0000
0010
0100
0001
0000
0000
0011
0000
0000
1010
0000
1000
0100
,
0010
0100
0010
0001
0100
0010
1000
0000
0100
0001
0000
0100
1000
0000
0010
0001
,
0000
0010
1000
0000
0100
0010
0000
0001
0100
0000
0220
0000
0330
0000
1010
0000
,
1000
0000
0100
0000
0001
0000
0100
0000
1000
0000
0100
0000
0020
0000
0000
0000
0000
0000
0000
0000
0000
0000
0000
0000
0000
0000
0000
0000
0031
0000
0000
0100
,
0000
0000
0010
0000
0000
1000
0000
0000
0001
0000
0000
0010
0000
0000
0100
0000
0000
1000
0000
0000
0002
0000
0000
0000
0103
0000
0100
0000
0000
0010
0000
0000
,
1000
0000
0000
0100
0000
0000
0010
0000
0000
0001
0000
0000
0100
0000
0000
0010
0000
0000
1000
0000
0001
0010
0001
0010
0200
0000
0000
0000
1300
0000
0000
0010
,
0000
0000
0001
0000
0000
0100
0000
0000
1000
0010
1000
0010
0100
0001
0100
0001
0010
0100
1000
0000
0001
1000
0001
0000
2000
0000
3010
0000
0000
0001
0000
0000
,
0100
0000
0000
1000
0010
1000
0010
0000
0100
0001
0010
0000
0100
1000
0010
0100
0001
1000
0100
0010
0002
0000
0000
0000
0000
0000
0000
0000
0000
0000
0000
0000
,
0000
0000
0000
0000
0000
1003
0000
0010
,
0000
0100
1000
0100
0000
0001
0000
0100
,
0000
0010
0001
0010
0000
1000
0000
0100
,
0000
0010
1000
0010
0000
0002
0000
0203
,
0000
0310
1000
0001
0100
0010
1000
0100
,
0010
0001
0100
0010
1000
0100
0010
0001
,
0100
0010
1000
0001
0010
0100
1000
0100
,
1000
0001
0010
0001
0010
0200
0000
0000
,
0000
0310
0001
1000
0100
0001
0000
0100
,
0000
1100
0000
1000
0000
0020
0000
0031
,
0000
0011
0000
0020
0000
1030
0000
0100
,
0000
0101
0000
0001
0000
0100
0000
1000
,
0000
1020
0000
0001
0000
0230
0000
0000
,
0000
1000
0000
0302
0000
0000
0000
0010
,
0000
2000
0000
3003
0000
1000
0010
0100
,
0001
0100
0010
1000
0010
0100
0001
0010
,
0100
1000
0001
0010
0100
2000
0000
0000
,
0000
0000
0000
0000
,
0000
0000
0000
0000
0000
3002
0000
0000
,
0000
0000
0000
0000
0000
1003
0010
0100
,
0001
0010
0001
0100
0010
1000
0100
1000
,
0010
0100
0001
0100
0010
1000
0010
0100
,
0001
0010
0100
1000
0100
0001
0100
1000
,
0010
0001
0010
1000
0010
0200
0000
0000
,
0000
0302
0000
0000
0000
0013
0100
1000
,
0000
0100
0010
0001
0000
1000
0010
0001
,
0000
1000
0100
0001
0000
0010
0100
1000
,
0000
0100
0010
0001
0000
0202
0000
0303
,
0000
2020
0000
3030
0000
0002
0010
0003
,
2000
0100
3000
0002
0100
0003
2000
0010
,
3000
0002
1000
0003
1000
0100
0010
1000
,
0010
0001
0100
1000
0100
0010
0001
0010
,
1000
0100
0001
0100
0010
0002
0000
0000
,
0000
0000
0000
0000
0000
0003
0000
0000
;

//---------------dance-double - ----------------
#NOTES:
     dance-double:
     :
     Challenge:
     18:
     0.908294,1.520695,0.523918,0.488398,0.737037,716.000000,657.000000,59.000000,55.000000,0.000000,0.000000,0.908294,1.520695,0.523918,0.488398,0.737037,716.000000,657.000000,59.000000,55.000000,0.000000,0.000000:
00000000
00000000
00000000
00000000
,
00000000
00000000
00000000
00000000
,
00000000
00000000
00000000
00000000
,
00000000
00000000
00000000
00000000
,
10000000
00000000
01000000
00000000
00010000
00001000
00000000
00010000
00001000
00000000
00000100
00000001
00000020
00000000
00000000
00000000
,
00000230
00000000
00000000
00000000
00000310
00000001
00000100
00001000
,
00000100
00000000
00000001
00000000
00000010
00000000
00001000
00000000
00000010
00000000
00000001
00000000
00000101
00000000
00000000
00001100
,
00000000
00011000
00011000
00000000
00010000
00100000
10000000
01000000
,
00010000
00000000
01000000
00000000
10000000
00000000
00100000
00000000
00010000
00000000
00100000
00000000
10100000
00000000
00000000
11000000
,
00000000
00000000
01010000
00000000
00010000
00001000
00010000
00001000
00000100
00000000
00000001
00000000
00000010
00000000
00000100
00000000
,
00000001
00000000
00000100
00000000
00000010
00000000
00000001
00000000
00000100
00000000
00001000
00000000
00011000
00000000
00000000
00110000
,
00000000
10100000
11000000
00000000
01000000
00010000
00100000
01000000
,
00010000
00000000
01000000
00000000
10000000
00000000
00100000
00010000
00000000
00100000
00010000
00000000
00001000
00000000
00000010
00001000
,
00000000
00000010
00001000
00000000
00010000
00001000
00010000
00001000
00000100
00000000
00000001
00000000
00000011
00000000
00000010
00000000
,
00001000
00000000
00010000
00000000
00011000
00000000
00001000
00000000
00010000
00000000
01000000
00000000
10000000
00100000
00000000
10000000
,
00100000
00000000
00010000
00000000
00001000
00010000
00001000
00010000
00000100
00000000
00001000
00000000
00001010
00000000
00000010
00000000
,
00000100
00000000
00000001
00000000
00000011
00000000
00000010
00000000
00001000
00000000
00010000
00000000
00010100
00000000
00000100
00001000
,
00000000
00000100
00001000
00000000
00000100
00010000
00001000
00010000
00001000
00000000
00100000
00000000
00110000
00000000
00010000
00000000
,
01000000
00000000
00100000
00000000
10100000
00000000
10000000
00000000
01000000
00000000
00010000
00000000
00001000
00010000
00000000
00001000
,
00010000
00000000
00100000
00010000
00001000
00010000
00001000
00000100
00000010
00000000
00000100
00000000
00000101
00000000
00000001
00000000
,
00000010
00000000
00001000
00000000
00011000
00000000
00100000
00000000
00110000
00000000
00000000
11000000
00000000
00000000
01010000
00000000
,
00000000
00011000
00000000
00000000
00002200
00000000
00003300
00000000
00000002
00000000
00000013
00000000
00001000
00010000
00001000
00010000
,
00002000
00000000
00000000
00000000
00000000
00000000
00000000
00000000
00000000
00000000
00000000
00000000
00000000
00000000
00000000
00000000
00103000
00000000
00000000
00010000
00000000
00000000
00100000
00000000
00000000
01000000
00000000
00000000
20000000
00000000
00000000
00000000
,
00000000
00000000
00000000
00000000
00000000
00000000
00000000
00000000
00000000
00000000
00000000
00000000
00000000
00000000
30100000
00000000
00000000
00010000
00000000
00000000
00001000
00000000
00000000
00000100
00000000
00000000
00000001
00000000
00000010
00000100
00000010
00000000
,
00000100
00000010
00000000
00000000
00000100
00001000
00000100
00010000
00001000
00010000
00100000
01000000
00200000
00000000
00000000
00000000
10300000
00000000
00000000
01000000
00000000
00000000
00010000
00000000
00000000
00001000
00000000
00000000
00000020
00000000
00000000
00000000
,
00000000
00000000
00000000
00000000
00000000
00000000
00000000
00000000
00000000
00000000
00000000
00000000
00000000
00000000
00000031
00000000
00000000
00001000
00000000
00000000
00000100
00000000
00000000
00000010
00000000
00000000
00000001
00000000
00000001
00000000
00000100
00001000
,
00010000
00000000
00001000
00010000
00100000
00000000
10000000
01000000
00100000
00000000
01000000
00010000
00001000
00000000
00000000
00000000
00000100
00000000
00000000
00000000
00000001
00000000
00000000
00000000
00001000
00000000
00000000
00000000
00000100
00000000
00000000
00000000
,
00010000
00000000
00000100
00000000
00001000
00000000
00000001
00000000
00000100
00000000
00001100
00000000
00000000
00011000
00000000
00000000
,
01010000
11000000
10000000
00100000
00010000
00001000
00000010
00000100
,
00000010
00000000
00001000
00000000
00010000
00000000
00100000
00000000
10000000
00000000
01000000
00000000
00010000
00001000
00000000
00010000
,
00001000
00101000
00010100
00000100
00000010
00001000
00100000
00001000
,
00000010
00000000
00000100
00000000
00001000
00000000
00001010
00000000
00000100
00000000
00000101
00000000
00000001
00000010
00000000
00000001
,
00000010
00001100
00000100
00010000
00001000
00000010
00010000
00000010
,
00001000
00000000
00010000
00000000
00100000
10000000
00000000
01000000
00100000
01000000
00000000
00000000
00110000
00000000
00000000
00001010
,
00000000
00000000
00000010
00000100
00000001
00001000
00000200
00000000
00000000
00000320
00000000
00000000
00000032
00000000
00000000
00000203
,
00000000
00000000
00000000
00000000
00000000
00000000
00000000
00000000
00001300
00010000
00001000
00010000
00100000
00000000
00000000
00000000
10000000
00000000
00000000
00000000
01000000
00000000
00000000
00000000
00010000
00000000
00000000
00000000
00000010
00000000
00000000
00000000
,
00010000
00000000
01000000
00000000
10000000
00000000
20200000
00000000
30300000
00000000
01010000
00000000
00010000
00100000
00000000
00001000
,
00010000
00000000
01000000
00000000
10000000
00100000
02000000
00000000
00000000
03020000
00000000
00000000
20030000
00000000
00000000
30200000
,
00000000
00000000
00000000
00000000
00000000
00000000
00000000
00000000
00310000
00001000
00010000
00001000
00000100
00000000
00000000
00000000
00000001
00000000
00000000
00000000
00000010
00000000
00000000
00000000
00001000
00000000
00000000
00000000
01000000
00000000
00000000
00000000
,
00001000
00000000
00000010
00000000
00000001
00000100
00000000
00001000
00000100
00000000
00000010
00000000
00000100
00001000
00010000
00001000
,
00000000
00000010
00001000
00000000
00010000
00001000
00100000
00000000
00010000
01000000
00000000
01000000
10000000
00000000
10000000
01000000
,
00000000
01000000
00010000
00000000
00010000
00100000
01000000
00000000
00000000
01010000
00000000
00000000
00011000
00000000
00001000
00010000
,
00000100
00010000
00001000
00010000
00001000
00000010
00000001
00000000
00000001
00000100
00000000
00000100
00001000
00000000
00001000
00000100
,
00000000
00000100
00000001
00000000
00000001
00000010
00000200
00000000
00000000
00000000
00010300
00000000
00010000
00001000
00000000
00010000
,
00001000
00000000
01001000
00000000
00000000
00000000
10100000
00000000
10000000
01000000
00000000
01000000
00100000
00000000
00100000
00010000
,
00000000
00010000
00001000
00000000
00001000
00000010
00000100
00000000
00000000
00000101
00000000
00000000
00000011
00000000
00000010
00000100
,
00000010
00000100
00001000
00000100
00001000
00000100
00000010
00000000
00000010
00000001
00000000
00000001
00000100
00000000
00000100
00000010
,
00000000
00000010
00001000
00000000
00001000
00010000
00000000
00010000
01000000
00000000
02200000
00000000
03300000
00000000
10100000
00000000
,
10000000
00000000
01000000
00000000
10000000
00000000
01000000
00000000
00010000
00000000
00001000
00000000
00000020
00000000
00000000
00000000
00000000
00000000
00000000
00000000
00000000
00000000
00000000
00000000
00000000
00000000
00000000
00000000
00000031
00000000
00000000
00001000
,
00000000
00000000
00000010
00000000
00000000
00010000
00000000
00000000
00100000
00000000
00000000
00001000
00000000
00000000
00000100
00000000
00000000
00010000
00000000
00000000
02000000
00000000
00000000
00000000
13000000
00000000
10000000
00000000
00000000
00100000
00000000
00000000
,
00010000
00000000
00000000
00000010
00000000
00000000
00001000
00000000
00000000
01000000
00000000
00000000
00010000
00000000
00000000
00000100
00000000
00000000
00000010
00000000
00000001
00000100
00000001
00000100
00002000
00000000
00000000
00000000
00013000
00000000
00000000
00100000
,
00000000
00000000
00001000
00000000
00000000
00000100
00000000
00000000
00010000
00001000
00010000
00001000
00020000
00000000
00000000
00000000
00130000
01000000
00100000
00000000
10000000
01000000
00010000
00000000
00011000
00000000
00000010
00000000
00000000
00000001
00000000
00000000
,
00000100
00000000
00000000
00001000
00010000
00001000
00010000
00000000
00001000
00100000
00010000
00000000
02000000
00000000
03001000
00010000
00000100
00001000
00000010
00000100
00000002
00000000
00000000
00000000
00000000
00000000
00000000
00000000
00000000
00000000
00000000
00000000
,
00000000
00000000
00000000
00000000
00000000
00001003
00000000
00000100
,
00000000
00000010
00000000
00000001
00000000
00001000
00000000
00000100
,
00000000
00010000
00000000
01000000
00000000
10000000
00000000
00100000
,
00000000
01000000
00000000
00010000
00000000
00200000
00000000
00302000
,
00000000
00003010
00000001
00000010
00000001
00001000
00000100
00001000
,
00000100
00010000
00001000
00010000
00001000
01000000
00010000
01000000
,
00010000
10000000
00100000
10000000
00100000
01000000
00010000
00100000
,
00001000
00010000
00000100
00001000
00000010
00000200
00000000
00000000
,
00000000
00000301
00000010
00000200
00000000
00000310
00000000
00001000
,
00000000
00011000
00000000
00010000
00000000
01000000
10000000
00020000
,
00000000
01030000
00000000
01000000
00010000
20000000
00000000
30100000
,
00000000
00110000
00000000
00010000
00001000
00000000
00001000
00000010
,
00000000
00000210
00000000
00001300
00000000
00000120
00000000
00000031
,
00000000
00000100
00000000
00002100
00000000
00013000
00000000
01001000
,
00000000
02010000
00000000
03100000
00000000
00100000
10000000
01000000
,
00100000
00010000
01000000
00100000
00010000
00001000
00000100
00000010
,
00001000
00000100
00000010
00000001
00000100
00000010
00001000
00000010
,
00001000
00000010
00001000
00000010
00001000
00000010
00001000
00000010
,
00001000
00000010
00001000
00000010
00001000
00000100
00010000
00000100
,
00010000
00000100
00010000
00000100
00010000
00001000
00100000
00010000
,
01000000
00001000
00010000
00100000
10000000
01000000
00100000
00010000
,
01000000
00200000
00000000
00320000
00000000
00031000
00010000
00001000
,
00000100
00000002
00000000
00000023
00000000
00001030
00000010
00000100
,
00001000
00000002
00000000
00000103
00001000
00010000
00100000
00010000
,
00100000
10000000
01000000
10000000
01000000
00020000
00000000
00031000
,
00000000
00001000
00000100
00000001
00000000
00000020
00000000
00000130
,
00000000
00000100
00001000
00010000
00000000
02000000
00000000
03100000
,
00000000
00100000
10000000
01000000
00010000
00001000
00000100
00001000
,
00010000
01000000
00010000
00001000
00000100
00000202
00000303
00000000
,
00020020
00030030
00000000
00202000
00303000
00000000
02020000
03030000
,
00000000
10200000
00000000
01300000
01000000
00010000
00100000
01000000
,
10000000
00100000
00010000
00100000
01000000
00100000
00010000
00001000
,
00000100
00000010
00000100
00001000
00000100
00000001
00000000
00000000
;

//---------------dance-double - ----------------
#NOTES:
     dance-double:
     :
     Easy:
     11:
     0.319679,0.423075,0.186479,0.124320,0.000000,252.000000,231.000000,21.000000,14.000000,0.000000,0.000000,0.319679,0.423075,0.186479,0.124320,0.000000,252.000000,231.000000,21.000000,14.000000,0.000000,0.000000:
00000000
00000000
00000000
00000000
,
00000000
00000000
00000000
00000000
,
00000000
00000000
00000000
00000000
,
00000000
00000000
00000000
00000000
,
00002000
00000000
00000000
00003000
,
00001000
00000000
00001000
00010000
,
00000100
00000000
00010000
00001000
,
00100000
00000000
00001000
00010000
,
00000010
00000000
00010000
00001000
,
01000000
00000000
00001000
00010000
,
00100000
00000000
00010000
00001000
,
00000100
00000000
00001000
00010000
,
01000000
00000000
00010000
00001000
,
00000010
00000000
00000011
00000001
,
00000100
00001000
00010000
00100000
,
10000000
00000000
11000000
10000000
,
00100000
00010000
00001000
00000010
,
00000001
00000000
00000101
00000001
,
00000010
00001000
00010000
01000000
,
10000000
00000000
10100000
10000000
,
01000000
00010000
00001000
00000010
,
00000001
00001000
00000010
00000100
,
00000110
00000000
00000110
00000000
,
00000000
00000000
00000000
00001000
00000000
00000000
00000000
00000000
,
00000000
00000000
00010000
00000000
,
00000000
00000000
00000000
00100000
00000000
00000000
01000000
01000000
,
00100000
01000000
00100000
10000000
00000000
01000000
00000000
00010000
,
00000000
01000000
00000000
10000000
00000000
01000000
00000000
00010000
,
00000000
00000000
00000000
00100000
00000000
00010000
00000000
00001000
,
00000000
00010000
00000000
00100000
00000000
00010000
00000000
00001000
,
00000000
00000000
00000000
00022000
00000000
00033000
00000000
00010000
,
00000000
00001000
00000000
00000100
00000000
00000001
00000000
00000010
,
00000000
00000000
00000000
00001000
00000000
00000100
00000000
00001000
,
00000000
00010000
00000000
00001000
00000000
00000100
00000000
00001000
,
00000000
00011000
00000000
00010000
00000000
10000000
00000000
00010000
,
00000000
00001000
00000000
00000001
00000000
00000100
00000000
00001000
,
00000000
00000100
00000000
00010000
00000000
00001000
00000000
00010000
,
00000000
00011000
00000000
00001000
00000000
00000001
00000000
00001000
,
00000000
00010000
00000000
10000000
00000000
01000000
00000000
00010000
,
00000000
01000000
00000000
00001000
00000000
00010000
00000000
00022000
,
00000000
00033000
00000000
00011000
00000000
00001000
00000000
00000100
,
00000000
00000001
00000000
00000010
00000000
00000100
00000000
00000020
,
00000000
00000030
00000000
00000010
00000000
00000001
00000000
00000100
,
00000000
00001000
00000000
00011000
00000000
00010000
00000000
00100000
,
00000000
10000000
00000000
01000000
00000000
00100000
00000000
01000000
,
00000000
00010000
00000000
00001000
00000000
00010000
00000000
02000000
,
00000000
03000000
00000000
01000000
00000000
10000000
00000000
00100000
,
00000000
00010000
00000000
00001000
00000000
00000100
00000000
00000001
,
00000000
00000011
00000000
00001000
00000000
00000000
00000000
00001000
,
00000000
00000000
00000000
00000010
,
00000000
00000000
00000000
00000000
00000000
00010000
00010000
00000000
,
00000000
00100000
10000000
01000000
,
00010000
00001000
00010000
00010000
00000000
00011000
00000000
00000000
,
00000000
00000000
00000000
00000000
00000000
00011000
00000000
00000000
,
00000000
00001000
00000000
00000000
00000000
00000100
00000000
00000000
,
00000000
00000001
00000000
00000000
00000000
00000100
00000000
00000000
,
00000000
00001000
00000000
00000000
00000000
00010000
00000000
00000000
,
00000000
00100000
00000000
00000000
00000000
10000000
00000000
00000000
,
00000000
00100000
00000000
00000000
00000000
00010000
00000000
00000000
,
00000000
00001000
00000000
00000000
00000000
00000100
00000000
00000000
,
00000000
00000010
00000000
00000000
00000000
00000200
00000000
00000000
,
00000000
00000301
00000000
00000010
00000000
00000000
00000000
00000010
,
00000000
00000001
00000000
00000000
00000000
00000100
00000000
00000000
,
00000000
00001000
00000000
00000000
00000000
00010000
00000000
00000000
,
00000000
00100000
00000000
00000000
00000000
10000000
00000000
00000000
,
00000000
01000000
00000000
00000000
00000000
01100000
00000000
00000000
,
00000000
00000000
00000000
00110000
00000000
00000000
00000000
00000000
,
00000000
00011000
00000000
00000000
00000000
00001000
00000000
00010000
,
00000000
00001000
00000000
00010000
00000000
00001000
00000000
00000000
,
00000000
00000100
00000000
00000000
00000000
00000002
00000000
00000000
,
00000000
00000000
00000000
00000000
,
00000000
00000000
00000000
00000003
00000000
00002000
00000000
00000000
,
00000000
00000000
00000000
00003000
00000000
00000001
00000000
00000000
,
00000000
00000100
00000000
00000000
00000000
00001000
00000000
00000000
,
00000000
01000000
00000000
00000000
00000000
00010000
00000000
00000000
,
00000000
00000010
00000000
00000000
00000000
00001000
00000000
00000000
,
00000000
00100000
00000000
00000000
00000000
01100000
00000000
00000000
,
00000000
10010000
00000000
00000000
00000000
10000000
00000000
00000000
,
00000000
01000000
00000000
00000000
00000000
00010000
00000000
00000000
,
00000000
00001000
00000000
00000000
00000000
00000010
00000000
00000001
,
00000000
00000010
00000000
00000100
00000000
00020000
00000000
00030000
,
00000000
00002000
00000000
00003000
00000000
00100000
00000000
01000000
,
00000000
10000000
00000000
00000000
00000000
10000000
00000000
00100000
,
00000000
00010000
00000000
00000000
00000000
00010000
00000000
00001000
,
00000000
00000100
00000000
00000001
00000000
00000010
00000000
00000100
,
00000000
00001000
00000000
00000000
00000000
00022000
00000000
00000000
,
00000000
00000000
00000000
00000000
00000000
00033000
00000000
00000000
;

//---------------dance-double - ----------------
#NOTES:
     dance-double:
     :
     Medium:
     14:
     0.573392,0.923073,0.230879,0.293039,0.275279,452.000000,426.000000,26.000000,33.000000,0.000000,0.000000,0.573392,0.923073,0.230879,0.293039,0.275279,452.000000,426.000000,26.000000,33.000000,0.000000,0.000000:
00000000
00000000
00000000
00000000
,
00000000
00000000
00000000
00000000
,
00000000
00000000
00000000
00000000
,
00000000
00000000
00000000
00000000
,
00001000
00100000
00001000
00010000
00000010
00010000
00001000
00000000
,
00020000
00000000
00031000
00011000
,
00100000
00000000
00010000
00000000
00000000
00000000
00010000
00000000
01000000
00000000
00000000
00000000
10000000
00000000
00000000
01000000
,
00000000
00100000
00010000
00000000
00001000
00000000
00011000
00000000
,
00000100
00000000
00001000
00000000
00000000
00000000
00001000
00000000
00000010
00000000
00000000
00000000
00000001
00000000
00000000
00000010
,
00000000
00000100
00001000
00010000
00001000
00000000
00011000
00000000
,
01000000
00000000
00010000
00000000
00000000
00000000
00010000
00000000
00100000
00000000
00000000
00000000
10000000
00000000
00000000
00100000
,
00000000
01000000
00010000
00000000
00001000
00000000
00011000
00000000
,
00000010
00000000
00001000
00000000
00000000
00000000
00001000
00000000
00000000
00000100
00000000
00000000
00000001
00000000
00000000
00001000
,
00000000
00000010
00000100
00000010
00000001
00000100
00001000
00000000
,
01000000
00000000
00010000
00000000
00000000
00000000
00010000
00000000
00100000
00000000
01000000
00000000
10000000
00000000
00000000
00100000
,
00000000
01000000
01010000
00000000
10000000
00100000
00010000
00000000
,
00000010
00000000
00001000
00000000
00000000
00000000
00001000
00000000
00000100
00000000
00000010
00000000
00000001
00000000
00000000
00000101
,
00000000
00001000
00000100
00000010
00000100
00001000
00000001
00000000
,
00000100
00000000
00001000
00000000
00000000
00000000
00001000
00000000
00010000
00000000
00100000
00000000
10000000
00000000
00000000
01000000
,
00000000
00100000
00110000
00000000
10000000
00100000
00010000
00000000
,
00001000
00000000
00010000
00000000
00000000
00000000
00000100
00000000
00000010
00000000
00000000
00000011
00000000
00000000
00001100
00000000
,
00000100
00000000
00000000
00010100
00000000
00000000
00011000
00000000
00001000
00000000
00010000
00000000
00100000
00000000
01000000
00000000
,
00020000
00000000
00000000
00000000
00000000
00000000
00000000
00000000
10030000
00000000
10000000
00100000
00000000
00100000
00020000
00000000
,
00000000
00000000
00000000
00000000
00000000
00000000
00000000
00031000
00000100
00000000
00000100
00000001
00000010
00000000
00000200
00000000
,
00020300
00000000
00032000
00000000
00103000
00010000
01000000
00000000
01000000
00001000
00000000
00001000
00020000
00000000
00000000
00000000
,
00000000
00000000
00000000
00000000
00000000
00000000
00000000
00030100
00001000
00000000
00001000
00000010
00001000
00000010
00000100
00000001
,
00000010
00000100
00001000
00000100
00010000
00001000
00011000
00000000
00010000
00000000
00100000
00000000
01000000
00000000
00001000
00000000
,
00010000
00000000
00100000
00000000
01000000
00000000
00010000
00000000
00100000
00000000
01000000
00000000
00000000
11000000
00000000
00000000
,
10000000
10010000
00000000
00010000
01000000
00001000
00000000
00010000
,
00000100
00000000
00001000
00000000
00000000
00000000
00000100
00000000
00000010
00000000
00000001
00000000
00000000
00000101
00000000
00000000
,
00001000
00001010
00000000
00000010
00000100
00000001
00000000
00001000
,
00000100
00000000
00000010
00000000
00001000
00000000
00010000
00000000
01000000
00000000
00100000
00000000
00000000
00110000
00000000
00000000
,
10000000
11000000
00000000
00010000
00100000
10000000
00000000
00100000
,
00010000
00000000
01000000
00000000
00001000
00010000
00000000
00001000
00000000
00000100
00000000
00000000
00000101
00000000
00000000
00000001
,
00000000
00000000
00000010
00000000
00001000
00000000
00010000
00000000
00000000
00010000
00000000
00000000
00010000
00000000
00000000
00020000
,
00000000
00000000
00000000
00000000
00031000
00100000
00010000
00000000
01000000
00000000
10000000
00000000
00000000
00000000
10000000
00000000
,
01000000
00010000
00000000
00010000
00100000
01000000
00010000
00001000
,
00010000
00000000
00011000
00000000
00000000
00000000
00001000
00000000
00000000
00001000
00000000
00000000
00001000
00000000
00000000
00002000
,
00000000
00000000
00000000
00000000
00013000
00000010
00001000
00000000
00000100
00000000
00000001
00000000
00000000
00000000
00000001
00000000
,
00000100
00001000
00000000
00001000
00000010
00000100
00001000
00010000
,
00000000
00010010
00000000
00000000
00101000
00000000
00100000
00000000
00000000
00010000
00000000
00000000
01000000
00000000
00000000
00100000
,
00000000
10000000
01000000
00100000
00010000
00100000
00001000
00010000
,
00001000
00000000
00011000
00000000
00000000
00000000
00010000
00000000
00000000
00001000
00000000
00000000
00000100
00000000
00000000
00000010
,
00000000
00000100
00000001
00000010
00000100
00010000
00000000
00001000
,
00100000
00000000
01000000
00000000
00000000
00000000
10000000
00000000
00000000
00100000
00000000
00000000
00010000
00000000
00000000
00001000
,
00000000
00000000
00000100
00000000
00000001
00000000
00000011
00000000
00000000
00001000
00000000
00000000
00001001
00000000
00000001
00000000
,
00000100
00000000
00001000
00000000
00010000
00000000
00100000
00000000
00000000
10000000
00000000
00000000
01000000
00000000
00000000
00010000
,
00000000
00000000
00001000
00000000
00000010
00000000
00000001
00000100
00000000
00000100
00000002
00000000
00000000
00000000
00000013
00000000
,
00001000
00010000
00001000
00000000
00100000
00000000
00020000
00000000
00000000
00000000
00000000
00000000
00000000
00000000
10030000
00000000
,
10000000
01000000
00000000
00010000
01000000
00000000
10000000
00000000
00100000
00000000
00010000
00000000
00011000
00000000
00001000
00000010
,
00000000
00000001
00000010
00000000
00000100
00000000
00000010
00000000
00000001
00000000
00000100
00001000
00020000
00000000
00031000
00000010
,
00000000
00001000
00010000
00000000
00200000
00000000
10000000
00000000
01000000
00000000
00010000
00000000
00301000
00000000
00100000
10000000
,
00000000
01000000
00010000
00000000
00100000
00010000
00001000
00000100
00001000
00010000
00002000
00000000
00000000
00000000
00000000
00000000
,
00000000
00000000
00000000
00000000
00000000
00013000
00000000
00000000
,
00000000
00020000
00000000
00000010
00000000
00030000
00000000
00002000
,
00000000
01000000
00000000
00003000
00000000
00020000
00000000
00030000
,
00000000
00000200
00000000
00001000
00000000
00000300
00000000
00000100
,
00000000
00000010
00000000
00000001
00000000
00001000
00000000
00000100
,
00000000
00000010
00000000
00001000
00000000
00010000
00000000
01000000
,
00000000
00100000
00000000
00010000
00000000
10000000
00000000
01000000
,
00000000
00100000
00000000
00010000
00000000
02000000
00000000
00000000
,
00000000
13000000
00000000
01000000
00000000
00020000
00000000
00000000
,
00000000
00230000
00000000
00000000
00000000
02300000
00000000
00000000
,
00000000
03010000
00000000
00001000
00000000
00000020
00000000
00000000
,
00000000
00000230
00000000
00000000
00000000
00002300
00000000
00000000
,
00000000
00003001
00000000
00000100
00000000
00002000
00000000
00000000
,
00000000
00013000
00000000
00200000
00000000
00000000
00000000
10300000
,
00000000
02000000
00000000
00000000
00000000
03010000
00000000
00001000
,
00000000
00010000
00000000
00100000
00000000
00010000
00000000
00001000
,
00000000
00000100
00000000
00001000
00000000
00020000
00000000
00000000
,
00000000
00000000
00000000
00000000
,
00000000
00000000
00000000
00030000
00000000
00000002
00000000
00000000
,
00000000
00000000
00000000
00000003
00000000
00001000
00000000
00000001
,
00000000
00000100
00000000
00001000
00000000
00000100
00000000
00001000
,
00000000
00010000
00000000
00100000
00000000
00010000
00000000
00100000
,
00000000
10000000
00000000
01000000
00000000
00100000
00000000
00010000
,
00000000
01000000
00000000
00001000
00000000
00010000
00001000
00010000
,
00000000
00001000
00010000
00001000
00000000
00010000
00000000
00000100
,
00000000
00000010
00000000
00000100
00000000
00001000
00000000
00000010
,
00000000
00000001
00000000
00000010
00000000
00000100
00000000
00001000
,
00000000
00010000
00000000
00100000
00000000
01000000
00200000
00000000
,
00300000
01000000
00200000
00000000
00000000
10300000
00000000
00000000
,
01000000
00000000
00000000
00010000
00000000
00000000
00001000
00000000
,
00000000
00000010
00000000
00000001
00000000
00000100
00000000
00001000
,
00000000
01000000
00000000
00010000
00000000
00000100
00000000
00001000
,
00000000
00100000
00000000
00010000
00000000
00000020
00000000
00000000
,
00000000
00000000
00000000
00000000
00000000
00000030
00000000
00000000
;

//---------------dance-double - ----------------
#NOTES:
     dance-double:
     :
     Hard:
     17:
     0.782706,1.269225,0.577198,0.399599,0.572758,617.000000,552.000000,65.000000,45.000000,0.000000,0.000000,0.782706,1.269225,0.577198,0.399599,0.572758,617.000000,552.000000,65.000000,45.000000,0.000000,0.000000:
// measure 0
00000000
00000000
00000000
00000000
,  // measure 1
00000000
00000000
00000000
00000000
,  // measure 2
00000000
00000000
00000000
00000000
,  // measure 3
00000000
00000000
00000000
00000000
,  // measure 4
00001000
00000000
00100000
00000000
00010000
00000000
01000000
00000000
00001000
00010000
00001000
00010000
00000020
00000000
00000000
00000000
,  // measure 5
00001030
00000000
00000000
00000000
00001010
00002000
00000100
00003000
,  // measure 6
00000002
00000000
00000010
00000000
00000003
00000000
00001000
00000000
00000100
00000000
00000010
00000000
00001000
00000000
00000000
00011000
,  // measure 7
00000000
00110000
10100000
00000000
10000000
02000000
00100000
03000000
,  // measure 8
20000000
00000000
00100000
00000000
30000000
00000000
00010000
00000000
00100000
00000000
01000000
00000000
00010000
00000000
00000000
00011000
,  // measure 9
00000000
00000000
00001010
00000000
00000010
00000100
00000010
00000000
00000001
00000000
00000200
00000000
00001000
00000000
00000300
00000000
,  // measure 10
00000002
00000000
00000010
00000000
00000003
00000000
00001000
00000000
00000100
00000000
00000010
00000000
00001000
00000000
00000000
00011000
,  // measure 11
00000000
01010000
11000000
00000000
10000000
00020000
00100000
00030000
,  // measure 12
02000000
00000000
10000000
00000000
03000000
00000000
00010000
00100000
00000000
00100000
01000000
00000000
00010000
00000000
00001000
00000000
,  // measure 13
00000010
00000001
00001001
00000000
00001000
00000010
00010000
00001000
,  // measure 14
00100000
00000000
00010000
00000000
01000000
00000000
00001000
00000000
00010000
00000000
00000100
00000000
00001100
00000000
00000000
00001010
,  // measure 15
00000000
00000011
00000101
00000000
00000100
00001000
00010000
01000000
,  // measure 16
00010000
00000000
00001000
00000000
00000010
00000000
00001000
00000000
00010000
00000000
00100000
00000000
10100000
00000000
00000000
11000000
,  // measure 17
00000000
00000000
01010000
00000000
00010000
00100000
01000000
00000000
00100000
00000000
00001000
00000000
00010000
00000000
00000100
00000000
,  // measure 18
00000010
00000000
00000100
00000000
00001000
00000000
00000010
00000000
00000001
00000000
00000010
00000000
00000110
00000000
00000000
00001100
,  // measure 19
00000000
00011000
01001000
00000000
01000000
00010000
00100000
10000000
,  // measure 20
00010000
00000000
01000000
00000000
10000000
00000000
00100000
00000000
01100000
00000000
00000000
01010000
00000000
00000000
00101000
00000000
,  // measure 21
00011000
00000000
00000000
00010010
00000000
00000000
00001100
00000000
00001000
00000000
00001000
00000000
00000001
00000010
00000100
00001000
,  // measure 22
00000020
00000000
00000000
00000000
00000000
00000000
00000000
00000000
00000000
00000000
00000000
00000000
00000000
00000000
00000000
00000000
00010030
00000000
00000000
00000100
00000000
00000000
00010000
00000000
00000000
00000100
00000000
00000000
00020000
00000000
00000000
00000000
,  // measure 23
00000000
00000000
00000000
00000000
00000000
00000000
00000000
00000000
00000000
00000000
00000000
00000000
00000000
00000000
00031000
00000000
00000000
01000000
00000000
00000000
00001000
00000000
00000000
01000000
00000000
00000000
00001000
00000000
00020000
00000000
00000000
00000000
,  // measure 24
00230000
00000000
00000000
00000000
10300000
00000000
01000000
00000000
00010000
00000000
01000000
00000000
10000000
00000000
00000000
00000000
00100000
00000000
00000000
00010000
00000000
00000000
00001000
00000000
00000000
00000100
00000000
00000000
00000002
00000000
00000000
00000000
,  // measure 25
00000000
00000000
00000000
00000000
00000000
00000000
00000000
00000000
00000000
00000000
00000000
00000000
00000000
00000000
00000013
00000000
00000000
00001000
00000000
00000000
00010000
00000000
00000000
01000000
00000000
00000000
10000000
00000000
00100000
00000000
00010000
00000000
,  // measure 26
00001000
00000010
00001000
00010000
00100000
00010000
00011000
00000000
00001000
00000000
00100000
00000000
01000000
00000000
00100000
00000000
,  // measure 27
00010000
00000000
10000000
00000000
00100000
00000000
00010000
00000000
00001000
00000000
00011000
00000000
00000000
00010010
00000000
00000000
,  // measure 28
00001010
00001100
00000100
00000020
00000001
00000030
00001000
00010000
,  // measure 29
00200000
00000000
10300000
00000000
01000000
00000000
00100000
00000000
00010000
00000000
01010000
00000000
00000000
00011000
00000000
00000000
,  // measure 30
00001100
00000101
00000001
00000020
00000100
00000030
00001000
00010000
,  // measure 31
00100000
00000000
00010000
00000000
00001000
00000000
00000100
00000000
00001000
00000000
00011000
00000000
00000000
01010000
00000000
00000000
,  // measure 32
11000000
01100000
00100000
01000000
20000000
00100000
30000000
00010000
,  // measure 33
00100000
00000000
01000000
00000000
00010000
00001000
00000000
00010000
00001000
00010000
00000000
00000000
00010010
00000000
00000000
00101000
,  // measure 34
00000000
00000000
00001000
00010000
00001000
00000100
00000020
00000000
00000000
00000001
00000000
00000000
00000100
00000000
00000000
00001000
,  // measure 35
00000000
00000000
00000000
00000000
00000000
00000000
00000000
00000000
00010030
00001000
00010000
00000000
00000100
00000000
00000000
00000000
00001000
00000000
00000000
00000000
00000020
00000000
00000000
00000000
00010030
00000000
00000000
00000000
00010000
00000000
00000000
00000000
,  // measure 36
00001000
00000000
00200000
00000000
00301000
00000000
00001000
00000000
00010000
00000000
00010100
00000000
00000000
00011000
00000000
00000000
,  // measure 37
01001000
00000000
01000000
00001000
00010000
00100000
02000000
00000000
00000000
10000000
00000000
00000000
00100000
00000000
00000000
00010000
,  // measure 38
00000000
00000000
00000000
00000000
00000000
00000000
00000000
00000000
03001000
00010000
00001000
00000000
00100000
00000000
00000000
00000000
00010000
00000000
00000000
00000000
02000000
00000000
00000000
00000000
03001000
00000000
00000000
00000000
00001000
00000000
00000000
00000000
,  // measure 39
00010000
00000000
00000200
00000000
00001300
00000000
00001000
00000010
00000000
00000010
00000100
00000000
00000001
00000000
00000011
00000000
,  // measure 40
00000000
00001010
00000000
00000000
00011000
00000000
00020000
00000000
00000000
00100000
00000000
00000000
00001000
00000000
00000000
00000010
,  // measure 41
00000000
00000000
00030100
00000000
00000100
00000000
00001100
00000000
00000000
00000011
00000000
00000000
00000101
00000000
00000100
00001000
,  // measure 42
00010000
00000000
00001000
00010000
00100000
00010000
00002000
00000000
00000000
00000010
00000000
00000000
00010000
00000000
00000000
00100000
,  // measure 43
00000000
00000000
01003000
00000000
01000000
00000000
01010000
00000000
00000000
00000000
00110000
00000000
00000000
11000000
00000000
00000000
,  // measure 44
10100000
00000000
02020000
00000000
03030000
00000000
00010000
10000000
00000000
00010000
00100000
00000000
00001000
00010000
00000000
00000010
,  // measure 45
00001000
00000000
00000100
00000000
00000010
00000000
00000011
00000000
00000000
00000101
00000000
00000000
00001100
00000000
00001000
00000010
,  // measure 46
00010000
00000000
00000100
00001000
00000100
00001000
00000001
00000100
00000000
00000010
00010000
00000000
00001000
00100000
00000000
00010000
,  // measure 47
01000000
00000000
00100000
00000000
10000000
00000000
01000000
00100000
00000000
01000000
00100000
00000000
00001000
00000000
00010000
00000100
,  // measure 48
00010000
00000000
00000100
00000000
00001000
00000000
00000010
00000000
00001000
00000000
00000010
00000000
00000200
00000000
00000000
00000000
00000000
00000000
00000000
00000000
00000000
00000000
00000000
00000000
00000000
00000000
00000000
00000000
00000301
00000000
00000000
00000010
,  // measure 49
00000000
00000000
00000100
00000000
00000000
00001000
00000000
00000000
00000010
00000000
00000000
00000000
00010000
00000000
00000000
00000000
00011000
00000000
00000000
00000000
00001000
00000000
00000000
00000000
00100000
00000000
00010000
00000000
00000000
01000000
00000000
00000000
,  // measure 50
00100000
00000000
00000000
10000000
00000000
00000000
00010000
00000000
00100000
00000000
00000000
00000000
01100000
00000000
00000000
00000000
10000000
00000000
00000000
00000000
00100000
00010000
00001000
00000000
00020000
00000000
00000000
00000000
00030100
00000000
00000000
00001000
,  // measure 51
00000000
00000000
00000001
00000000
00000000
00000100
00000000
00000000
00000010
00000000
00010000
00000000
00001000
00000000
00000100
00000000
00010000
00000000
01000000
00000000
00001000
00000000
00010000
00000000
00100000
00000000
00001000
00000000
00000000
00000010
00000000
00000000
,  // measure 52
00010000
00000000
00000000
00001000
00000000
00000000
00100000
00000000
01000000
10000000
01000000
00000000
00100000
00010000
00100000
00000000
00001000
00010000
00001000
00010000
00002000
00000000
00000000
00000000
00000000
00000000
00000000
00000000
00000000
00000000
00000000
00000000
,  // measure 53
00000000
00000000
00000000
00000000
00000000
00013000
00000000
00000100
,  // measure 54
00000000
00001000
00000000
00000010
00000000
00010000
00000000
00001000
,  // measure 55
00000000
00100000
00000000
00010000
00000000
01000000
00000000
00001000
,  // measure 56
00000000
00010000
00000000
00000100
00000000
00002000
00000000
00003002
,  // measure 57
00000000
00001003
00000100
00010000
00000100
00001000
00000000
00000100
,  // measure 58
00001000
00000010
00000000
00001000
00000100
00010000
00000000
00001000
,  // measure 59
00100000
00010000
00000000
01000000
00010000
00100000
00000000
00010000
,  // measure 60
01000000
00100000
00000000
10000000
01000000
00200000
00000000
00000000
,  // measure 61
00000000
00310000
01000000
00001000
00010000
00000200
00000000
00000000
,  // measure 62
00000000
00000310
00000000
00000001
00000000
00000201
00000000
00000000
,  // measure 63
00000000
00001300
00000000
00021000
00000000
00000000
00000000
00130000
,  // measure 64
00000000
00010000
00000000
00001000
00000000
00000010
00000000
00001000
,  // measure 65
00000000
00020000
00000000
00130000
00000000
20000000
00000000
31000000
,  // measure 66
00000000
00010000
00000000
00002000
00000000
00003010
00000000
00000001
,  // measure 67
00000000
00000200
00000000
00001300
00000000
00010000
00001000
00000100
,  // measure 68
00000000
00001000
00010000
01000000
00000000
00010000
00001000
00000010
,  // measure 69
00000000
00001000
00010000
00100000
10000000
01000000
00000000
00010000
,  // measure 70
00000000
00001000
00000000
00010000
00000000
00100000
00000000
00010000
,  // measure 71
00000000
00001000
00000000
00000100
00000000
00001000
00000000
00010000
,  // measure 72
00000000
00000000
00000000
00001000
00000000
00000000
00000000
00000000
00000000
00000010
00000000
00000000
00000000
00000000
00000000
00000001
00000000
00000000
00000000
00000100
00000000
00000000
00000000
00000010
,  // measure 73
00000000
00000000
00000000
00001000
00000000
00000000
00000000
00000100
00000000
00000000
00000000
00010000
00000000
00000000
00000000
00001000
00000000
00000000
00000000
00100000
00000000
00000000
00000000
00010000
,  // measure 74
00000000
00000000
00000000
01000000
00000000
00000000
00000000
00100000
00000000
00000000
00000000
10000000
00000000
00000000
00000000
01000000
00000000
00000000
00000000
00100000
00000000
00000000
00000000
00010000
,  // measure 75
00000000
00000000
00000000
01000000
00000000
00000000
00000000
00001000
00000000
00000000
00000000
00010000
00000000
00000000
00000000
00000010
00000000
00000000
00000000
00001000
00000000
00000000
00000000
00000100
,  // measure 76
00000000
00000000
00000000
00000010
00000000
00000000
00000000
00000001
00000000
00000000
00000000
00000100
00000000
00000000
00000000
00001000
00000000
00000000
00010000
00000000
00000000
00001000
00000000
00000000
,  // measure 77
00000000
00010000
00001000
00010000
00000000
00200000
00000000
10300000
,  // measure 78
00000000
01000000
00000000
00100000
00000000
02000000
00000000
03010000
,  // measure 79
00000000
00001000
00000000
00000010
00000000
00000200
00000000
00001300
,  // measure 80
00000000
00000001
00000000
00000100
00000000
00000010
00010000
00001000
,  // measure 81
00010000
00001000
01000000
00010000
01000000
00010000
00100000
00000000
,  // measure 82
01000000
10000000
00000000
00100000
00010000
00000000
00001000
00000100
,  // measure 83
00000000
00000101
00000000
00010010
00000000
00010000
00001000
00000100
,  // measure 84
00000000
00001000
00010000
00100000
00000000
10000000
01000000
00100000
,  // measure 85
00010000
00100000
00010000
00001000
00000100
00000020
00000000
00000000
,  // measure 86
00000000
00000000
00000000
00000000
00000000
00000030
00000000
00000000
;
