#VERSION:0.83;
#TITLE:Entertain Me;
#SUBTITLE:;
#ARTIST:Ylona Garcia;
#TITLETRANSLIT:;
#SUBTITLETRANSLIT:;
#ARTISTTRANSLIT:;
#GENRE:POP CHARTS;
#ORIGIN:;
#CREDIT:MUINELIM;
#BANNER:Entertain Me.png;
#BACKGROUND:Entertain Me-bg.png;
#PREVIEWVID:;
#JACKET:Entertain Me-jacket.png;
#CDIMAGE:;
#DISCIMAGE:;
#LYRICSPATH:;
#CDTITLE:;
#MUSIC:Entertain Me.ogg;
#OFFSET:0.000000;
#SAMPLESTART:39.466019;
#SAMPLELENGTH:14.834370;
#SELECTABLE:YES;
#DISPLAYBPM:103.000000;
#BPMS:0.000=103.000;
#STOPS:64.000=1.748;
#DELAYS:;
#WARPS:;
#TIMESIGNATURES:0.000=4=4;
#TICKCOUNTS:0.000=4;
#COMBOS:0.000=1;
#SPEEDS:0.000=1.000=0.000=0;
#SCROLLS:0.000=1.000;
#FAKES:;
#LABELS:0.000=Song Start;
#BGCHANGES:0.000=Entertain Me.avi=1.000=1=0=0=StretchNoLoop==CrossFade==,
99999=-nosongbg-=1.000=0=0=0 // don't automatically add -songbackground-
;
#KEYSOUNDS:;
#ATTACKS:
;

//---------------dance-single - ----------------
#NOTEDATA:;
#CHARTNAME:;
#STEPSTYPE:dance-single;
#DESCRIPTION:;
#CHARTSTYLE:;
#DIFFICULTY:Beginner;
#METER:2;
#RADARVALUES:0.094106,0.123216,0.023810,0.000000,0.000000,83.000000,80.000000,3.000000,0.000000,0.000000,0.000000,0.000000,0.000000,0.000000,0.094106,0.123216,0.023810,0.000000,0.000000,83.000000,80.000000,3.000000,0.000000,0.000000,0.000000,0.000000,0.000000,0.000000;
#CREDIT:;
#DISPLAYBPM:103.000000;
#NOTES:
0000
0000
0000
0000
,
0000
0000
0000
0000
,
0000
0000
0000
0000
,
0000
0000
0000
0000
,
0001
0000
0000
0000
,
1000
0000
0000
0000
,
0001
0000
0000
0000
,
1000
0000
0000
0000
,
0001
0000
0001
0000
,
0001
0000
0001
0000
,
0100
0000
0010
0000
,
1000
0000
0000
0000
,
1000
0000
1000
0000
,
1000
0000
1000
0000
,
0010
0000
0100
0000
,
0001
0000
0000
0000
,
0000
1000
0000
1000
,
0000
0100
0000
0100
,
0000
0010
0000
0010
,
0000
0001
0000
0000
,
0000
0001
0000
0001
,
0000
0010
0000
0010
,
0000
0100
0000
0100
,
0000
1000
0000
0000
,
0000
1000
0000
0001
,
0000
1000
0000
0001
,
0000
0100
0000
0010
,
0000
0100
0000
0010
,
0000
1000
0000
0000
,
0000
0100
0000
0000
,
0000
0010
0000
0000
,
0000
0001
0000
0000
,
0000
1000
0000
0000
,
0000
0001
0000
0000
,
0000
1000
0000
0000
,
0000
1001
0000
0000
,
0000
0001
0000
0001
,
0000
0100
0000
0100
,
0000
0010
0000
0010
,
0000
1000
0000
1000
,
0000
0100
0000
0100
,
0000
0010
0000
0010
,
0000
0001
0000
0001
,
0000
1000
0000
1000
,
0000
0001
0000
0100
,
0000
0001
0000
0010
,
0000
0001
0000
1000
,
0000
0001
0000
1001
,
0000
1000
0000
0010
,
0000
1000
0000
0100
,
0000
1000
0000
0001
,
0000
1000
0000
1001
;

//---------------dance-single - ----------------
#NOTEDATA:;
#CHARTNAME:;
#STEPSTYPE:dance-single;
#DESCRIPTION:;
#CHARTSTYLE:;
#DIFFICULTY:Easy;
#METER:4;
#RADARVALUES:0.139458,0.185717,0.055556,0.079366,0.000000,123.000000,116.000000,7.000000,10.000000,0.000000,0.000000,0.000000,0.000000,0.000000,0.139458,0.185717,0.055556,0.079366,0.000000,123.000000,116.000000,7.000000,10.000000,0.000000,0.000000,0.000000,0.000000,0.000000;
#CREDIT:;
#DISPLAYBPM:103.000000;
#NOTES:
0000
0000
0000
0000
,
0000
0000
0000
0000
,
0000
0000
0000
0000
,
0000
0000
0000
0000
,
1000
0000
0001
0000
,
1000
0000
0001
0000
,
0100
0000
0010
0000
,
0200
0300
0010
0010
,
1000
0000
0100
0000
,
1000
0000
0100
0000
,
0001
0000
0010
0000
,
0001
0000
0010
0000
,
1000
0000
0001
0000
,
1000
0000
0001
0000
,
0010
0000
0100
0000
,
0020
0000
0000
0000
,
0030
0001
0001
0001
,
0000
1000
1000
1000
,
0000
0001
0000
1000
,
0000
0010
0100
0110
,
0000
1000
1000
1000
,
0000
0001
0001
0001
,
0000
1000
0000
0001
,
0000
0100
0010
0110
,
0000
1000
0000
0100
,
0000
0001
0000
0010
,
0000
1000
0100
1000
,
0000
0001
0010
0001
,
0000
2000
0000
3000
,
0000
0002
0000
0003
,
0000
0200
0000
0300
,
0000
0020
0000
0030
,
0000
1000
0100
0000
,
0100
0001
0010
0000
,
0010
1000
0100
0000
,
0100
2002
0000
0000
,
3003
1000
0100
1000
,
0000
0010
0001
0010
,
0000
1000
0000
0001
,
0000
0100
0010
1001
,
0000
0001
0010
0001
,
0000
0100
1000
0100
,
0000
0001
0000
1000
,
0000
0010
0100
1001
,
0000
0001
1000
0010
,
0010
1000
0001
0010
,
0000
1000
0000
0100
,
0000
0001
1000
1001
,
0000
1000
0001
0100
,
0100
0001
1000
0010
,
0000
0001
0000
0100
,
0000
1000
0001
2002
,
3003
0000
0000
0000
;

//---------------dance-single - ----------------
#NOTEDATA:;
#CHARTNAME:;
#STEPSTYPE:dance-single;
#DESCRIPTION:;
#CHARTSTYLE:;
#DIFFICULTY:Medium;
#METER:7;
#RADARVALUES:0.238099,0.309529,0.079366,0.238099,0.000000,210.000000,200.000000,10.000000,30.000000,0.000000,0.000000,0.000000,0.000000,0.000000,0.238099,0.309529,0.079366,0.238099,0.000000,210.000000,200.000000,10.000000,30.000000,0.000000,0.000000,0.000000,0.000000,0.000000;
#CREDIT:;
#DISPLAYBPM:103.000000;
#NOTES:
0000
0000
0000
0000
,
0000
0000
0000
0000
,
0000
0000
0000
0000
,
0000
0000
0000
0000
,
1000
0010
0100
0001
,
1000
0010
0110
0100
,
0001
0010
0100
1000
,
2002
3003
0001
0100
,
0020
1030
0001
0100
,
0020
1030
0001
0100
,
0020
2030
3002
0023
,
0230
0000
1300
0100
,
0020
0031
1000
0100
,
0020
0031
1000
0100
,
0020
0032
2003
3020
,
0230
0000
0000
0000
,
0310
0000
0010
0100
0010
0000
1000
0000
,
0100
0000
0010
0100
0010
0000
0001
0000
,
0100
0000
0010
0100
0010
0000
1000
0000
,
0100
0000
0010
0001
0010
0000
0110
0000
,
0100
0000
1000
0001
1000
0000
0010
0000
,
1000
0000
0001
1000
0001
0000
0010
0000
,
0001
0000
1000
0001
1000
0000
0010
0000
,
1000
0000
0001
0100
0001
0000
1001
0000
,
1000
0010
0100
0001
,
0011
0010
0100
1000
,
1100
0100
1000
0010
,
1010
1000
0001
0100
,
0101
0002
0000
0000
,
0003
0020
0000
0000
,
0030
0200
0000
0000
,
0300
2000
0000
0000
,
3000
0002
0100
0000
,
0103
0200
0010
0000
,
0310
0020
1000
0000
,
1030
2002
0000
0000
,
3003
0000
0001
0100
0010
0000
0100
0000
,
0001
0000
1000
0010
0100
0000
0010
0000
,
1000
0000
0001
0100
0010
0000
1000
0000
,
0001
0000
1000
0010
0100
0001
2000
0000
,
3001
0000
0001
0010
0100
0000
1000
0000
,
0001
0000
1000
0100
0010
0000
0001
0000
,
1000
0000
0001
0010
0100
0000
1000
0000
,
0001
0000
1000
0100
0010
0001
2000
0000
,
3001
0000
0001
0100
0010
0000
0010
1000
,
0100
0000
0100
0010
0001
0000
1000
0100
,
0010
0000
0010
0001
0100
0000
0100
0010
,
1000
0000
0001
0010
0100
1000
0020
0000
,
0130
0000
0100
0001
1000
0000
1000
0100
,
0010
0000
0100
0010
0001
0000
0001
1000
,
0010
0000
0010
0100
0001
0000
1000
0010
,
0100
0001
2002
0000
0000
0000
0000
0000
,
3003
0000
0000
0000
;

//---------------dance-single - ----------------
#NOTEDATA:;
#CHARTNAME:;
#STEPSTYPE:dance-single;
#DESCRIPTION:;
#CHARTSTYLE:;
#DIFFICULTY:Hard;
#METER:11;
#RADARVALUES:0.375289,0.453975,0.222226,0.325402,0.369053,331.000000,303.000000,28.000000,41.000000,0.000000,0.000000,0.000000,0.000000,0.000000,0.375289,0.453975,0.222226,0.325402,0.369053,331.000000,303.000000,28.000000,41.000000,0.000000,0.000000,0.000000,0.000000,0.000000;
#CREDIT:;
#DISPLAYBPM:103.000000;
#NOTES:
0000
0000
0000
0000
,
0000
0000
0000
0000
,
0000
0000
0000
0000
,
0000
0000
0000
0000
,
1000
0001
0100
0010
1000
0001
0010
0200
,
0000
0000
1000
0000
1300
0000
1000
0001
1000
0000
0000
0010
0100
0000
0001
0000
,
0100
0010
1000
0010
0100
0001
1000
2002
,
0000
0000
3003
0000
0001
0010
0100
1000
,
0100
0000
0110
0000
1000
0100
0010
0001
,
0010
0000
0110
0000
1000
0100
0010
0001
,
1000
0000
0000
1000
0010
0000
0000
0010
0001
0000
0000
0001
0100
0000
0000
0100
,
2000
0000
3001
0000
0001
0100
0010
1000
,
0010
0000
0110
0000
1000
0010
0100
0001
,
0100
0000
0110
0000
0001
0100
0010
1000
,
0001
0000
0000
0001
0010
0000
0000
0010
1000
0000
0000
1000
0100
0000
0000
0100
,
0002
1000
0000
1003
,
0110
0000
0000
0000
0010
1000
0010
0000
0100
0000
0001
0010
0000
0000
0000
0000
,
0110
0000
0000
0000
0100
1000
0100
0000
0010
0000
0001
0100
0000
0010
0000
1000
,
0001
0000
0010
0000
0200
0000
0000
2300
0000
0000
0000
3010
0000
0100
0000
0001
,
1000
0000
0100
0000
0020
0000
0000
0032
0000
0000
2000
0000
3003
0000
0000
0000
,
0001
0100
0000
0010
1000
0100
1000
0000
0001
0000
0100
0010
0000
0000
0000
0000
,
0110
0000
0000
0000
0100
0001
0100
0000
0010
0000
1000
0100
0000
0010
0000
0001
,
1000
0000
0010
0000
0200
0000
0000
0302
0000
0000
0000
0013
0000
0100
0000
1000
,
0001
0000
0100
0000
0020
0000
0000
2030
0000
0000
0002
0000
3003
0000
0000
0000
,
1001
0000
0000
0000
0001
0000
0100
0000
0000
1000
0000
0000
0200
0000
0000
0000
,
0000
0310
1000
0001
0000
0000
1001
0000
0000
0110
0000
0010
0000
1000
0000
0001
,
0100
0000
0010
0000
0110
0000
0000
0101
0000
0000
2020
0000
0000
3000
0000
0000
,
0000
0130
0001
1000
0000
0000
0100
0000
0000
0010
0000
0000
0001
0000
0000
0100
,
0010
0100
0002
0000
0000
0000
0000
0000
,
0003
0020
0000
0000
,
0030
2000
0000
0000
,
3000
0200
0000
0000
,
0300
0002
0010
0000
,
1003
2000
0100
0000
,
3001
0002
0010
0000
,
1003
0000
0000
0000
0220
0000
0000
0000
0330
0000
0000
0010
0100
0000
0010
0000
,
1000
0000
0001
0000
0010
0100
1000
0000
0010
0000
0100
0001
0000
0000
0000
0000
,
1001
0000
0000
0000
1000
0010
0100
0000
0001
0000
1000
0100
0000
0010
0000
0001
,
0100
0000
0010
0000
2000
0000
0000
3002
0000
0000
0000
0103
0000
0010
0000
1000
,
0001
0000
0010
0000
0200
0000
0000
2300
0000
0000
0002
0000
3003
0000
0000
0000
,
1000
0001
0000
0100
0010
0100
0001
0000
0010
0000
0100
1000
0000
0000
0000
0000
,
1001
0000
0000
0000
0001
0010
0100
0000
1000
0000
0001
0100
0000
0010
0000
1000
,
0100
0000
0010
0000
0002
0000
0000
2003
0000
0000
0000
3100
0000
0010
0000
0001
,
1000
0000
0010
0000
0200
0000
0000
0302
0000
0000
2000
0000
3003
0000
0000
0000
,
0110
0000
0000
0000
0010
1000
0010
0000
1000
0000
0100
0000
0010
0001
0010
0000
,
0100
0000
1000
0001
1000
0000
0010
0000
0100
0000
0001
0010
0000
0100
0000
0010
,
1000
0000
0010
0000
0011
0000
0000
0101
0000
0000
0100
0010
0000
1000
0000
0001
,
0010
0000
0100
0000
1100
0000
0000
1010
0000
0000
0202
0000
0303
0000
0000
0000
,
0001
0000
1000
0000
0010
0100
0001
0000
0100
0000
0010
0000
0100
0010
1000
0000
,
0001
0000
0010
0100
1000
0000
0010
0000
0100
0000
0001
1000
0000
0100
0000
0010
,
0001
0000
1000
0000
1010
0000
0000
0011
0000
0000
0001
0100
0000
1000
0000
0100
,
0010
0000
1000
0000
1100
0000
0000
0101
0000
0000
2002
0000
0000
0000
0000
0000
,
3003
0000
0000
0000
;

//---------------dance-single - ----------------
#NOTEDATA:;
#CHARTNAME:;
#STEPSTYPE:dance-single;
#DESCRIPTION:;
#CHARTSTYLE:;
#DIFFICULTY:Challenge;
#METER:12;
#RADARVALUES:0.378691,0.453975,0.309529,0.317465,0.337307,334.000000,295.000000,39.000000,40.000000,164.000000,0.000000,0.000000,0.000000,0.000000,0.378691,0.453975,0.309529,0.317465,0.337307,334.000000,295.000000,39.000000,40.000000,164.000000,0.000000,0.000000,0.000000,0.000000;
#CREDIT:;
#DISPLAYBPM:103.000000;
#NOTES:
0000
0000
0000
0000
,
0000
0000
0000
0000
,
0000
0000
0000
0000
,
0000
0000
0000
0000
,
1000
0001
0100
0010
1000
0001
0010
0100
,
MMMM
0000
1001
0000
0001
0000
1000
0001
1000
0000
0000
0010
0100
0000
0001
0000
,
0100
0010
1000
0010
0100
0001
1000
2002
,
0000
0000
3003
MMMM
0001
0010
0100
1000
,
0100
MMMM
0110
0000
1000
0100
0010
0001
,
0010
MMMM
0110
0000
1000
0100
0010
0001
,
1001
MMMM
1010
MMMM
0011
MMMM
0101
MMMM
,
2100
0000
3001
0000
0001
0100
0010
1000
,
0010
MMMM
0110
0000
1000
0010
0100
0001
,
0100
MMMM
0110
0000
0001
0100
0010
1000
,
1001
MMMM
0011
MMMM
1010
MMMM
1100
MMMM
,
0102
1000
0000
1003
,
0110
0000
MMMM
0000
0010
1000
0010
0000
0100
0000
0001
0010
0000
0000
MMMM
0000
,
0110
0000
MMMM
0000
0100
1000
0100
0000
0010
0000
0001
0100
0000
0010
0000
1000
,
0001
0000
0010
0000
0200
0000
0000
2300
0000
0000
0000
3010
0000
0100
0000
0001
,
1000
0000
0100
0000
0020
0000
0000
0032
0000
0000
2000
0000
3003
0000
MMMM
0000
,
0001
0100
0000
0010
1000
0100
1000
0000
0001
0000
0100
0010
0000
0000
MMMM
0000
,
0110
0000
MMMM
0000
0100
0001
0100
0000
0010
0000
1000
0100
0000
0010
0000
0001
,
1000
0000
0010
0000
0200
0000
0000
0302
0000
0000
0000
0013
0000
0100
0000
1000
,
0001
0000
0100
0000
0020
0000
0000
2030
0000
0000
0002
0000
3003
0000
MMMM
0000
,
1001
0000
MMMM
0000
0001
0000
0100
0000
0000
1000
0000
0000
0200
0000
0000
0000
,
0000
0310
1000
0001
MMMM
0000
1001
0000
0000
0110
0000
0010
0000
1000
0000
0001
,
0100
0000
0010
0000
0110
0000
0000
0101
0000
0000
2020
0000
0000
3000
0000
0000
,
0000
0130
0001
1000
MMMM
0000
0100
0000
0000
0010
0000
0000
0001
0000
0000
0100
,
0010
0100
0002
0000
0000
0000
0000
0000
,
0003
MMMM
0020
0000
0000
0000
0000
0000
,
0030
MMMM
2000
0000
0000
0000
0000
0000
,
3000
MMMM
0200
0000
0000
0000
0000
0000
,
0300
MMMM
0002
0000
0010
0000
0000
0000
,
1003
MMMM
2000
0000
0100
0000
0000
0000
,
3001
MMMM
0002
0000
0010
0000
0000
0000
,
1003
0000
MMMM
0000
0220
0000
0000
0000
0330
0000
0000
0010
0100
0000
0010
0000
,
1000
0000
0001
0000
0010
0100
1000
0000
0010
0000
0100
0001
0000
0000
MMMM
0000
,
1001
0000
MMMM
0000
1000
0010
0100
0000
0001
0000
1000
0100
0000
0010
0000
0001
,
0100
0000
0010
0000
2000
0000
0000
3002
0000
0000
0000
0103
0000
0010
0000
1000
,
0001
0000
0010
0000
0200
0000
0000
2300
0000
0000
0002
0000
3003
0000
MMMM
0000
,
1000
0001
0000
0100
0010
0100
0001
0000
0010
0000
0100
1000
0000
0000
MMMM
0000
,
1001
0000
MMMM
0000
0001
0010
0100
0000
1000
0000
0001
0100
0000
0010
0000
1000
,
0100
0000
0010
0000
0002
0000
0000
2003
0000
0000
0000
3100
0000
0010
0000
0001
,
1000
0000
0010
0000
0200
0000
0000
0302
0000
0000
2000
0000
3003
0000
MMMM
0000
,
0110
0000
MMMM
0000
0010
1000
0010
0000
1000
0000
0100
0000
0010
0001
0010
0000
,
0100
0000
1000
0001
1000
0000
0010
0000
0100
0000
0001
0010
0000
0100
0000
0010
,
1000
0000
0010
0000
0011
0000
0000
0101
0000
0000
0100
0010
0000
1000
0000
0001
,
0010
0000
0100
0000
1100
0000
0000
1010
0000
0000
0202
0000
0303
0000
MMMM
0000
,
0001
0000
1000
0000
0010
0100
0001
0000
0100
0000
0010
0000
0100
0010
1000
0000
,
0001
0000
0010
0100
1000
0000
0010
0000
0100
0000
0001
1000
0000
0100
0000
0010
,
0001
0000
1000
0000
1010
0000
0000
0011
0000
0000
0001
0100
0000
1000
0000
0100
,
0010
0000
1000
0000
1100
0000
0000
0101
0000
0000
2002
0000
3003
0000
MMMM
0000
,
MMMM
0000
0000
0000
;

//---------------dance-double - ----------------
#NOTEDATA:;
#CHARTNAME:;
#STEPSTYPE:dance-double;
#DESCRIPTION:;
#CHARTSTYLE:;
#DIFFICULTY:Hard;
#METER:12;
#RADARVALUES:0.379825,0.453975,0.222226,0.325402,0.369053,335.000000,307.000000,28.000000,41.000000,0.000000,0.000000,0.000000,0.000000,0.000000,0.379825,0.453975,0.222226,0.325402,0.369053,335.000000,307.000000,28.000000,41.000000,0.000000,0.000000,0.000000,0.000000,0.000000;
#CREDIT:;
#DISPLAYBPM:103.000000;
#NOTES:
00000000
00000000
00000000
00000000
,
00000000
00000000
00000000
00000000
,
00000000
00000000
00000000
00000000
,
00000000
00000000
00000000
00000000
,
00001000
00010000
00000100
00001000
00000010
00010000
00001000
00200000
,
00000000
00000000
00010000
00000000
00310000
00000000
00010000
10000000
00010000
00000000
00000000
01000000
00100000
00000000
10000000
00000000
,
01000000
00100000
00001000
00010000
00000100
00000010
00000001
00002002
,
00000000
00000000
00003003
00000000
00001000
00000010
00010000
00100000
,
10000000
00000000
01100000
00000000
00010000
01000000
00001000
00000100
,
00000001
00000000
00000110
00000000
00001000
00000100
00010000
01000000
,
10000000
00000000
00000000
10000000
00100000
00000000
00000000
00100000
00010000
00000000
00000000
00010000
00001000
00000000
00000000
00001000
,
00000200
00000000
00000301
00000000
00000001
00000010
00001000
00100000
,
00010000
00000000
01100000
00000000
10000000
01000000
00010000
00000100
,
00001000
00000000
00000110
00000000
00000001
00000100
00001000
01000000
,
00010000
00000000
00000000
00010000
10000000
00000000
00000000
10000000
01000000
00000000
00000000
01000000
00010000
00000000
00000000
00010000
,
00002000
00000010
00000000
00103000
,
00011000
00000000
00000000
00000000
00010000
00001000
00010000
00000000
00000100
00000000
00000010
00000100
00000010
00000000
00000000
00000000
,
00000011
00000000
00000000
00000000
00000001
00000100
00000001
00000000
00000010
00000000
00001000
00010000
00000000
00100000
00000000
00010000
,
00001000
00000000
00100000
00000000
02000000
00000000
00000000
23000000
00000000
00000000
00000000
30100000
00000000
00010000
00000000
00001000
,
00010000
00000000
00000100
00000000
00000020
00000000
00000000
00000032
00000000
00000000
00002000
00000000
00003003
00000000
00000000
00000000
,
00001000
00000010
00000000
00010000
00001000
00100000
00001000
00000000
00010000
00000000
00100000
01000000
00100000
00000000
00000000
00000000
,
10100000
00000000
00000000
00000000
10000000
01000000
10000000
00000000
00100000
00000000
00010000
00001000
00000000
00000010
00000000
00001000
,
00010000
00000000
00100000
00000000
02000000
00000000
00000000
03020000
00000000
00000000
00000000
00130000
00000000
01000000
00000000
00010000
,
00001000
00000000
00000010
00000000
00000002
00000000
00000000
00000203
00000000
00000000
00000020
00000000
00000330
00000000
00000000
00000000
,
00001001
00000000
00000000
00000000
00000001
00000000
00000100
00000000
00000000
00001000
00000000
00000000
00020000
00000000
00000000
00000000
,
00000000
00130000
01000000
00100000
00000000
00000000
10100000
00000000
00000000
11000000
00000000
01000000
00000000
00100000
00000000
00001000
,
00010000
00000000
00000100
00000000
00010100
00000000
00000000
01001000
00000000
00000000
00022000
00000000
00003000
00000000
00000000
00000000
,
00000000
00030100
00000010
00000100
00000000
00000000
00001000
00000000
00000000
00000001
00000000
00000000
00000010
00000000
00000000
00001000
,
00010000
00001000
00200000
00000000
00000000
00000000
00000000
00000000
,
00300000
02000000
00000000
00000000
,
03000000
00020000
00000000
00000000
,
00030000
00002000
00000000
00000000
,
00003000
00000020
00000100
00000000
,
00000130
00002000
00010000
00000000
,
00013000
00200000
01000000
00000000
,
01300000
00000000
00000000
00000000
20020000
00000000
00000000
00000000
30030000
00000000
00000000
10000000
00100000
00000000
01000000
00000000
,
00010000
00000000
00100000
00000000
01000000
00100000
01000000
00000000
00010000
00000000
00001000
00010000
00001000
00000000
00000000
00000000
,
00011000
00000000
00000000
00000000
00010000
00000100
00010000
00000000
00001000
00000000
00000100
00000001
00000000
00000010
00000000
00000100
,
00001000
00000000
00000010
00000000
00020000
00000000
00000000
00032000
00000000
00000000
00000000
00103000
00000000
01000000
00000000
10000000
,
00100000
00000000
01000000
00000000
00020000
00000000
00000000
00230000
00000000
00000000
02000000
00000000
03300000
00000000
00000000
00000000
,
01000000
10000000
00000000
00100000
00010000
00001000
00010000
00000000
00000100
00000000
00001000
00000001
00001000
00000000
00000000
00000000
,
00000110
00000000
00000000
00000000
00000010
00001000
00000010
00000000
00010000
00000000
00001000
00100000
00000000
01000000
00000000
10000000
,
00100000
00000000
00010000
00000000
00002000
00000000
00000000
00003200
00000000
00000000
00000000
00000301
00000000
00000010
00000000
00000100
,
00010000
00000000
00001000
00000000
00200000
00000000
00000000
00320000
00000000
00000000
20000000
00000000
30030000
00000000
00000000
00000000
,
01100000
00000000
00000000
00000000
00100000
10000000
00100000
00000000
10000000
00000000
01000000
00000000
00010000
00001000
00010000
00000000
,
00000100
00000000
00000010
00000001
00000010
00000000
00001000
00000000
00010000
00000000
00100000
10000000
00000000
01000000
00000000
00100000
,
00010000
00000000
01000000
00000000
01001000
00000000
00000000
00011000
00000000
00000000
00010000
00000100
00000000
00000010
00000000
00000100
,
00001000
00000000
00000010
00000000
00000110
00000000
00000000
00000101
00000000
00000000
00002020
00000000
00003030
00000000
00000000
00000000
,
00001000
00000000
00000100
00000000
00000010
00000001
00000010
00000000
00001000
00000000
00010000
00000000
01000000
00100000
01000000
00000000
,
10000000
00000000
00100000
00010000
00100000
00000000
01000000
00000000
00010000
00000000
00100000
01000000
00000000
00010000
00000000
00001000
,
00000010
00000000
00000001
00000000
00000101
00000000
00000000
00001010
00000000
00000000
00001000
00000100
00000000
00000010
00000000
00001000
,
00010000
00000000
01000000
00000000
11000000
00000000
00000000
10100000
00000000
00000000
02002000
00000000
00000000
00000000
00000000
00000000
,
03003000
00000000
00000000
00000000
;

//---------------dance-double - ----------------
#NOTEDATA:;
#CHARTNAME:;
#STEPSTYPE:dance-double;
#DESCRIPTION:;
#CHARTSTYLE:;
#DIFFICULTY:Challenge;
#METER:13;
#RADARVALUES:0.373022,0.453975,0.238099,0.317465,0.337307,329.000000,299.000000,30.000000,40.000000,252.000000,0.000000,0.000000,0.000000,0.000000,0.373022,0.453975,0.238099,0.317465,0.337307,329.000000,299.000000,30.000000,40.000000,252.000000,0.000000,0.000000,0.000000,0.000000;
#CREDIT:;
#DISPLAYBPM:103.000000;
#NOTES:
// measure 0
00000000
00000000
00000000
00000000
,  // measure 1
00000000
00000000
00000000
00000000
,  // measure 2
00000000
00000000
00000000
00000000
,  // measure 3
00000000
00000000
00000000
00000000
,  // measure 4
00001000
00010000
00000100
00001000
00000010
00010000
00001000
00101000
,  // measure 5
MMMMMMMM
00000000
00110000
00000000
00100000
00000000
00010000
10000000
00010000
00000000
00000000
01000000
00100000
00000000
10000000
00000000
,  // measure 6
01000000
00100000
00001000
00010000
00000100
00000010
00000001
00002002
,  // measure 7
00000000
00000000
00003003
00000000
00001000
00000010
00010000
00100000
,  // measure 8
10000000
MMMM0000
01100000
MMMM0000
00010000
01000000
00001000
00000100
,  // measure 9
00000001
0000MMMM
00000110
0000MMMM
00001000
00000100
00010000
01000000
,  // measure 10
10000000
MMMMMMMM
00100000
MMMMMMMM
00010000
MMMMMMMM
00001000
MMMMMMMM
,  // measure 11
00000200
00000000
00000301
00000000
00000001
00000010
00001000
00100000
,  // measure 12
00010000
MMMM0000
01100000
MMMM0000
10000000
01000000
00010000
00000100
,  // measure 13
00001000
0000MMMM
00000110
0000MMMM
00000001
00000100
00001000
01000000
,  // measure 14
00010000
MMMMMMMM
10000000
MMMMMMMM
01000000
MMMMMMMM
00010000
MMMMMMMM
,  // measure 15
00002000
00000010
00000000
00103000
,  // measure 16
00011000
00000000
MMMMMMMM
00000000
00010000
00001000
00010000
00000000
00000100
00000000
00000010
00000100
00000010
00000000
0000MMMM
00000000
,  // measure 17
00000011
00000000
0000MMMM
00000000
00000001
00000100
00000001
00000000
00000010
00000000
00001000
00010000
00000000
00100000
00000000
00010000
,  // measure 18
00001000
00000000
00100000
00000000
02000000
00000000
00000000
23000000
00000000
00000000
00000000
30100000
00000000
00010000
00000000
00001000
,  // measure 19
00010000
00000000
00000100
00000000
00000020
00000000
00000000
00000032
00000000
00000000
00002000
00000000
00003003
00000000
0000MMMM
00000000
,  // measure 20
00001000
00000010
00000000
00010000
00001000
00100000
00001000
00000000
00010000
00000000
00100000
01000000
00100000
00000000
MMMM0000
00000000
,  // measure 21
10100000
00000000
MMMM0000
00000000
10000000
01000000
10000000
00000000
00100000
00000000
00010000
00001000
00000000
00000010
00000000
00001000
,  // measure 22
00010000
00000000
00100000
00000000
02000000
00000000
00000000
03020000
00000000
00000000
00000000
00130000
00000000
01000000
00000000
00010000
,  // measure 23
00001000
00000000
00000010
00000000
00000002
00000000
00000000
00000203
00000000
00000000
00000020
00000000
00000330
00000000
0000MMMM
00000000
,  // measure 24
00001001
00000000
0000MMMM
00000000
00000001
00000000
00000100
00000000
00000000
00001000
00000000
00000000
00020000
00000000
00000000
00000000
,  // measure 25
00000000
00130000
01000000
00100000
00000000
00000000
10100000
00000000
00000000
11000000
00000000
01000000
00000000
00100000
00000000
00001000
,  // measure 26
00010000
00000000
00000100
00000000
00010100
00000000
00000000
01001000
00000000
00000000
00022000
00000000
00003000
00000000
00000000
00000000
,  // measure 27
00000000
00030100
00000010
00000100
00000000
00000000
00001000
00000000
00000000
00000001
00000000
00000000
00000010
00000000
00000000
00001000
,  // measure 28
00010000
00001000
00200000
00000000
00000000
00000000
00000000
00000000
,  // measure 29
00300000
MMMMMMMM
02000000
00000000
00000000
00000000
00000000
00000000
,  // measure 30
03000000
MMMMMMMM
00020000
00000000
00000000
00000000
00000000
00000000
,  // measure 31
00030000
MMMMMMMM
00002000
00000000
00000000
00000000
00000000
00000000
,  // measure 32
00003000
MMMMMMMM
00000020
00000000
00000100
00000000
00000000
00000000
,  // measure 33
00000130
MMMMMMMM
00002000
00000000
00010000
00000000
00000000
00000000
,  // measure 34
00013000
MMMMMMMM
00200000
00000000
01000000
00000000
00000000
00000000
,  // measure 35
01300000
00000000
MMMMMMMM
00000000
20020000
00000000
00000000
00000000
30030000
00000000
00000000
10000000
00100000
00000000
01000000
00000000
,  // measure 36
00010000
00000000
00100000
00000000
01000000
00100000
01000000
00000000
00010000
00000000
00001000
00010000
00001000
00000000
MMMMMMMM
00000000
,  // measure 37
00011000
00000000
MMMMMMMM
00000000
00010000
00000100
00010000
00000000
00001000
00000000
00000100
00000001
00000000
00000010
00000000
00000100
,  // measure 38
00001000
00000000
00000010
00000000
00020000
00000000
00000000
00032000
00000000
00000000
00000000
00103000
00000000
01000000
00000000
10000000
,  // measure 39
00100000
00000000
01000000
00000000
00020000
00000000
00000000
00230000
00000000
00000000
02000000
00000000
03300000
00000000
MMMMMMMM
00000000
,  // measure 40
01000000
10000000
00000000
00100000
00010000
00001000
00010000
00000000
00000100
00000000
00001000
00000001
00001000
00000000
0000MMMM
00000000
,  // measure 41
00000110
00000000
0000MMMM
00000000
00000010
00001000
00000010
00000000
00010000
00000000
00001000
00100000
00000000
01000000
00000000
10000000
,  // measure 42
00100000
00000000
00010000
00000000
00002000
00000000
00000000
00003200
00000000
00000000
00000000
00000301
00000000
00000010
00000000
00000100
,  // measure 43
00010000
00000000
00001000
00000000
00200000
00000000
00000000
00320000
00000000
00000000
20000000
00000000
30030000
00000000
MMMM0000
00000000
,  // measure 44
01100000
00000000
MMMM0000
00000000
00100000
10000000
00100000
00000000
10000000
00000000
01000000
00000000
00010000
00001000
00010000
00000000
,  // measure 45
00000100
00000000
00000010
00000001
00000010
00000000
00001000
00000000
00010000
00000000
00100000
10000000
00000000
01000000
00000000
00100000
,  // measure 46
00010000
00000000
01000000
00000000
01001000
00000000
00000000
00011000
00000000
00000000
00010000
00000100
00000000
00000010
00000000
00000100
,  // measure 47
00001000
00000000
00000010
00000000
00000110
00000000
00000000
00000101
00000000
00000000
00002020
00000000
00003030
00000000
MMMMMMMM
00000000
,  // measure 48
00001000
00000000
00000100
00000000
00000010
00000001
00000010
00000000
00001000
00000000
00010000
00000000
01000000
00100000
01000000
00000000
,  // measure 49
10000000
00000000
00100000
00010000
00100000
00000000
01000000
00000000
00010000
00000000
00100000
01000000
00000000
00010000
00000000
00001000
,  // measure 50
00000010
00000000
00000001
00000000
00000101
00000000
00000000
00001010
00000000
00000000
00001000
00000100
00000000
00000010
00000000
00001000
,  // measure 51
00010000
00000000
01000000
00000000
11000000
00000000
00000000
10100000
00000000
00000000
02002000
00000000
03000000
00000000
MMMM3000
00000000
,  // measure 52
0000MMMM
00000000
00000000
00000000
;

//---------------dance-double - ----------------
#NOTEDATA:;
#CHARTNAME:;
#STEPSTYPE:dance-double;
#DESCRIPTION:;
#CHARTSTYLE:;
#DIFFICULTY:Easy;
#METER:4;
#RADARVALUES:0.131521,0.185717,0.031747,0.079366,0.000000,116.000000,112.000000,4.000000,10.000000,0.000000,0.000000,0.000000,0.000000,0.000000,0.131521,0.185717,0.031747,0.079366,0.000000,116.000000,112.000000,4.000000,10.000000,0.000000,0.000000,0.000000,0.000000,0.000000;
#CREDIT:;
#DISPLAYBPM:103.000000;
#NOTES:
00000000
00000000
00000000
00000000
,
00000000
00000000
00000000
00000000
,
00000000
00000000
00000000
00000000
,
00000000
00000000
00000000
00000000
,
00001000
00000000
00010000
00000000
,
00000010
00000000
00010000
00000000
,
00001000
00000000
01000000
00000000
,
00002000
00003000
00010000
00010000
,
00000100
00000000
00000010
00000000
,
00000001
00000000
00000100
00000000
,
00001000
00000000
00010000
00000000
,
00100000
00000000
10000000
00000000
,
01000000
00000000
00100000
00000000
,
00001000
00000000
00010000
00000000
,
00000100
00000000
00000010
00000000
,
00000200
00000000
00000000
00000000
,
00000300
00001000
00000000
00000001
,
00000000
00001000
00000000
00000001
,
00000000
00000100
00000000
00001000
,
00000000
00010000
00001000
01000000
,
00000000
00010000
00000000
10000000
,
00000000
00010000
00000000
10000000
,
00000000
00100000
00000000
00010000
,
00000000
00001000
00010000
00000010
,
00000000
00001000
00000000
00000100
,
00000000
00000010
00000000
00000001
,
00000000
00000100
00001000
00010000
,
00000000
00001000
00010000
00100000
,
00000000
20000000
00000000
30000000
,
00000000
02000000
00000000
03000000
,
00000000
00200000
00000000
00300000
,
00000000
00002000
00000000
00003000
,
00000000
00010000
00000100
00000000
,
00000100
00000010
00000001
00000000
,
00000001
00000100
00001000
00000000
,
00001000
00022000
00000000
00000000
,
00033000
00010000
00000010
00010000
,
00000000
00001000
01000000
00001000
,
00000000
00010000
00000000
00100000
,
00000000
10000000
01000000
00010000
,
00000000
00001000
00100000
00001000
,
00000000
00010000
00000100
00010000
,
00000000
00001000
00000000
00000010
,
00000000
00000001
00000100
00001000
,
00000000
00010000
00001000
00100000
,
01000000
00010000
00001000
00011000
,
00000000
00010000
00000000
00001000
,
00000000
00000010
00001000
00010000
,
00000000
00001000
00010000
00000100
,
00000010
00001000
00010000
00011000
,
00000000
00001000
00000000
00010000
,
00000000
01000000
10000000
20020000
,
30030000
00000000
00000000
00000000
;

//---------------dance-double - ----------------
#NOTEDATA:;
#CHARTNAME:;
#STEPSTYPE:dance-double;
#DESCRIPTION:;
#CHARTSTYLE:;
#DIFFICULTY:Medium;
#METER:7;
#RADARVALUES:0.230162,0.288893,0.119050,0.182543,0.000000,203.000000,188.000000,15.000000,23.000000,0.000000,0.000000,0.000000,0.000000,0.000000,0.230162,0.288893,0.119050,0.182543,0.000000,203.000000,188.000000,15.000000,23.000000,0.000000,0.000000,0.000000,0.000000,0.000000;
#CREDIT:;
#DISPLAYBPM:103.000000;
#NOTES:
00000000
00000000
00000000
00000000
,
00000000
00000000
00000000
00000000
,
00000000
00000000
00000000
00000000
,
00000000
00000000
00000000
00000000
,
00001000
00010000
00100000
01000000
,
00001000
00010000
00011000
00001000
,
00010000
00000010
00000100
00001000
,
00022000
00033000
00010000
01000000
,
20000000
30100000
00010000
00001000
,
00000200
00000301
00000010
00001000
,
00020000
00030100
00002000
01003000
,
00022000
00033000
00001000
00000100
,
00000002
00000013
00001000
00010000
,
02000000
13000000
00100000
00010000
,
00002000
01003000
00020000
00030100
,
00022000
00000000
00000000
00033000
,
00011000
00010000
01000000
10000000
,
00100000
00000000
01000000
00100000
01000000
00000000
00001000
00000000
,
00010000
00000000
00000010
00000100
00000010
00000000
00001000
00000000
,
00000100
00000010
00000001
00001001
,
00001000
00000100
00010000
01000000
,
00100000
00000000
00001000
00010000
00001000
00000000
00000010
00000000
,
00000100
00000000
00010000
00001000
00010000
00000000
01000000
00000000
,
00100000
00001000
00000010
00000110
,
00000001
00000100
00001000
00010000
,
00011000
00001000
00010000
00100000
,
10100000
10000000
01000000
00010000
,
00011000
00001000
00000010
00000001
,
00000101
00000200
00000000
00000000
,
00000300
00002000
00000000
00000000
,
00003000
00020000
00000000
00000000
,
00030000
00200000
00000000
00000000
,
00300000
10000000
01000000
00000000
,
01000000
00010000
00001000
00000000
,
00010000
00001000
00000010
00000000
,
00000010
00002002
00000000
00000000
,
00003003
00000000
00000001
00000100
00000001
00000000
00000010
00000000
,
00001000
00000000
00010000
00001000
00010000
00000000
01000000
00000000
,
10000000
00000000
00100000
01000000
00100000
00000000
00010000
00000000
,
00001000
00000000
00100000
01000000
10000000
00000000
10010000
00000000
,
00010000
00000000
10000000
01000000
10000000
00000000
00100000
00000000
,
00010000
00000000
00001000
00010000
00001000
00000000
00000100
00000000
,
00000001
00000000
00000010
00000100
00000010
00000000
00001000
00000000
,
00010000
00000000
00000010
00000100
00000001
00000000
00001001
00000000
,
00001000
00000000
00000001
00000100
00001000
00000000
00010000
00000000
,
00001000
00000000
00010000
00100000
10000000
00000000
00010000
00000000
,
10000000
00000000
01000000
00100000
00010000
00000000
00100000
00000000
,
01000000
00000000
00010000
00001000
00000010
00000000
00000002
00000000
,
00001003
00000000
00001000
00000100
00000010
00000000
00000001
00000000
,
00000100
00000000
00001000
00010000
00100000
00000000
10000000
00000000
,
01000000
00000000
00100000
00001000
00010000
00000000
00000100
00000010
,
00000100
00001000
00002002
00000000
00000000
00000000
00000000
00000000
,
00003003
00000000
00000000
00000000
;
