#TITLE:ELEVEN;
#SUBTITLE:;
#ARTIST:IVE;
#TITLETRANSLIT:;
#SUBTITLETRANSLIT:;
#ARTISTTRANSLIT:;
#GENRE:K-POP;
#CREDIT:MUINELIM;
#BANNER:ELEVEN.png;
#BACKGROUND:ELEVEN-bg.png;
#LYRICSPATH:;
#CDTITLE:;
#MUSIC:ELEVEN.mp3;
#OFFSET:-0.090000;
#SAMPLESTART:56.443089;
#SAMPLELENGTH:15.000000;
#SELECTABLE:YES;
#DISPLAYBPM:100.000000:120.000000;
#BPMS:0.000000=120,74.000000=110,76.000000=100,77.000000=122,78.000000=104,81.000000=122,83.000000=120,170.000000=110,172.000000=100,173.000000=122,174.000000=104,177.000000=105,178.000000=117,179.000000=120;
#STOPS:
;
#BGCHANGES:-10000.000=black.mpg=1.000=1=0=1===CrossFade==,
-0.100=ELEVEN.mpg=1.000=0=0=0=StretchNoLoop====,
99999=-nosongbg-=1.000=0=0=0 // don't automatically add -songbackground-
;
#KEYSOUNDS:;
#ATTACKS:;

//---------------dance-single - ----------------
#NOTES:
     dance-single:
     :
     Beginner:
     2:
     0.094354,0.146796,0.040273,0.000000,0.000000,82.000000,77.000000,5.000000,0.000000,0.000000,0.000000,0.094354,0.146796,0.040273,0.000000,0.000000,82.000000,77.000000,5.000000,0.000000,0.000000,0.000000:
0000
0000
0000
0000
,
0000
0000
0000
0000
,
0000
0000
0000
0000
,
0000
0000
0000
0000
,
0000
0000
0000
1000
,
0000
0000
0000
1000
,
0000
0000
0000
1000
,
0000
0000
0000
1000
,
0000
0000
0000
0001
,
0000
0000
0000
0001
,
0000
0000
0000
0001
,
0000
0000
0000
0001
,
0000
0000
0000
1000
,
0000
0000
0000
1000
,
0000
0000
0000
0001
,
0000
0000
0000
0001
,
0000
0000
0000
1000
,
0000
0000
0000
0001
,
0000
0000
0000
1001
,
0000
0000
0000
0000
,
0000
0000
0000
0100
,
0000
0100
0000
0100
,
0000
0000
0000
0010
,
0000
0010
0000
0010
,
0000
0000
0000
1000
,
0000
1000
0000
0001
,
0000
0001
0000
1000
,
0000
0001
0000
1001
,
0000
0000
0000
0010
,
0000
0000
0000
0100
,
0000
0000
0000
0010
,
0000
0010
0000
0100
,
0000
0100
0000
0001
,
0000
0000
0000
1000
,
0000
0000
0000
0001
,
0000
0001
0000
1000
,
0000
1000
0000
0010
,
0000
0000
0000
0100
,
0000
0000
0000
0010
,
0000
0000
0000
0100
,
0000
0000
0000
0010
,
0000
0000
0000
0100
,
0000
0000
0000
0110
,
0000
0000
0000
0000
,
0000
0000
0000
0001
,
0000
0001
0000
0001
,
0000
0000
0000
1000
,
0000
1000
0000
1000
,
0000
0000
0000
0010
,
0000
0010
0000
0100
,
0000
0100
0000
0010
,
0000
0100
0000
0110
,
0000
0000
0000
0001
,
0000
0001
0000
0010
,
0000
0010
0000
0100
,
0000
0100
0000
1000
,
0000
1000
0000
0010
,
0000
0010
0000
0100
,
0000
0100
0000
0001
,
0000
0001
0000
1000
,
0000
1000
0000
1001
;

//---------------dance-single - ----------------
#NOTES:
     dance-single:
     :
     Easy:
     4:
     0.141532,0.196533,0.040273,0.048328,0.000000,123.000000,118.000000,5.000000,6.000000,0.000000,0.000000,0.141532,0.196533,0.040273,0.048328,0.000000,123.000000,118.000000,5.000000,6.000000,0.000000,0.000000:
0000
0000
0000
0000
,
0000
0000
0000
0000
,
0000
0000
0000
0000
,
0000
0000
0000
0000
,
0000
0000
0000
1000
,
0000
1000
0000
0001
,
0000
0001
0000
1000
,
0000
0001
0000
1000
,
0000
0001
0000
0100
,
0000
0100
0000
0010
,
0000
0010
0000
0100
,
0000
0010
0000
0110
,
0000
0000
1000
1000
,
0000
0001
0000
0100
,
0000
0001
0001
0001
,
0000
1000
0000
0010
,
0000
1000
1000
1000
,
0000
0001
0000
1001
,
0000
0000
0010
0200
,
0000
0000
0000
0000
,
0000
0300
0000
0010
,
0100
0010
0000
1000
,
0000
0001
0000
0100
,
0010
0100
0000
0001
,
0000
1000
0000
0010
,
0100
0001
0000
0100
,
0010
1000
0000
0010
,
0010
0010
0010
0010
,
0000
0000
0000
1000
,
0000
0100
0000
0010
,
0000
0001
0000
1000
,
0000
0001
0000
1000
,
0000
0001
1000
0001
,
0000
0010
0000
0100
,
0000
1000
0000
0001
,
0000
1000
0000
0001
,
0000
1000
0001
2000
,
0000
3000
0000
1010
,
0000
0000
0000
0002
,
0000
0003
0000
0101
,
0000
0000
0000
2000
,
0000
3000
0000
1001
,
0000
0000
0100
0020
,
0000
0000
0000
0000
,
0000
0030
0000
1000
,
0001
1000
0000
0100
,
0000
0010
0000
0001
,
1000
0001
0000
0010
,
0000
0100
0000
1000
,
0010
0100
0000
0001
,
0100
0010
0000
1000
,
1000
1000
1000
1000
,
0000
0000
0000
0001
,
0000
0100
0000
1000
,
0000
0010
0000
0001
,
0000
1000
0000
0001
,
0000
1000
1000
0001
,
0000
0010
0000
1000
,
0000
0100
0000
0001
,
0000
1000
0000
0010
,
0000
0100
0010
0200
,
0300
0000
0000
0000
;

//---------------dance-single - ----------------
#NOTES:
     dance-single:
     :
     Medium:
     8:
     0.314131,0.393067,0.177202,0.217475,0.000000,273.000000,251.000000,22.000000,27.000000,0.000000,0.000000,0.314131,0.393067,0.177202,0.217475,0.000000,273.000000,251.000000,22.000000,27.000000,0.000000,0.000000:
0000
0000
0000
0000
,
0000
0000
0000
0000
,
0000
0000
0000
0000
,
0000
0000
0000
0000
,
0000
0000
0000
0000
0000
0000
0000
1000
,
0000
1000
0000
0001
0000
0001
0000
0100
,
0000
0100
0000
0010
0000
0010
0000
1000
,
0000
1000
0000
0100
0000
0100
0000
0001
,
0000
0001
0000
0010
0000
0110
0000
0001
,
0000
0001
0000
0100
0000
0100
0000
0010
,
0000
0010
0000
1000
0000
1000
0000
0100
,
0010
0100
0010
0000
0001
1000
2002
0000
,
0000
3003
0000
0001
0100
0010
1000
0000
,
0100
0010
0001
2000
,
3000
0000
0010
0100
0110
0000
0001
0000
,
0010
0100
1000
0002
,
0003
0000
0100
0010
0110
0000
1000
0000
,
0010
0001
0100
2000
,
3010
0002
0103
2000
,
0010
0100
0001
0010
,
0100
0000
3001
0000
0000
0001
0001
0000
,
1000
1100
0100
1000
,
0001
0010
0001
0000
0101
0000
0100
0000
,
0010
1000
0010
0000
0100
0000
0001
0000
,
0010
0100
0010
0000
0110
0000
1000
0010
,
0100
0000
0202
0000
0303
0000
0001
0010
,
0100
0000
2200
0000
3300
0000
1000
0010
,
0100
0000
0001
0010
0100
0000
2002
0000
,
0000
0000
3003
0001
,
0100
1000
0100
0001
,
0010
0000
0100
1000
0100
1000
0100
1000
,
0000
0001
0010
0001
0010
0001
0010
0010
,
0000
1100
0000
1001
0000
0001
1000
0000
,
0100
0001
0100
1000
,
0010
0000
0100
0001
0100
0001
0100
0001
,
0000
1000
0010
1000
0010
1000
0010
0010
,
0100
0001
1000
1020
,
0000
0230
0000
0301
,
0000
0000
0001
0010
0001
0000
0021
0000
,
0000
0230
0000
1300
,
0000
0000
1000
0001
1000
0000
1002
0000
,
0000
0203
0000
0320
,
0000
0000
0030
0000
0100
0010
0200
0000
,
0001
0010
1000
0010
,
0001
0000
0310
0000
0000
0010
0010
0000
,
1000
1100
0100
0010
,
0001
0100
0010
0000
0110
0000
0100
0000
,
0001
0010
0100
0000
1000
0000
0010
0000
,
0100
0001
1000
0000
1001
0000
0001
0010
,
0001
0010
0200
0000
0300
0000
1000
0010
,
1000
0010
0200
0000
0300
0000
0001
1000
,
0010
0000
1000
0001
0100
0000
0220
0000
,
0000
0000
0330
0001
,
0100
1000
0100
0001
,
0010
0000
0100
1000
0010
1000
0100
1000
,
0000
0001
0010
0001
0100
0001
0010
0010
,
0000
0011
0000
1001
0000
1000
1000
0000
,
0010
0001
0010
1000
,
0100
0000
0010
0001
0010
0100
0010
0001
,
0000
1000
0100
0010
0100
1000
0100
0100
,
0000
0010
0001
1000
0100
0000
0220
0000
,
0330
0000
0000
0000
;

//---------------dance-single - ----------------
#NOTES:
     dance-single:
     :
     Hard:
     11:
     0.431499,0.466767,0.265803,0.265803,0.084574,375.000000,342.000000,33.000000,33.000000,0.000000,0.000000,0.431499,0.466767,0.265803,0.265803,0.084574,375.000000,342.000000,33.000000,33.000000,0.000000,0.000000:
// measure 0
0000
0000
0000
0000
,  // measure 1
0000
0000
0000
0000
,  // measure 2
0000
0000
0000
0000
,  // measure 3
0000
0000
0000
0000
,  // measure 4
0000
0000
0000
0000
0000
0000
0010
0010
,  // measure 5
0000
1000
0000
0010
0000
0100
0000
0001
,  // measure 6
0000
0100
0000
0010
0000
1000
0000
0001
,  // measure 7
0000
0010
0000
0001
0000
1000
0000
0100
,  // measure 8
0000
1000
0000
0001
0000
0100
0000
0010
,  // measure 9
0000
1010
0000
1000
0000
1100
0000
0010
,  // measure 10
0000
0011
0000
0001
0000
0101
0000
0010
,  // measure 11
1000
0000
0001
0000
0100
0000
0000
0010
0100
0000
0010
0000
0110
0000
0000
0000
,  // measure 12
1001
0000
0000
0000
1000
0000
0010
0000
0100
0000
0001
0000
0020
0000
0000
0031
,  // measure 13
0100
0000
0010
0000
0200
0000
0000
0301
0010
0000
0100
0000
0020
0000
0000
0000
,  // measure 14
0031
0000
0000
0000
0001
0000
0100
0000
0010
0000
1000
0000
0200
0000
0000
1300
,  // measure 15
0010
0000
0100
0000
0020
0000
0000
1030
0100
0000
0010
0000
0200
0000
0000
0000
,  // measure 16
1300
0000
0000
0000
1000
0000
0010
0000
0100
0000
0001
0000
2000
0000
0000
3100
,  // measure 17
0010
0000
0010
0000
0002
0000
0000
0013
0100
0000
0100
0000
1000
0000
0000
0000
,  // measure 18
0001
0000
0100
0000
0220
0330
0010
1000
,  // measure 19
0010
1000
0001
0100
0001
0100
0010
1000
,  // measure 20
0001
0100
0020
0000
0130
0000
1000
0100
,  // measure 21
0010
0001
0100
0000
1100
0000
0001
0010
,  // measure 22
0100
1000
0002
0000
0203
0000
0310
1000
,  // measure 23
0100
0010
0011
0000
1000
0010
0100
0001
,  // measure 24
0010
0100
2000
0000
3020
0000
0130
0001
,  // measure 25
1000
0000
0010
0000
0110
0000
0000
0000
0100
0001
0000
1000
0010
0000
0100
0000
,  // measure 26
0001
1000
1001
0000
0010
0100
0001
0001
,  // measure 27
0010
0010
1000
1000
0100
0010
0110
0000
,  // measure 28
2002
0000
0000
0000
0000
0000
0000
0000
3003
0000
0000
0000
1001
0000
0000
0001
,  // measure 29
0100
1000
0200
0000
0310
0000
0010
0010
,  // measure 30
0010
1000
0100
0001
0100
1000
0100
0010
,  // measure 31
0000
0001
0100
1000
0100
0010
0100
0001
,  // measure 32
0000
0000
0011
0000
0000
0000
1100
0000
0000
0000
0010
0000
0110
0000
0000
1000
,  // measure 33
0010
0001
0020
0000
0130
0000
0100
0100
,  // measure 34
0100
0001
0010
1000
0010
0001
0010
0100
,  // measure 35
0000
1000
0010
0001
0010
0100
0010
1000
,  // measure 36
0100
0010
0001
1000
1001
0000
0002
0000
,  // measure 37
0000
0203
0000
1000
,  // measure 38
0300
0000
0100
0001
0010
0000
2010
0000
,  // measure 39
0000
0000
3200
0000
0000
0000
0001
0300
,  // measure 40
0000
0100
1000
0010
0100
0000
0120
0000
,  // measure 41
0000
2030
0000
0001
,  // measure 42
3000
0000
0220
0330
0010
0010
1000
0100
,  // measure 43
1000
0100
0010
0001
0010
0001
1000
0100
,  // measure 44
0010
0001
2000
0000
3002
0000
1003
0010
,  // measure 45
0001
0010
0100
0001
1000
0010
0001
0010
,  // measure 46
0100
0001
0011
0000
1100
0000
0001
0010
,  // measure 47
1000
0010
0100
1000
0001
0010
1000
0010
,  // measure 48
0100
1000
1010
0000
0101
0000
1000
0010
,  // measure 49
0001
0000
0100
0000
1001
0000
0000
0000
1000
0100
0000
0010
0001
0000
0100
0000
,  // measure 50
0010
0100
0110
0000
0001
1000
0010
0010
,  // measure 51
0001
0001
0100
0100
1000
0001
1001
0000
,  // measure 52
0220
0000
0000
0000
0000
0000
0000
0000
0330
0000
0000
0000
1010
0000
0000
1000
,  // measure 53
0100
0000
0000
0100
0010
0000
0000
0010
0001
0000
0000
0001
0100
0000
0100
0000
,  // measure 54
0010
0010
1000
0100
0001
0100
0010
0001
,  // measure 55
0000
1000
0100
0001
0100
0010
0001
1000
,  // measure 56
0000
0000
1010
0000
0000
0000
0101
0000
0000
0000
0010
0000
0011
0000
0000
0001
,  // measure 57
0100
0000
0000
0100
0010
0000
0000
0010
1000
0000
0000
1000
0100
0000
0100
0000
,  // measure 58
0010
0010
0001
1000
0100
0001
0100
0010
,  // measure 59
0000
0100
1000
0001
0010
1000
0010
0100
,  // measure 60
0000
1000
0010
0001
0100
1000
0020
0200
,  // measure 61
0330
0000
0000
0000
;

//---------------dance-double - ----------------
#NOTES:
     dance-double:
     :
     Hard:
     11:
     0.429197,0.442200,0.265803,0.233585,0.068464,373.000000,340.000000,33.000000,29.000000,0.000000,0.000000,0.429197,0.442200,0.265803,0.233585,0.068464,373.000000,340.000000,33.000000,29.000000,0.000000,0.000000:
00000000
00000000
00000000
00000000
,
00000000
00000000
00000000
00000000
,
00000000
00000000
00000000
00000000
,
00000000
00000000
00000000
00000000
,
00000000
00000000
00000000
00000000
00000000
00000000
10000000
10000000
,
00000000
01000000
00000000
10000000
00000000
00010000
00000000
01000000
,
00000000
00010000
00000000
00100000
00000000
01000000
00000000
00010000
,
00000000
00000100
00000000
00001000
00000000
00000100
00000000
00000010
,
00000000
00000001
00000000
00000010
00000000
00000100
00000000
00001000
,
00000000
00001010
00000000
00000010
00000000
00010010
00000000
00100000
,
00000000
00101000
00000000
00001000
00000000
00011000
00000000
00010000
,
01000000
00000000
10000000
00000000
00100000
00000000
00000000
01000000
00100000
00000000
01000000
00000000
01100000
00000000
00000000
00000000
,
10010000
00000000
00000000
00000000
00010000
00000000
00100000
00000000
01000000
00000000
00010000
00000000
00011000
00000000
00000000
00001000
,
00010000
00000000
00001000
00000000
01000000
00000000
00000000
00001000
00010000
00000000
00001000
00000000
00100000
00000000
00000000
00000000
,
00110000
00000000
00000000
00000000
00010000
00000000
01000000
00000000
00001000
00000000
00010000
00000000
00010100
00000000
00000000
00000100
,
00001000
00000000
00000100
00000000
00000010
00000000
00000000
00000100
00001000
00000000
00000100
00000000
00010000
00000000
00000000
00000000
,
00010010
00000000
00000000
00000000
00000010
00000000
00001000
00000000
00000100
00000000
00000010
00000000
00000011
00000000
00000000
00000001
,
00000100
00000000
00000001
00000000
00001000
00000000
00000000
00000001
00000100
00000000
00000001
00000000
00000010
00000000
00000000
00000000
,
00001000
00000000
00010000
00000000
00022000
00033000
00001000
00100000
,
00001000
00100000
00010000
01000000
00010000
01000000
00001000
00100000
,
00010000
01000000
00002000
00000000
00013000
00000000
00010000
00001000
,
00000100
00000010
00000100
00000000
00001001
00000000
00001000
00000100
,
00000010
00000001
00000020
00000000
00000230
00000000
00000310
00001000
,
00010000
01000000
10000000
00000000
00100000
01000000
00100000
10000000
,
01000000
00010000
00002000
00000000
00023000
00000000
00031000
00000100
,
00000001
00000000
00000010
00000000
00000110
00000000
00000000
00000000
00000100
00000010
00000100
00000000
00000010
00000000
00000001
00000000
,
00000100
00001000
00011000
00000000
00010000
00100000
10000000
01000000
,
00100000
01000000
00010000
00001000
00010000
00000100
00000110
00000000
,
00002002
00000000
00003003
00001001
,
00000001
00000100
00002000
00000000
01003000
00000000
01000000
00010000
,
00100000
01000000
00010000
00001000
00010000
01000000
10000000
00100000
,
00000000
00010000
00100000
10000000
01000000
00100000
01000000
00010000
,
00000000
00010010
00000000
00101000
00000000
00010000
10010000
00000000
,
10000000
01000000
00020000
00000000
00030100
00000000
00000100
00001000
,
00000010
00000100
00001000
00010000
00001000
00000100
00000001
00000010
,
00000000
00001000
00000010
00000001
00000100
00000010
00001000
00000100
,
00000010
00001000
00010000
01000000
10000000
00000000
10020000
00000000
,
00000000
00230000
00000000
00302000
,
00000000
00000000
00013000
00000100
00001000
00000000
00001002
00000000
,
00000000
00000203
00000000
00000320
,
00000000
00010030
00001000
00100000
00010000
00000000
20010000
00000000
,
00000000
32000000
00000000
03020000
,
00000000
00000000
00002000
00033000
00001000
00010000
00000100
00001000
,
00000100
00001000
00000010
00010000
00000010
00010000
00000100
00001000
,
00000010
00010000
00002000
00000000
00023000
00000000
00031000
00100000
,
00010000
00100000
01000000
10000000
00010000
00100000
00001000
00010000
,
00100000
01000000
00002000
00000000
00013000
00000000
00010000
00000010
,
00001000
00000010
00000100
00000001
00001000
00000010
00010000
00001000
,
00000010
00000100
00020000
00000000
00031000
00000000
00001000
00100000
,
00010000
00000000
10000000
00000000
10010000
00000000
00000000
00000000
00100000
01000000
00100000
00000000
00010000
00000000
00001000
00000000
,
00000100
00000001
00001001
00000000
00001000
00000010
00010000
00001000
,
00000100
00000001
00000010
00001000
00010000
00100000
01100000
00000000
,
20020000
00000000
00000000
00000000
00000000
00000000
00000000
00000000
30030000
00000000
00000000
00000000
11000000
00000000
00000000
01000000
,
00100000
00000000
00000000
00100000
00001000
00000000
00000000
00001000
00010000
00000000
00000000
00010000
00000010
00000000
00000100
00000000
,
00001000
00000100
00000001
00000010
00001000
00010000
00000100
00000010
,
00000000
00000001
00000100
00001000
00010000
00000100
00000010
00001000
,
00000000
00000000
00101000
00000000
00000000
00000000
00010010
00000000
00000000
00000000
00000001
00000000
00000101
00000000
00000000
00000100
,
00000010
00000000
00000000
00000010
00010000
00000000
00000000
00010000
00001000
00000000
00000000
00001000
00100000
00000000
01000000
00000000
,
00010000
01000000
10000000
00100000
00010000
00001000
00000100
00000001
,
00000000
00000010
00000100
00010000
00001000
00100000
01000000
00010000
,
00000000
10000000
00100000
00001000
00010000
00000100
00000010
00002002
,
00003003
00000000
00000000
00000000
;

//---------------dance-double - ----------------
#NOTES:
     dance-double:
     :
     Easy:
     4:
     0.136929,0.196533,0.048328,0.056382,0.000000,119.000000,113.000000,6.000000,7.000000,0.000000,0.000000,0.136929,0.196533,0.048328,0.056382,0.000000,119.000000,113.000000,6.000000,7.000000,0.000000,0.000000:
00000000
00000000
00000000
00000000
,
00000000
00000000
00000000
00000000
,
00000000
00000000
00000000
00000000
,
00000000
00000000
00000000
00000000
,
00000000
00000000
00000000
00001000
,
00000000
00001000
00000000
01000000
,
00000000
01000000
00000000
00001000
,
00000000
01000000
00000000
00001000
,
00000000
00010000
00000000
00000010
,
00000000
00000010
00000000
00010000
,
00000000
00010000
00000000
00000010
,
00000000
00010000
00000000
00011000
,
00000000
00000000
00100000
00100000
,
00000000
00010000
00000000
01000000
,
00000000
00001000
00001000
00001000
,
00000000
00010000
00000000
00000100
,
00000000
00001000
00001000
00001000
,
00000000
00000010
00000000
00000110
,
00000000
00000000
00001000
00000002
,
00000000
00000000
00000000
00000000
,
00000000
00000003
00000000
00000001
,
00000000
00000100
00000000
00001000
,
00000000
00010000
00000000
00100000
,
00000000
10000000
00000000
01000000
,
00000000
00010000
00000000
00001000
,
00010000
00001000
00000000
00010000
,
00001000
00010000
00000000
00000100
,
00000100
00000010
00000010
00000001
,
00000000
00000000
00000000
00000001
,
00000000
00001000
00000000
00000010
,
00000000
00010000
00000000
00001000
,
00000000
00100000
00000000
00010000
,
00000000
10000000
00000000
00100000
,
00000000
00010000
00000000
00001000
,
00000000
00000100
00000000
00000001
,
00000000
00000010
00000000
00001000
,
00000000
00010000
00001000
00020000
,
00000000
00030000
00000000
00011000
,
00000000
00000000
00000000
00002000
,
00000000
00003000
00000000
00011000
,
00000000
00000000
00000000
00020000
,
00000000
00030000
00000000
00011000
,
00000000
00000000
00001000
00200000
,
00000000
00000000
00000000
00000000
,
00000000
00300000
00000000
00100000
,
00000000
01000000
00000000
10000000
,
00000000
00100000
00000000
00010000
,
00000000
00001000
00000000
00000100
,
00000000
00000001
00000000
00000010
,
00000100
00000010
00000000
00000100
,
00000010
00000100
00000000
00010000
,
00010000
00001000
00001000
01000000
,
00000000
00000000
00000000
00100000
,
00000000
10000000
00000000
01000000
,
00000000
00010000
00000000
00001000
,
00000000
00000010
00000000
00000001
,
00000000
00000100
00000010
00000100
,
00000000
00000001
00000000
00000010
,
00000000
00001000
00000000
00010000
,
00000000
01000000
00000000
10000000
,
00000000
00100000
01000000
02200000
,
03300000
00000000
00000000
00000000
;

//---------------dance-double - ----------------
#NOTES:
     dance-double:
     :
     Medium:
     8:
     0.291118,0.343933,0.185257,0.257749,0.000000,253.000000,230.000000,23.000000,32.000000,0.000000,0.000000,0.291118,0.343933,0.185257,0.257749,0.000000,253.000000,230.000000,23.000000,32.000000,0.000000,0.000000:
00000000
00000000
00000000
00000000
,
00000000
00000000
00000000
00000000
,
00000000
00000000
00000000
00000000
,
00000000
00000000
00000000
00000000
,
00000000
00000000
00000000
00000000
00000000
00000000
00000000
00000001
,
00000000
00000001
00000000
00000100
00000000
00000100
00000000
00000010
,
00000000
00000010
00000000
00001000
00000000
00001000
00000000
00000100
,
00000000
00000100
00000000
00010000
00000000
00010000
00000000
00001000
,
00000000
00001000
00000000
00100000
00000000
00110000
00000000
10000000
,
00000000
10000000
00000000
01000000
00000000
01000000
00000000
00010000
,
00000000
00010000
00000000
00001000
00000000
00001000
00000000
00000010
,
00000001
00000010
00000001
00000000
00000100
00001000
00020000
00000000
,
00031000
00000000
00000000
00001000
00100000
00001000
00100000
00000000
,
00010000
01000000
00100000
20200000
,
30300000
00000000
10000000
01000000
00010000
00000000
00001000
00000000
,
00000100
00000001
00001000
00002020
,
00003030
00000000
00000010
00000100
00000001
00000000
00000010
00000000
,
00001000
00010000
01000000
10000000
,
00100000
00010000
00001000
00022000
,
00000000
00000000
00000000
00000000
,
00000000
00000000
00033000
00000000
00000000
00010000
00010000
00000000
,
00000100
00001100
00001000
00000010
,
00000100
00000001
00000010
00000000
00000011
00000000
00000001
00000000
,
00000100
00000010
00010000
00000000
00001000
00000000
00100000
00000000
,
00010000
01000000
00100000
00000000
10100000
00000000
10000000
01000000
,
00100000
00000000
00202000
00000000
00303000
00000000
00001000
00010000
,
00000100
00000000
00002200
00000000
00003300
00000000
00001000
00000001
,
00000010
00000000
00000001
00001000
00000100
00020000
00002000
00000000
,
00000000
00000000
00033000
00010000
,
00001000
00100000
01000000
10000000
,
00100000
00000000
00010000
00001000
00100000
00000000
00010000
00000000
,
01000000
00000000
00001000
00010000
00001000
00010000
00000010
00000010
,
00000000
00001010
00000000
00000101
00000000
00000001
00000010
00000000
,
00001000
00010000
01000000
10000000
,
00100000
00000000
01000000
00010000
00100000
00000000
01000000
00000000
,
00010000
00000000
00001000
00010000
00001000
00010000
00000100
00000100
,
00001000
00000001
00000100
00000120
,
00000000
00020030
00000000
00032000
,
00000000
00000000
00013000
00001000
00100000
00000000
00120000
00000000
,
00000000
02030000
00000000
03200000
,
00000000
00000000
10300000
01000000
00100000
00000000
00120000
00000000
,
00000000
02030000
00000000
03002000
,
00000000
00000000
00003000
00000000
00010000
00001000
00022000
00000000
,
00000000
00000000
00000000
00000000
,
00000000
00000000
00033000
00000000
00000000
00001000
00001000
00000000
,
01000000
01010000
00010000
00100000
,
01000000
10000000
00100000
00000000
10100000
00000000
10000000
00000000
,
01000000
00100000
00001000
00000000
00010000
00000000
00000010
00000000
,
00001000
00000100
00000010
00000000
00000011
00000000
00000001
00000100
,
00000010
00000000
00020020
00000000
00030030
00000000
00010000
00001000
,
01000000
00000000
02020000
00000000
03030000
00000000
00010000
10000000
,
00100000
00000000
10000000
00010000
01000000
00002000
00020000
00000000
,
00000000
00000000
00033000
00010000
,
00001000
00000100
00000001
00000010
,
00000100
00000000
00001000
00000010
00000100
00000000
00001000
00000000
,
00010000
00000000
00100000
10000000
01000000
00000000
00100000
00100000
,
00000000
00110000
00000000
10010000
00000000
10000000
10000000
00000000
,
01000000
00010000
00001000
00100000
,
01000000
00000000
00010000
00001000
00000100
00000000
00000001
00000000
,
00001000
00000000
00000100
00000010
00000100
00000010
00000001
00000001
,
00000100
00001000
00010000
00022000
,
00033000
00000000
00000000
00000000
;
