#VERSION:0.83;
#TITLE:Discord;
#SUBTITLE:;
#ARTIST:QWER;
#TITLETRANSLIT:;
#SUBTITLETRANSLIT:;
#ARTISTTRANSLIT:;
#GENRE:K-POP;
#ORIGIN:;
#CREDIT:MUINELIM;
#BANNER:Discord.png;
#BACKGROUND:Discord-bg.png;
#PREVIEWVID:;
#JACKET:Discord-jacket.png;
#CDIMAGE:;
#DISCIMAGE:;
#LYRICSPATH:;
#CDTITLE:;
#MUSIC:Discord.ogg;
#OFFSET:-0.070000;
#SAMPLESTART:45.025993;
#SAMPLELENGTH:15.000000;
#SELECTABLE:YES;
#DISPLAYBPM:132.000000;
#BPMS:0.000=132.000;
#STOPS:;
#DELAYS:;
#WARPS:;
#TIMESIGNATURES:0.000=4=4;
#TICKCOUNTS:0.000=4;
#COMBOS:0.000=1;
#SPEEDS:0.000=1.000=0.000=0;
#SCROLLS:0.000=1.000;
#FAKES:;
#LABELS:0.000=Song Start;
#BGCHANGES:-10000.000=black.mpg=1.000=1=0=1===CrossFade==,
-0.200=Discord.mpg=1.000=0=0=0=StretchNoLoop====,
99999=-nosongbg-=1.000=0=0=0 // don't automatically add -songbackground-
;
#KEYSOUNDS:;
#ATTACKS:
;

//---------------dance-single - ----------------
#NOTEDATA:;
#CHARTNAME:;
#STEPSTYPE:dance-single;
#DESCRIPTION:;
#CHARTSTYLE:;
#DIFFICULTY:Beginner;
#METER:3;
#RADARVALUES:0.120079,0.187868,0.027409,0.027409,0.000000,92.000000,89.000000,3.000000,3.000000,0.000000,0.000000,0.000000,0.000000,0.000000,0.120079,0.187868,0.027409,0.027409,0.000000,92.000000,89.000000,3.000000,3.000000,0.000000,0.000000,0.000000,0.000000,0.000000;
#CREDIT:;
#DISPLAYBPM:132.000000;
#NOTES:
0000
0000
0000
0000
,
0000
0000
0000
0000
,
0000
0000
0000
0000
,
0000
0000
0000
0000
,
0000
0000
0000
0000
,
1000
0000
1000
0000
,
1000
0000
1000
0000
,
0001
0000
0001
0000
,
0001
0000
0001
0000
,
0100
0000
0000
0000
,
0010
0000
0000
0000
,
0100
0000
0000
0000
,
0010
0000
0000
0000
,
1000
0000
1000
0000
,
0001
0000
0001
0000
,
1000
0000
0001
0000
,
2000
0000
3000
0000
,
0001
0000
0000
0000
,
0100
0000
0000
0000
,
0010
0000
0000
0000
,
1000
0000
0000
0000
,
0001
0000
0000
0000
,
0100
0000
0000
0000
,
0010
0000
0000
0000
,
1000
1000
0000
0000
,
0001
0000
0010
0000
,
0001
0000
0010
0000
,
0001
0000
0100
0000
,
0010
0000
0010
0000
,
1000
0000
0100
0000
,
1000
0000
0100
0000
,
1000
0000
0010
0000
,
0100
0100
0100
0000
,
1001
0000
0000
0000
,
0000
0000
0000
0000
,
1001
0000
0000
0000
,
0000
0000
0000
0000
,
0001
0000
1000
0000
,
0010
0000
0100
0000
,
0001
0000
1000
0000
,
0010
0010
0020
0000
,
0030
0000
0000
0000
,
0000
0000
0000
0000
,
1001
0000
0000
0000
,
0000
0000
1000
0001
,
1000
0000
0100
0000
,
0010
0000
0001
0000
,
1000
0000
0100
0000
,
0010
0000
0001
0000
,
0100
0000
0010
0000
,
0100
0100
0100
0000
,
0001
0000
1000
0000
,
0001
0000
1000
0000
,
0100
0000
0010
0000
,
0100
0000
0100
0000
,
1000
0000
0001
0000
,
1000
0000
0001
0000
,
0010
0000
0100
0000
,
0010
0010
0020
0030
;

//---------------dance-single - ----------------
#NOTEDATA:;
#CHARTNAME:;
#STEPSTYPE:dance-single;
#DESCRIPTION:;
#CHARTSTYLE:;
#DIFFICULTY:Easy;
#METER:5;
#RADARVALUES:0.189255,0.268382,0.063955,0.073091,0.000000,145.000000,138.000000,7.000000,8.000000,0.000000,0.000000,0.000000,0.000000,0.000000,0.189255,0.268382,0.063955,0.073091,0.000000,145.000000,138.000000,7.000000,8.000000,0.000000,0.000000,0.000000,0.000000,0.000000;
#CREDIT:;
#DISPLAYBPM:132.000000;
#NOTES:
0000
0000
0000
0000
,
0000
0000
0000
0000
,
0000
0000
0000
0000
,
0000
0000
0000
0000
,
0000
0000
0000
0000
,
1000
0001
1000
0000
,
0001
1000
0001
0000
,
1000
0001
1000
0000
,
0001
1000
0001
1001
,
1000
0000
0010
0000
,
1000
0000
0010
0000
,
0100
0000
0001
0000
,
0100
0000
0001
0000
,
1000
0001
1000
0000
,
0010
0100
0010
0000
,
1000
0001
1000
0010
,
0100
0010
0020
0030
,
1000
0000
0001
0000
,
1000
0000
0010
0000
,
1000
0000
1000
0000
,
0001
0000
0001
0000
,
0100
0000
0001
0000
,
1000
0000
0010
0000
,
0100
0000
0010
0000
,
0100
0200
0300
0000
,
0001
0010
0100
0000
,
0001
0010
0100
0000
,
1000
0010
0100
0000
,
1000
0010
0100
0000
,
0001
0100
0010
0000
,
0001
0100
0010
0000
,
1000
0100
0010
0001
,
2002
0000
3003
0000
,
1000
0000
0000
0000
,
1000
0000
0000
0000
,
0001
0000
0000
0000
,
0001
0000
0000
0000
,
1000
0000
1000
0000
,
0001
0000
0001
0000
,
1000
0000
0001
0000
,
1000
0001
1000
2002
,
3003
0000
0000
0000
,
0000
0000
0000
0000
,
1001
0000
0000
0000
,
0000
0000
0000
0000
0001
0001
0001
0000
,
0100
0001
0010
0001
,
0100
0010
0200
0300
,
0010
1000
0100
1000
,
0010
0100
0020
0030
,
1000
0100
0010
0001
,
1000
0001
1001
0000
,
1000
0010
0100
0000
,
1000
0010
0100
0000
,
0001
0010
0100
0000
,
0001
0010
0100
0000
,
1000
0100
0010
0000
,
1000
0100
0010
0000
,
0001
0100
0010
1000
,
0001
0001
1001
1001
;

//---------------dance-double - ----------------
#NOTEDATA:;
#CHARTNAME:;
#STEPSTYPE:dance-double;
#DESCRIPTION:;
#CHARTSTYLE:;
#DIFFICULTY:Easy;
#METER:5;
#RADARVALUES:0.178813,0.241544,0.073091,0.073091,0.000000,137.000000,129.000000,8.000000,8.000000,0.000000,0.000000,0.000000,0.000000,0.000000,0.178813,0.241544,0.073091,0.073091,0.000000,137.000000,129.000000,8.000000,8.000000,0.000000,0.000000,0.000000,0.000000,0.000000;
#CREDIT:;
#DISPLAYBPM:132.000000;
#NOTES:
00000000
00000000
00000000
00000000
,
00000000
00000000
00000000
00000000
,
00000000
00000000
00000000
00000000
,
00000000
00000000
00000000
00000000
,
00000000
00000000
00000000
00000000
,
00001000
00010000
00001000
00000000
,
00010000
00001000
00010000
00000000
,
00001000
00010000
00001000
00000000
,
00010000
00001000
00010000
00011000
,
00001000
00000000
00000010
00000000
,
00000001
00000000
00000010
00000000
,
00001000
00000000
00010000
00000000
,
00001000
00000000
00000010
00000000
,
00001000
00000000
00010000
00000000
,
00100000
00000000
00010000
00000000
,
00001000
00000000
00010000
00000000
,
00100000
00100000
00200000
00300000
,
10000000
00000000
01000000
00000000
,
00100000
00000000
00010000
00000000
,
01000000
00000000
00001000
00000000
,
00010000
00000000
00000010
00000000
,
00001000
00000000
00000100
00000000
,
00000010
00000000
00000001
00000000
,
00000100
00000000
00001000
00000000
,
00011000
00022000
00033000
00000000
,
00010000
00001000
00000100
00000000
,
00000001
00000010
00001000
00000000
,
00010000
00001000
00000010
00000000
,
00000001
00000100
00001000
00000000
,
00010000
00001000
00000100
00000000
,
00000001
00000010
00001000
00000000
,
00010000
00001000
00010000
00001000
,
00022000
00000000
00033000
00000000
,
00010000
00000000
00000000
00000000
,
01000000
00000000
00000000
00000000
,
10000000
00000000
00000000
00000000
,
00100000
00000000
00000000
00000000
,
00010000
00000000
00001000
00000000
,
00000100
00000000
00000001
00000000
,
00000010
00000000
00001000
00000000
,
00010000
00001000
00010000
00022000
,
00033000
00000000
00000000
00000000
,
00000000
00000000
00000000
00000000
,
00011000
00000000
00000000
00000000
,
00000000
00000000
02000000
03000000
,
00010000
00100000
01000000
00000000
,
10000000
00100000
00010000
00000000
,
00001000
00100000
01000000
00000000
,
10000000
00100000
00010000
00000000
,
00001000
00010000
00001000
00010000
,
00000100
00001000
00001001
00000000
,
00000001
00000100
00001000
00000000
,
00010000
00001000
00000100
00000000
,
00000001
00000010
00001000
00000000
,
00010000
00001000
00000010
00000000
,
00001000
00010000
00100000
00000000
,
10000000
01000000
00010000
00000000
,
00001000
00010000
01000000
00000000
,
10000000
00100000
00010000
00011000
;

//---------------dance-single - ----------------
#NOTEDATA:;
#CHARTNAME:;
#STEPSTYPE:dance-single;
#DESCRIPTION:;
#CHARTSTYLE:;
#DIFFICULTY:Medium;
#METER:7;
#RADARVALUES:0.301502,0.348897,0.118774,0.155319,0.013705,231.000000,218.000000,13.000000,17.000000,0.000000,0.000000,0.000000,0.000000,0.000000,0.301502,0.348897,0.118774,0.155319,0.013705,231.000000,218.000000,13.000000,17.000000,0.000000,0.000000,0.000000,0.000000,0.000000;
#CREDIT:;
#DISPLAYBPM:132.000000;
#NOTES:
0000
0000
0000
0000
,
0000
0000
0000
0000
,
0000
0000
0000
0000
,
0000
0000
0000
0000
,
0000
0000
0000
0000
,
1000
0001
1000
1000
,
0001
1000
0001
0001
,
0100
0010
0100
0100
,
0010
0000
0100
0000
0010
0100
0010
0000
,
1000
0001
0100
0000
,
0001
1000
0010
0000
,
1000
0001
0100
0010
,
1000
0001
1000
0000
0002
0000
2003
0000
,
3001
0000
0100
0010
0100
0000
0001
0000
,
1000
0000
0010
0100
0010
0000
1000
0000
,
0001
0010
0100
1000
,
0010
0000
0000
0010
0000
0000
0020
0000
0000
0000
0000
0000
0030
0000
0000
0000
,
0100
0001
0101
0000
,
0001
1000
1001
0000
,
1000
0010
1010
0000
,
0010
0100
0110
0000
,
0100
0002
0013
0000
,
0001
2000
3100
0000
,
1000
0020
0130
0000
,
0010
0100
0020
0000
0030
0000
0000
0000
,
1000
0000
0001
0010
0001
0000
1000
0000
,
0001
0000
0100
0010
0100
0000
0001
0000
,
2000
3100
0002
0103
,
1000
0100
0010
0000
0011
0000
0000
0001
,
0001
0000
1000
0010
1000
0000
0100
0000
,
0010
0000
0001
1000
0001
0000
0010
0000
,
0100
1100
0010
0011
,
0001
1000
0001
1000
0200
0000
0300
0000
,
1000
0010
1000
0010
,
0100
0001
0100
0001
,
0010
0001
0010
0001
,
1000
0100
1000
0100
,
1000
0010
1000
0000
0010
0100
0010
0000
,
0100
0001
0100
0000
0002
0000
1003
0000
,
1000
0001
0100
0010
,
1010
0000
0000
0000
0101
0000
0000
0000
0200
0000
0000
0010
0000
0310
0000
0000
,
0000
0000
0000
0000
,
0000
0000
0000
0000
,
2002
0000
0000
0000
,
0000
0000
3003
0000
0001
1000
0010
0100
,
0001
0000
1000
0100
1000
0000
0010
0000
,
0100
0000
0010
1000
0010
0000
1000
0000
,
0100
0000
0010
0001
0010
0000
0001
0000
,
0100
0010
1000
0001
0100
0000
0010
0000
,
1010
0100
0101
0010
,
1000
0001
1000
0001
0200
0000
0300
0000
,
0001
0100
0010
0100
,
0001
0000
0100
0000
0010
0100
0010
0000
,
1000
0100
0010
0100
,
2000
3100
0020
0031
,
0001
0100
0010
1000
,
0001
0000
0010
0000
0100
0000
1000
0001
,
1000
0010
0100
0001
,
1000
0100
0010
0001
1000
0000
1001
0000
;

//---------------dance-double - ----------------
#NOTEDATA:;
#CHARTNAME:;
#STEPSTYPE:dance-double;
#DESCRIPTION:;
#CHARTSTYLE:;
#DIFFICULTY:Medium;
#METER:7;
#RADARVALUES:0.285840,0.348897,0.082228,0.127910,0.013705,219.000000,210.000000,9.000000,14.000000,0.000000,0.000000,0.000000,0.000000,0.000000,0.285840,0.348897,0.082228,0.127910,0.013705,219.000000,210.000000,9.000000,14.000000,0.000000,0.000000,0.000000,0.000000,0.000000;
#CREDIT:;
#DISPLAYBPM:132.000000;
#NOTES:
00000000
00000000
00000000
00000000
,
00000000
00000000
00000000
00000000
,
00000000
00000000
00000000
00000000
,
00000000
00000000
00000000
00000000
,
00000000
00000000
00000000
00000000
,
01000000
00001000
00010000
00010000
,
00000010
00010000
00001000
00001000
,
00100000
00001000
00010000
00010000
,
00000100
00000000
00010000
00000000
00001000
00010000
00001000
00000000
,
00010000
01000000
10000000
00000000
,
10000000
00100000
00010000
00000000
,
00001000
00000100
00000001
00000010
,
00000100
00000010
00000100
00000000
00002000
00000000
00003002
00000000
,
00000103
00000000
00000100
00001000
00010000
00000000
00100000
00000000
,
10000000
00000000
01000000
00100000
00010000
00000000
00010000
00000000
,
01000000
00001000
00010000
00000100
,
00000010
00000000
00000000
00000010
00000000
00000000
00000020
00000000
00000000
00000000
00000000
00000000
00000030
00000000
00000000
00000000
,
00000001
00000100
00001000
00000000
,
00010000
00100000
10000000
00000000
,
10000000
01000000
00010000
00000000
,
00001000
00000010
00000001
00000000
,
00001000
00000010
00010000
00000000
,
00001000
01000000
00010000
00000000
,
00100000
01000000
10000000
00000000
,
00100000
01000000
00200000
00000000
00300000
00000000
00000000
00000000
,
10000000
01000000
00010000
00001000
,
00100000
00000000
01000000
00010000
00001000
00000000
00010000
00000000
,
00000200
00001300
00020000
00031000
,
00001000
00000100
00000001
00000000
00001001
00000000
00000000
00001000
,
00001000
00000010
00000100
00010000
,
00001000
00000000
00000100
00000001
00000010
00000000
00001000
00000000
,
00010000
00011000
00001000
00011000
,
00010000
00001000
00100000
00010000
02000000
00000000
03000000
00000000
,
00100000
10000000
01000000
00000000
,
01000000
00010000
00001000
00000000
,
00010000
00001000
00000010
00000000
,
00000010
00000001
00000100
00000000
,
00000100
00001000
00010000
00000000
00001000
00010000
00100000
00000000
,
00010000
00100000
10000000
00000000
02000000
00000000
03100000
00000000
,
00100000
00001000
00010000
00000010
,
00001010
00000000
00000000
00000000
00000101
00000000
00000000
00000000
00000002
00000000
00000000
00001000
00000000
00001003
00000000
00000000
,
00000000
00000000
00000000
00000000
,
00000000
00000000
00000000
00000000
,
00022000
00000000
00000000
00000000
,
00000000
00000000
00033000
00000000
00010000
00001000
00000100
00000010
,
00000100
00000001
00000010
00001000
,
00010000
00000000
01000000
10000000
00100000
00000000
01000000
00000000
,
00001000
00010000
00100000
10000000
,
01000000
00100000
01000000
00010000
00001000
00000000
00000010
00000000
,
00000011
00000100
00001100
00001000
,
00000010
00010000
00001000
00100000
02000000
00000000
03000000
00000000
,
10000000
00100000
00010000
00001000
,
00010000
00000000
00100000
00000000
10000000
01000000
00100000
00000000
,
01000000
00010000
00001000
00010000
,
02000000
13000000
00200000
00310000
,
00010000
01000000
00001000
00010000
,
00000100
00000000
00000010
00000000
00000001
00000000
00000100
00001000
,
00010000
00100000
10000000
01000000
,
00010000
00001000
00010000
00001000
00010000
00000000
00011000
00000000
;

//---------------dance-single - ----------------
#NOTEDATA:;
#CHARTNAME:;
#STEPSTYPE:dance-single;
#DESCRIPTION:;
#CHARTSTYLE:;
#DIFFICULTY:Hard;
#METER:11;
#RADARVALUES:0.417665,0.509927,0.228411,0.155319,0.091364,320.000000,295.000000,25.000000,17.000000,0.000000,0.000000,0.000000,0.000000,0.000000,0.417665,0.509927,0.228411,0.155319,0.091364,320.000000,295.000000,25.000000,17.000000,0.000000,0.000000,0.000000,0.000000,0.000000;
#CREDIT:;
#DISPLAYBPM:132.000000;
#NOTES:
// measure 0
0000
0000
0000
0000
,  // measure 1
0000
0000
0000
0000
,  // measure 2
0000
0000
0000
0000
,  // measure 3
0000
0000
0000
0000
,  // measure 4
1000
0000
0000
0010
0000
0000
0100
0000
0000
0001
0000
0000
1001
0000
0000
0000
,  // measure 5
1000
0000
0010
0000
0100
0001
0100
0000
,  // measure 6
0001
0000
0010
0000
0100
1000
0100
0000
,  // measure 7
1000
0000
0100
0000
0010
0001
0010
0000
,  // measure 8
0001
0100
0010
1000
0010
0010
0010
0000
,  // measure 9
0100
0001
0100
0001
,  // measure 10
0100
1000
0100
1000
,  // measure 11
0100
0001
0100
1000
,  // measure 12
0100
0000
0001
0000
0010
0100
0010
0100
,  // measure 13
1000
1010
0001
0011
,  // measure 14
1000
1100
0001
0101
,  // measure 15
1000
1001
0010
0110
,  // measure 16
1000
0000
0000
0010
0000
0000
0200
0000
0000
0000
0000
0000
0301
0000
0000
0000
,  // measure 17
0001
0010
0100
1000
0200
0000
0300
0000
,  // measure 18
1000
0010
0100
0001
0200
0000
0300
0000
,  // measure 19
0010
1000
0010
0100
0002
0000
0003
0000
,  // measure 20
0010
0001
0010
0100
2000
0000
3000
0000
,  // measure 21
0001
0100
1000
0100
0002
0000
0003
0000
,  // measure 22
1000
0010
0001
0010
2000
0000
3000
0000
,  // measure 23
0001
0100
1000
0100
0001
0010
0100
2000
,  // measure 24
0000
0001
3001
0000
1001
0000
0000
0000
,  // measure 25
0110
0000
0010
1000
0010
0100
0001
0100
,  // measure 26
0010
1000
0100
0010
0001
0000
1000
0001
,  // measure 27
1000
0010
0100
0001
0010
0100
1000
0010
,  // measure 28
0100
0001
1000
0100
0020
0000
0031
0000
,  // measure 29
1100
0000
1000
0010
0100
0001
0100
0010
,  // measure 30
1000
0100
0001
0100
1000
0000
1001
0000
,  // measure 31
0101
1100
1010
0011
,  // measure 32
0002
0000
0000
1000
0000
1000
0000
1003
0000
0000
0000
0000
0000
0000
0000
0000
,  // measure 33
1001
0000
1000
0020
0030
0000
0010
0100
,  // measure 34
0002
0003
0000
0001
0010
0100
1000
0010
,  // measure 35
0200
0000
0310
2000
3000
0000
1000
0100
,  // measure 36
0020
0000
0000
0030
0000
0010
0001
0100
,  // measure 37
0010
0000
0000
0010
1000
0000
0000
0000
1000
0000
0000
1000
0100
0000
0000
0000
,  // measure 38
0100
0000
0000
0100
0001
0000
0000
0000
0001
0000
0000
0001
0010
0000
0001
0000
,  // measure 39
0100
1000
0010
0001
,  // measure 40
0101
0000
0000
0000
1010
0000
0000
0000
0020
0000
0000
0100
0000
0130
0000
0000
,  // measure 41
0000
0000
0000
0000
,  // measure 42
0000
0000
0000
0000
,  // measure 43
1001
0000
0000
0000
,  // measure 44
0000
0000
0000
0000
0000
0000
0000
0000
1000
0010
1000
0000
0001
0100
0001
0000
,  // measure 45
0010
0100
1000
0010
0100
0001
0010
0100
,  // measure 46
1000
0010
0001
0010
1000
0100
0001
0100
,  // measure 47
1000
0000
0001
0100
1000
0100
0001
0010
,  // measure 48
1000
0010
0001
0100
0010
1000
0100
0010
,  // measure 49
0011
0101
1100
1010
,  // measure 50
0020
0000
0000
0100
0000
0100
0000
0130
0000
0000
0000
0000
1000
0000
1000
0000
,  // measure 51
0001
0010
0100
0000
0001
0010
0100
0000
,  // measure 52
0001
0100
0010
0001
0010
0100
0001
0000
,  // measure 53
1000
0010
0100
0000
1000
0010
0100
0000
,  // measure 54
1000
0100
0010
1000
0010
0100
1000
0000
,  // measure 55
0001
0100
1000
0000
0001
0010
1000
0000
,  // measure 56
0001
0100
1000
0001
0010
0100
0010
0000
,  // measure 57
1000
0100
0001
1000
0010
0001
0100
0010
,  // measure 58
0100
0001
0000
1000
0000
0010
0000
0000
0110
0000
0100
0000
1001
0000
0000
0000
;

//---------------dance-single - ----------------
#NOTEDATA:;
#CHARTNAME:;
#STEPSTYPE:dance-single;
#DESCRIPTION:;
#CHARTSTYLE:;
#DIFFICULTY:Challenge;
#METER:13;
#RADARVALUES:0.520776,0.617280,0.255820,0.356321,0.625845,399.000000,371.000000,28.000000,39.000000,0.000000,0.000000,0.000000,0.000000,0.000000,0.520776,0.617280,0.255820,0.356321,0.625845,399.000000,371.000000,28.000000,39.000000,0.000000,0.000000,0.000000,0.000000,0.000000;
#CREDIT:;
#DISPLAYBPM:132.000000;
#NOTES:
// measure 0
0000
0000
0000
0000
,  // measure 1
0000
0000
0000
0000
,  // measure 2
0000
0000
0000
0000
,  // measure 3
0000
0000
0000
0000
,  // measure 4
2000
0000
0000
3020
0000
0000
0230
0000
0000
0302
0000
0000
1003
0000
0000
0000
,  // measure 5
1000
0010
0000
0010
0000
0100
0000
0100
0000
0001
0010
0000
0001
0100
0001
0000
,  // measure 6
0010
0001
0000
0001
0000
1000
0000
1000
0000
0010
0100
0010
0200
0000
0300
0000
,  // measure 7
0001
0010
0000
0010
0000
0100
0000
0100
0000
1000
0010
0000
1000
0100
1000
0000
,  // measure 8
0010
0000
0000
1000
0000
0000
0000
0000
0000
1000
0000
0000
0000
0000
0000
0001
0000
0000
0000
0000
0000
0001
0000
0000
0000
0000
0000
0100
0000
0000
0010
0000
0000
0000
0000
0000
0220
0000
0000
0000
0330
0000
0000
0000
0000
0000
0000
0000
,  // measure 9
2000
0100
0100
3100
,  // measure 10
0002
0010
0010
0013
,  // measure 11
2000
3010
0002
0103
,  // measure 12
2000
0000
0000
0000
3001
0000
0000
0000
0100
0000
0010
0000
1000
0001
1000
0001
,  // measure 13
1000
0000
0000
0010
0100
0000
0000
0000
0001
0000
0000
0100
0010
0000
0000
0000
,  // measure 14
0001
0000
0000
0010
1000
0000
0000
0000
1000
0000
0000
0100
0001
0000
0000
0000
,  // measure 15
0001
0000
0000
0010
0100
0000
0000
0000
1000
0000
0000
0100
0010
0000
0001
0000
,  // measure 16
0101
0000
0000
1100
0000
0000
0220
0000
0000
0000
0330
0000
1001
0000
0000
0000
,  // measure 17
0001
0100
0010
1000
0010
0000
1000
0100
,  // measure 18
0010
0001
0010
0100
0020
0000
0030
0000
,  // measure 19
0001
0010
0100
1000
0100
0000
1000
0010
,  // measure 20
0100
0000
0001
0000
0100
0000
0010
0000
0100
0001
0000
2000
0000
0000
3000
0000
,  // measure 21
0001
0000
0100
0000
1000
0000
0100
0000
0001
0000
0000
0000
1000
0100
1000
0000
,  // measure 22
0010
0000
0000
0000
0100
0001
0100
0000
0010
0000
0000
0000
1000
0100
1000
0100
,  // measure 23
0020
0000
0031
0000
0001
0100
0010
1010
,  // measure 24
0000
0000
1000
0000
1100
0000
0000
0000
0011
0000
0000
0000
0001
1000
0000
0000
,  // measure 25
2002
0000
3003
0000
0001
0000
0100
0010
0000
0100
0000
0000
0001
0000
0010
0000
,  // measure 26
0100
0000
1000
0001
0000
1000
0000
0020
0000
0000
0000
0000
0130
0000
0001
0000
,  // measure 27
0010
0000
0100
0000
0010
0000
0001
0000
0100
0000
1000
0100
0000
0000
0001
0000
,  // measure 28
0010
0000
1000
0010
0000
0001
0000
2000
0000
0000
0000
0000
3010
0100
0010
0000
,  // measure 29
0110
0000
0000
0000
0100
0000
0001
0010
0000
0001
0000
0000
0100
0000
1000
0000
,  // measure 30
0100
0000
0001
0010
0000
0100
0000
0020
0000
0000
0000
0000
0031
0000
0100
0000
,  // measure 31
0110
1010
0101
1001
,  // measure 32
1000
0010
0100
0002
0000
1000
0000
1003
0000
0000
0000
0000
0000
0000
0000
0000
,  // measure 33
2000
0010
0010
3010
,  // measure 34
0002
0010
0010
0013
,  // measure 35
2000
0100
0100
3100
,  // measure 36
0002
0100
0100
0103
,  // measure 37
0110
0000
0100
0010
0000
1000
0000
0000
0110
0000
0010
0100
0000
0001
0000
0000
,  // measure 38
1001
0000
1000
0010
0000
0210
0000
0000
0301
0000
0000
0000
0011
0000
0000
0000
,  // measure 39
0010
0100
1000
0100
0001
0100
1000
0100
,  // measure 40
0010
0001
0000
0000
0001
0100
0000
0000
0100
0010
0000
1000
0000
2002
0000
0000
,  // measure 41
3003
0000
0000
0000
,  // measure 42
0000
0000
0000
0000
,  // measure 43
0220
0000
0000
0000
,  // measure 44
0000
0000
0000
0000
0000
0000
0330
0000
0000
0000
0000
0000
1000
0010
1000
0010
0000
0000
0100
0001
0100
0001
0000
0000
,  // measure 45
1000
0000
0100
0000
0010
0000
0001
0000
0100
0000
0010
1000
0000
0000
0100
0000
,  // measure 46
0001
0000
0100
1000
0000
0010
0000
0100
0010
0000
0100
0000
0001
1000
0001
0000
,  // measure 47
0010
0000
0100
0000
1000
0000
0010
0001
0000
0010
0000
0000
1000
0000
0100
0000
,  // measure 48
0010
0000
0001
0100
0000
0001
0000
1000
0000
0010
1000
0000
0100
0000
0010
0000
,  // measure 49
0011
0101
1100
1010
,  // measure 50
0010
0100
0010
0100
0000
0001
0000
1000
0000
0100
0010
0100
0020
0000
0000
0000
,  // measure 51
0031
0100
0000
0100
0000
0010
0000
0010
0000
1000
0100
0000
1000
0010
1000
0000
,  // measure 52
0100
0010
0000
0010
0000
0001
0000
0001
0000
0100
0010
1000
0020
0000
0030
0000
,  // measure 53
0100
0001
0000
0001
0000
0010
0000
0010
0000
0100
1000
0000
0010
0100
0010
0000
,  // measure 54
2010
0000
0000
3002
0000
0000
0023
0000
0000
0230
0000
0000
1300
0001
1000
0000
,  // measure 55
0010
0100
0000
0100
0000
0001
0000
0001
0000
1000
0100
0000
0010
0100
0010
0000
,  // measure 56
0001
1000
0000
1000
0000
0010
0000
0010
0000
0100
0001
0100
0020
0000
0030
0000
,  // measure 57
1000
0001
0000
0001
0000
0010
0000
0010
0000
0100
1000
0000
0010
0100
0010
0000
,  // measure 58
0100
0001
1000
0001
0000
0010
0000
0110
0000
1100
0000
1000
0001
0000
0000
0000
;

//---------------dance-double - ----------------
#NOTEDATA:;
#CHARTNAME:;
#STEPSTYPE:dance-double;
#DESCRIPTION:;
#CHARTSTYLE:;
#DIFFICULTY:Hard;
#METER:11;
#RADARVALUES:0.409834,0.483088,0.210138,0.164456,0.082228,314.000000,291.000000,23.000000,18.000000,0.000000,0.000000,0.000000,0.000000,0.000000,0.409834,0.483088,0.210138,0.164456,0.082228,314.000000,291.000000,23.000000,18.000000,0.000000,0.000000,0.000000,0.000000,0.000000;
#CREDIT:;
#DISPLAYBPM:132.000000;
#NOTES:
00000000
00000000
00000000
00000000
,
00000000
00000000
00000000
00000000
,
00000000
00000000
00000000
00000000
,
00000000
00000000
00000000
00000000
,
01000000
00000000
00000000
00001000
00000000
00000000
00010000
00000000
00000000
00000100
00000000
00000000
00000010
00000000
00000000
00000000
,
00000001
00000000
00000100
00000000
00001000
00010000
00001000
00000000
,
00010000
00000000
01000000
00000000
10000000
00100000
10000000
00000000
,
00100000
00000000
00010000
00000000
00001000
00010000
00001000
00000000
,
00000100
00000001
00000010
00000100
00001000
00001000
00001000
00000000
,
00000010
00010000
00000010
00010000
,
00001000
00100000
00001000
00100000
,
00010000
01000000
00001000
00010000
,
00000010
00000000
00001000
00000000
00000100
00000010
00000100
00000010
,
00000001
00000101
00000100
00000110
,
00000010
00010010
00010000
00011000
,
00001000
00101000
00100000
01100000
,
01000000
00000000
00000000
10000000
00000000
00000000
00200000
00000000
00000000
00000000
00000000
00000000
00310000
00000000
00000000
00000000
,
00010000
00001000
00000100
00001000
00020000
00000000
00030000
00000000
,
00001000
00010000
01000000
00010000
00002000
00000000
00003000
00000000
,
00010000
00001000
00000010
00001000
00020000
00000000
00030000
00000000
,
00001000
00010000
00100000
00010000
00002000
00000000
00003000
00000000
,
00010000
01000000
10000000
01000000
00020000
00000000
00030000
00000000
,
00001000
00000010
00000001
00000010
00002000
00000000
00003000
00000000
,
00010000
00100000
10000000
00100000
00010000
00001000
00000100
00000002
,
00000000
00001000
00001003
00000000
00001001
00000000
00000000
00000000
,
00000110
00000000
00000010
00001000
00000010
00010000
00001000
00100000
,
00010000
00100000
01000000
10000000
00010000
00000000
10000000
00010000
,
10000000
00100000
01000000
00010000
01000000
00001000
00010000
00000100
,
00001000
00000100
00000010
00000001
00000200
00000000
00000310
00000000
,
00001001
00000000
00001000
00000010
00000100
00000010
00001000
00000100
,
00010000
00001000
00100000
00010000
10000000
00000000
10010000
00000000
,
01001000
00010100
00101000
00010010
,
00020000
00000000
00000000
00001000
00000000
00001000
00000000
00031000
00000000
00000000
00000000
00000000
00000000
00000000
00000000
00000000
,
00011000
00000000
00001000
00200000
00300000
00000000
00100000
01000000
,
20000000
30000000
00000000
10000000
00100000
00010000
00001000
00000100
,
00000001
00000000
00000010
00000200
00000300
00000000
00000100
00010000
,
00002000
00000000
00000000
00003000
00000000
00001000
00010000
01000000
,
10000000
00000000
00000000
10000000
00100000
00000000
00000000
00000000
00100000
00000000
00000000
00100000
00010000
00000000
00000000
00000000
,
00010000
00000000
00000000
00010000
00001000
00000000
00000000
00000000
00001000
00000000
00000000
00001000
00000100
00000000
00000001
00000000
,
00000100
00001000
00010000
00001000
,
01001000
00000000
00000000
00000000
00010010
00000000
00000000
00000000
00020000
00000000
00000000
00001000
00000000
00031000
00000000
00000000
,
00000000
00000000
00000000
00000000
,
00000000
00000000
00000000
00000000
,
00011000
00000000
00000000
00000000
,
00000000
00000000
00020000
00032000
,
00103000
01000000
10000000
00100000
00010000
00001000
00100000
01000000
,
00010000
00001000
00000010
00001000
00010000
00100000
00010000
00001000
,
00000010
00000000
00000100
00000010
00000001
00000100
00001000
00010000
,
00001000
00000100
00001000
00010000
01000000
10000000
00100000
01000000
,
01100000
01010000
00011000
00001100
,
00000200
00000000
00000000
00000010
00000000
00000010
00000000
00000310
00000000
00000000
00000000
00000000
00000001
00000000
00000001
00000000
,
00000100
00001000
00010000
00000000
01000000
00010000
00001000
00000000
,
00000100
00001000
00010000
01000000
00010000
00001000
00010000
00000000
,
00100000
00010000
00001000
00000000
00000010
00001000
00010000
00000000
,
00100000
00010000
00001000
00000010
00001000
00010000
00001000
00000000
,
00010000
01000000
10000000
00000000
10000000
00100000
00010000
00000000
,
00001000
00000100
00000001
00001000
00000010
00000001
00000010
00000000
,
00001000
00000100
00000010
00001000
00010000
01000000
10000000
00100000
,
00010000
00001000
00000000
00010000
00000000
00001000
00000000
00000000
00000100
00000000
00000001
00000000
00001001
00000000
00000000
00000000
;

//---------------dance-double - ----------------
#NOTEDATA:;
#CHARTNAME:;
#STEPSTYPE:dance-double;
#DESCRIPTION:;
#CHARTSTYLE:;
#DIFFICULTY:Challenge;
#METER:14;
#RADARVALUES:0.516861,0.590441,0.228411,0.347184,0.625845,396.000000,371.000000,25.000000,38.000000,0.000000,0.000000,0.000000,0.000000,0.000000,0.516861,0.590441,0.228411,0.347184,0.625845,396.000000,371.000000,25.000000,38.000000,0.000000,0.000000,0.000000,0.000000,0.000000;
#CREDIT:;
#DISPLAYBPM:132.000000;
#NOTES:
00000000
00000000
00000000
00000000
,
00000000
00000000
00000000
00000000
,
00000000
00000000
00000000
00000000
,
00000000
00000000
00000000
00000000
,
02000000
00000000
00000000
03002000
00000000
00000000
00023000
00000000
00000000
00030200
00000000
00000000
00000310
00000000
00000000
00000000
,
00000010
00000001
00000000
00000001
00000000
00000100
00000000
00000100
00000000
00000010
00010000
00000000
00001000
00010000
00001000
00000000
,
00100000
00010000
00000000
00010000
00000000
01000000
00000000
01000000
00000000
00100000
10000000
00100000
20000000
00000000
30000000
00000000
,
00010000
00100000
00000000
00100000
00000000
01000000
00000000
01000000
00000000
00010000
00001000
00000000
00000100
00000010
00000100
00000000
,
00000001
00000010
00000000
00000010
00000000
00001000
00000000
00001000
00000000
00010000
00001000
00000000
00022000
00033000
00000000
00000000
,
00000200
00010000
00010000
00010300
,
00020000
00001000
00001000
00031000
,
00002000
01003000
02000000
03100000
,
00200000
00000000
00000000
00000000
10300000
00000000
00000000
00000000
10000000
00000000
01000000
00000000
00010000
00001000
00010000
00001000
,
00010000
00000000
00000000
00000100
00001000
00000000
00000000
00000000
00000001
00000000
00000000
00001000
00000100
00000000
00000000
00000000
,
00000010
00000000
00000000
00001000
00010000
00000000
00000000
00000000
00100000
00000000
00000000
00010000
00001000
00000000
00000000
00000000
,
00000100
00000000
00000000
00001000
00010000
00000000
00000000
00000000
01000000
00000000
00000000
00010000
00001000
00000000
00010000
00000000
,
00011000
00000000
00000000
00010010
00000000
00000000
00202000
00000000
00303000
00000000
00000000
00000000
01100000
00000000
00000000
00000000
,
10000000
00100000
00010000
00001000
00100000
00000000
01000000
00100000
,
00010000
00100000
00001000
00000010
00000002
00000000
00000003
00000000
,
00000001
00000100
00001000
00010000
00000100
00000000
00000010
00000100
,
00001000
00000000
00000100
00000000
00010000
00000000
01000000
00000000
10000000
00100000
00000000
01000000
00000000
00000000
00000000
00000000
,
00100000
00000000
00010000
00000000
00001000
00000000
00000100
00000000
00000001
00000000
00000000
00000000
00000010
00000100
00000010
00000000
,
00001000
00000000
00000000
00000000
00010000
00001000
00010000
00000000
01000000
00000000
00000000
00000000
10000000
00100000
10000000
00100000
,
02000000
00000000
03010000
00000000
00010000
00100000
01000000
00010000
,
00000000
00000000
00001000
00000000
01001000
00000000
00000000
00000000
00010010
00000000
00000000
00000000
00010000
00001000
00000000
00000000
,
00022000
00000000
00033000
00000000
00010000
00000000
00000100
00001000
00000000
00000001
00000000
00000000
00001000
00000000
00000010
00000000
,
00010000
00000000
00001000
00000100
00000000
00001000
00000000
00020000
00000000
00000000
00000000
00000000
01030000
00000000
10000000
00000000
,
00100000
00000000
01000000
00000000
10000000
00000000
01000000
00000000
00010000
00000000
00100000
01000000
00000000
00000000
00010000
00000000
,
00001000
00000000
00000010
00000001
00000000
00001000
00000000
00000020
00000000
00000000
00000000
00000000
00010030
00001000
00010000
00000000
,
00011000
00000000
00000000
00000000
00001000
00000000
00010000
01000000
00000000
00100000
00000000
00000000
01000000
00000000
10000000
00000000
,
00100000
00000000
00010000
00001000
00000000
00000100
00000000
00000002
00000000
00000000
00000000
00000000
00001003
00000000
00000010
00000000
,
00000110
00001100
00011000
01010000
,
01000000
10000000
01000000
20000000
00000000
00010000
00000000
30010000
00000000
00000000
00000000
00000000
00000000
00000000
00000000
00000000
,
00020000
01000000
01000000
01030000
,
00002000
00010000
00010000
00013000
,
00000020
00001000
00001000
00001030
,
00000002
00000100
00000100
00000103
,
00000110
00000000
00000010
00001000
00000000
00000100
00000000
00000000
00010100
00000000
00010000
00001000
00000000
00100000
00000000
00000000
,
00110000
00000000
00010000
01000000
00000000
01200000
00000000
00000000
10300000
00000000
00000000
00000000
11000000
00000000
00000000
00000000
,
01000000
00010000
00001000
00010000
01000000
00010000
00001000
00000010
,
00000001
00000100
00000000
00000000
00000100
00000010
00000000
00000000
00000010
00010000
00000000
00001000
00000000
00022000
00000000
00000000
,
00033000
00000000
00000000
00000000
,
00000000
00000000
00000000
00000000
,
00022000
00000000
00000000
00000000
,
00000000
00000000
00000000
00000000
00000000
00000000
00033000
00000000
00000000
00000000
00000000
00000000
00001000
00010000
00001000
00010000
00000000
00000000
00001000
00010000
00001000
00010000
00000000
00000000
,
00000100
00000000
00001000
00000000
00000100
00000000
00000001
00000000
00000100
00000000
00000010
00000001
00000000
00000000
00000100
00000000
,
00001000
00000000
00010000
00001000
00000000
00100000
00000000
01000000
00100000
00000000
01000000
00000000
10000000
00100000
10000000
00000000
,
00100000
00000000
00010000
00000000
00001000
00000000
00000100
00001000
00000000
00010000
00000000
00000000
00000010
00000000
00001000
00000000
,
00000100
00000000
00000010
00000001
00000000
00000100
00000000
00001000
00000000
00010000
00100000
00000000
10000000
00000000
01000000
00000000
,
01100000
00101000
00010010
00000110
,
00000010
00000100
00000010
00000100
00000000
00000001
00000000
00001000
00000000
00000100
00000010
00000100
00000020
00000000
00000000
00000000
,
00001030
00010000
00000000
00010000
00000000
00100000
00000000
00100000
00000000
10000000
01000000
00000000
10000000
00100000
10000000
00000000
,
01000000
00100000
00000000
00100000
00000000
00010000
00000000
00010000
00000000
01000000
00001000
01000000
00002000
00000000
00003000
00000000
,
00010000
00000100
00000000
00000100
00000000
00001000
00000000
00001000
00000000
00000001
00000100
00000000
00000010
00000100
00000010
00000000
,
00002010
00000000
00000000
00023000
00000000
00000000
00230000
00000000
00000000
02300000
00000000
00000000
13000000
00010000
10000000
00000000
,
00100000
01000000
00000000
01000000
00000000
00010000
00000000
00010000
00000000
00100000
01000000
00000000
00010000
00001000
00010000
00000000
,
00000100
00001000
00000000
00001000
00000000
00000001
00000000
00000001
00000000
00000100
00000010
00000100
00000020
00000000
00000030
00000000
,
00000100
00000001
00000000
00000001
00000000
00000010
00000000
00000010
00000000
00001000
00010000
00000000
00001000
00000100
00001000
00000000
,
00010000
01000000
00010000
01000000
00000000
10000000
00000000
00100000
00000000
00010000
00000000
00001000
00010000
00000000
00000000
00000000
;
