#VERSION:0.83;
#TITLE:ダンガンノーツ;
#SUBTITLE:;
#ARTIST:cosMo@BousouP;
#TITLETRANSLIT:Dangan Notes;
#SUBTITLETRANSLIT:;
#ARTISTTRANSLIT:;
#GENRE:VARIETY;
#ORIGIN:;
#CREDIT:MUINELIM;
#BANNER:Dangan Notes.png;
#BACKGROUND:Dangan Notes-bg.png;
#PREVIEWVID:;
#JACKET:Dangan Notes-jacket.png;
#CDIMAGE:;
#DISCIMAGE:Dangan Notes.png;
#LYRICSPATH:;
#CDTITLE:;
#MUSIC:Dangan Notes.ogg;
#OFFSET:1.673000;
#SAMPLESTART:30.309999;
#SAMPLELENGTH:15.000000;
#SELECTABLE:YES;
#DISPLAYBPM:105.000000:210.000000;
#BPMS:0.000=105.000,
39.000=210.000,
375.000=105.000,
382.000=210.000;
#STOPS:36.000=0.571;
#DELAYS:;
#WARPS:;
#TIMESIGNATURES:0.000=4=4;
#TICKCOUNTS:0.000=4;
#COMBOS:0.000=1;
#SPEEDS:0.000=1.000=0.000=0;
#SCROLLS:0.000=1.000;
#FAKES:;
#LABELS:0.000=Song Start;
#BGCHANGES:0.000=Dangan Notes-bg.png=1.000=0=0=1=StretchNormal===#000000=#000000,
2.000=Dangan Notes.avi=1.000=1=0=0=StretchNoLoop==CrossFade==,
99999=-nosongbg-=1.000=0=0=0 // don't automatically add -songbackground-
;
#KEYSOUNDS:;
#ATTACKS:
;

//---------------dance-single - ----------------
#NOTEDATA:;
#CHARTNAME:;
#STEPSTYPE:dance-single;
#DESCRIPTION:;
#CHARTSTYLE:;
#DIFFICULTY:Beginner;
#METER:4;
#RADARVALUES:0.139833,0.226063,0.023305,0.062148,0.000000,126.000000,123.000000,3.000000,8.000000,0.000000,0.000000,0.000000,0.000000,0.000000,0.139833,0.226063,0.023305,0.062148,0.000000,126.000000,123.000000,3.000000,8.000000,0.000000,0.000000,0.000000,0.000000,0.000000;
#CREDIT:;
#DISPLAYBPM:105.000000:210.000000;
#NOTES:
0000
0000
0000
0000
,
0000
0000
0000
0000
,
0000
0000
0000
0000
,
0000
0000
0000
0000
,
0000
0000
0000
0000
,
1000
0000
1000
0000
,
0001
0000
0001
0000
,
1000
0000
0001
0000
,
1000
0000
0001
0000
,
1001
0000
0000
1000
,
0000
0000
0000
0100
,
0000
0000
0000
0010
,
0000
0000
0000
0001
,
0000
0000
0000
1000
,
0000
0000
0000
0100
,
0000
0000
0000
0010
,
0000
0000
0000
0001
,
0000
0000
0000
1000
,
0000
1000
0000
1000
,
0000
0000
0000
0010
,
0000
0010
0000
0010
,
0000
0000
0000
0100
,
0000
0100
0000
0100
,
0000
0000
0000
0001
,
0000
0001
0000
0001
,
0000
0000
0000
0010
,
0000
0000
0000
0010
,
0000
0000
0000
0100
,
0000
0000
0000
0100
,
0000
0000
0000
0010
,
0000
0000
0000
0100
,
0000
0000
0000
0010
,
0000
0000
0000
0100
,
0000
0000
0000
1000
,
0000
0000
0000
1000
,
0000
0000
0000
0001
,
0000
0000
0000
0001
,
0000
0000
0000
0100
,
0000
0000
0000
0100
,
0000
0000
0000
0010
,
0000
0000
0000
0010
,
0000
0010
0000
0020
,
0000
0000
0000
0000
,
0000
0030
0000
0200
,
0000
0000
0000
0000
,
0000
0300
0000
0001
,
0000
0001
0000
1000
,
0000
1000
0000
0001
,
0000
1000
0000
1001
,
0000
0000
0000
0001
,
0000
0001
0000
0001
,
0000
0000
0000
0100
,
0000
0100
0000
0100
,
0000
0000
0000
0010
,
0000
0010
0000
0010
,
0000
0000
0000
1000
,
0000
1000
0000
1000
,
0000
0000
0000
0100
,
0000
0100
0000
0010
,
0000
0010
0000
0002
,
0000
0003
0000
2000
,
0000
3000
0000
0001
,
0000
0001
0000
1000
,
0000
1000
0000
0010
,
0000
0100
0000
0020
,
0000
0030
0000
1000
,
0000
0000
0000
0100
,
0000
0000
0000
0010
,
0000
0000
0000
0001
,
0000
0000
0000
0100
,
0000
0000
0000
0010
,
0000
0000
0000
0100
,
0000
0000
0000
0010
,
0000
0000
0000
1000
,
0000
1000
0000
0001
,
0000
0001
0000
0200
,
0000
0300
0000
0020
,
0000
0030
0000
1000
,
0000
1000
0000
0100
,
0000
0100
0000
0010
,
0000
0010
0000
0001
,
0000
0001
0000
1000
,
0000
0000
0000
0010
,
0000
0000
0000
0001
,
0000
0000
0000
0100
,
0000
0000
0000
1000
,
0000
1000
0000
0001
,
0000
0001
0000
0100
,
0000
0100
0000
0010
,
0000
0010
0000
1000
,
0000
0001
0000
0100
,
0000
0000
0000
0001
,
0000
1000
0000
0010
,
0000
0000
0000
1001
,
0000
0000
0000
0000
,
0000
0000
0200
0000
,
0000
0000
0000
0300
,
0100
0000
0000
0000
;

//---------------dance-single - ----------------
#NOTEDATA:;
#CHARTNAME:;
#STEPSTYPE:dance-single;
#DESCRIPTION:;
#CHARTSTYLE:;
#DIFFICULTY:Easy;
#METER:8;
#RADARVALUES:0.296313,0.376772,0.085453,0.108759,0.000000,267.000000,256.000000,11.000000,14.000000,0.000000,0.000000,0.000000,0.000000,0.000000,0.296313,0.376772,0.085453,0.108759,0.000000,267.000000,256.000000,11.000000,14.000000,0.000000,0.000000,0.000000,0.000000,0.000000;
#CREDIT:;
#DISPLAYBPM:105.000000:210.000000;
#NOTES:
0000
0000
0000
0000
,
0000
0000
0000
0000
,
0000
0000
0000
0000
,
0000
0000
0000
0000
,
0000
0000
0000
0000
,
1000
0000
0001
0000
0000
0100
0100
0000
,
0001
0000
1000
0000
0000
0010
0010
0000
,
1000
0000
0001
0000
0000
1000
1000
0000
,
0010
0000
0100
0000
0000
0010
0010
0000
,
1001
0200
0000
0310
,
1000
0001
0000
0001
,
0000
0001
0000
0010
,
0001
1000
0000
1000
,
0000
1000
0000
0100
,
0010
0001
0000
0001
,
0000
0001
0000
0010
,
0100
1000
0000
1000
,
0000
1000
0000
0001
,
0100
0010
0000
0010
,
0100
0001
0000
1000
,
0010
0100
0000
0100
,
0010
1000
0000
0001
,
1000
0100
0000
0100
,
1000
0001
0000
1000
,
0001
0010
0000
0010
,
0001
1000
0000
0010
,
0100
0000
0010
0000
0100
0100
0000
0000
,
0000
0000
0000
0001
,
1000
0000
0001
0000
1000
1000
0000
0000
,
0000
1001
2002
3003
,
0110
0000
0000
0000
0010
0100
0000
0000
,
0000
0010
0010
1000
,
0001
0000
1000
0000
0001
1000
0000
0000
,
0000
0001
0001
1000
,
0000
0100
0000
0010
,
0000
0001
0000
0100
,
0010
0100
0000
0010
,
0100
0010
0000
1000
,
0000
0001
0000
0010
,
0000
0100
0000
1000
,
0001
1000
0000
0001
,
1000
0001
1000
2002
,
0000
0000
0000
0000
,
0000
0000
0000
3003
,
0000
0000
0000
0110
,
0000
0020
0030
1000
,
0100
1000
0100
0010
,
0001
0010
0001
1000
,
0100
0010
0001
0200
,
0000
0000
0310
0010
,
1000
0100
0000
0100
,
1000
0001
0000
0001
,
0010
0100
0000
0100
,
1000
0010
0000
0010
,
0100
0001
0000
0001
,
1000
0100
0000
0100
,
0010
0001
0000
0001
,
1000
0010
0100
0010
,
0010
1000
1000
0001
,
0001
0100
0100
0020
,
0000
0000
0000
0000
,
0000
0000
0030
1000
,
0001
1000
0001
0010
,
0100
0010
0100
1000
,
0001
0010
0100
2000
,
0000
0000
3001
0001
,
0100
0000
0100
0100
,
0010
0000
0010
0010
,
1000
0000
1000
1000
,
0001
0000
0001
0001
,
0010
0000
0010
0010
,
0100
0000
0100
0100
,
1000
0000
1000
1000
,
0001
0100
0010
1000
,
0100
1000
0001
0010
,
0001
0100
0010
0200
,
0000
0000
0000
0000
,
0000
0000
0300
0001
,
1000
0010
1000
0001
,
0100
0001
1000
0200
,
0000
0000
0300
0020
,
0000
0030
1001
1000
,
0000
1000
0000
0010
,
0000
0010
0000
0001
,
0000
0001
0000
0100
,
0000
0100
0100
1000
,
0010
0100
0001
0010
,
0100
1000
0000
0001
,
0100
0010
1000
0100
,
0010
0001
1000
1001
,
0010
0010
0000
0001
,
0100
0010
0000
1001
,
0100
0100
0000
1000
,
0010
0100
0010
0110
,
0000
0000
0000
0000
,
0000
0000
2002
0000
,
0000
0000
0000
0000
,
3003
0000
0000
0000
;

//---------------dance-single - ----------------
#NOTEDATA:;
#CHARTNAME:;
#STEPSTYPE:dance-single;
#DESCRIPTION:;
#CHARTSTYLE:;
#DIFFICULTY:Medium;
#METER:12;
#RADARVALUES:0.557112,0.640513,0.233055,0.240823,0.069916,502.000000,472.000000,30.000000,31.000000,0.000000,0.000000,0.000000,0.000000,0.000000,0.557112,0.640513,0.233055,0.240823,0.069916,502.000000,472.000000,30.000000,31.000000,0.000000,0.000000,0.000000,0.000000,0.000000;
#CREDIT:;
#DISPLAYBPM:105.000000:210.000000;
#NOTES:
0000
0000
0000
0000
,
0000
0000
0000
0000
,
0000
0000
0000
0000
,
0000
0000
0000
0000
,
0000
0000
0000
0000
,
1000
0000
0010
0000
1000
0100
1100
0000
,
0001
0000
0100
0000
0001
0010
0011
0000
,
1000
0000
0100
0000
1000
0010
1010
0000
,
0001
0000
0010
0000
0001
0100
0010
1000
,
1001
0220
0330
0110
,
1000
0100
0010
0100
,
1000
0000
0010
0100
0010
0000
0110
0000
,
0001
0010
0100
0010
,
0001
0000
0100
0010
0100
0000
0110
0000
,
0001
0100
1000
0100
,
0001
0000
0010
0100
0010
0000
1001
0000
,
1000
0000
0010
0000
0100
0000
0001
1000
,
0000
1000
0010
1000
0010
0100
0001
0000
,
0010
0001
0000
0010
0100
0000
0010
0000
,
0100
1000
0000
0100
0010
0000
0100
0000
,
1000
0010
0000
0100
0001
0000
1000
0000
,
1001
0000
0001
0100
0010
0000
1000
0000
,
0001
0100
0000
1000
0100
0000
0010
0000
,
1000
0010
0000
0001
0010
0000
0100
0000
,
0010
1000
0000
0001
0100
0000
0010
0000
,
1000
0001
0000
2002
3003
0000
1000
0010
,
0100
0010
1000
0000
0100
0200
0000
0000
,
0310
0000
0001
0000
0100
0000
0010
0100
,
0001
0100
0010
0000
1000
1000
0000
0000
,
0001
0000
0020
0000
0230
0000
1300
0001
,
0010
0001
1000
0000
0010
0020
0000
0000
,
1030
0000
0100
0000
0010
0000
0001
0100
,
0010
0100
0001
0000
1000
2000
0000
0000
,
3010
0000
0020
0000
0230
0000
0301
0010
,
0100
1000
0000
0010
0100
0000
0002
0000
,
0000
1003
0100
0000
0110
0000
0010
0001
,
0010
0000
0100
1000
0100
0000
1000
0010
,
0100
0010
0100
0001
0010
0100
2000
0000
,
0000
3010
0010
0000
0100
0001
1000
0000
,
0100
0000
0010
0000
0001
0000
0100
0010
,
1000
0000
0010
0100
0001
0000
1000
0100
,
0010
0001
0100
0010
1000
0001
0010
0000
,
0000
0100
0000
0010
,
0000
0011
1100
1001
,
0000
1010
0101
0220
,
0330
0000
0010
0100
0010
0000
1000
0100
,
1000
0010
1000
0001
1000
0000
0001
0010
,
0001
0100
0001
1000
0001
0000
0100
0010
,
0100
0001
1000
0001
1000
0100
0020
0000
,
0000
0000
0031
1000
,
0100
1000
0000
0010
1000
0000
0100
0000
,
0010
0001
0000
0100
0001
0000
0010
0100
,
1000
0000
0001
0010
0100
0000
1000
0010
,
0100
0001
1000
0100
0010
0000
0110
0000
,
0001
0100
0000
1000
0100
0000
0001
0000
,
1000
0010
0000
0001
0010
0000
1000
0100
,
1000
0000
0001
0010
0001
0000
0100
0010
,
0100
0010
1000
0001
0010
0100
2000
0000
,
3010
0002
0103
2000
,
3100
0000
0000
0002
0000
0000
0013
0000
0000
1000
0000
0100
,
0000
0010
0000
0001
0000
0100
0000
0010
0000
1000
0000
0001
,
0000
0000
0010
0000
0000
0000
0100
0000
0000
0000
1000
0000
0000
0000
0001
0000
0000
0000
0100
0000
0000
0010
0000
0000
,
1000
0000
0010
0100
0001
0000
1000
0100
,
0010
0000
0001
0010
0100
0000
1000
0010
,
0100
0001
1000
0100
0010
0001
2002
0000
,
0000
0000
3003
1000
,
0001
0000
0000
0010
0001
0000
0100
0000
,
0010
0000
0000
1000
0010
0000
0100
0000
,
0001
0000
0000
0100
0010
0000
1000
0000
,
0001
0000
0000
0010
0100
0010
0200
0000
,
1300
0010
0000
0100
0001
0000
0010
0000
,
0100
1000
0000
0001
0010
0000
0100
0000
,
1000
0001
0000
0010
0100
0000
1000
0010
,
1000
0100
0010
0001
0100
0001
2000
0000
,
3100
0002
0013
2000
,
3010
0000
0000
0002
0000
0000
0103
0000
0000
1000
0000
0010
,
0000
0001
0000
0010
0000
1000
0000
0100
0000
0001
0000
0100
,
0000
1000
0000
0010
0000
0100
0000
0001
0000
1001
0000
0000
,
0100
0000
0010
1000
0001
0000
1001
0000
,
0010
0000
0100
0001
1000
0000
0001
0010
,
0001
0010
0100
1000
0100
1000
0020
0000
,
0000
0000
0130
0110
,
0010
1000
0000
0100
0010
0000
0001
0000
,
0100
0001
0000
0010
0100
0000
1000
0000
,
0001
0100
0000
0010
1000
0000
0100
0010
,
0100
1000
0000
0001
0010
0100
0110
0000
,
0001
0100
0000
1000
0100
0010
1000
0000
,
1000
0100
0000
0001
0100
0010
0001
0000
,
0001
0000
0100
0000
0000
0000
1000
0000
0100
0000
0001
0000
0010
0000
0000
0010
,
0000
0000
0010
0000
0100
0000
0000
0100
0000
0000
0100
0000
1000
0000
0001
0000
,
0100
0010
1010
0000
0100
0101
0000
0000
,
0001
0000
0010
0000
0100
0000
1000
0010
,
0100
0001
0011
0000
1000
1100
0000
0000
,
1001
0000
0001
0100
1000
0010
2002
0000
,
0000
0000
0000
0000
,
0000
0000
3003
0000
0001
0100
0001
0100
,
1000
0100
1000
0100
0001
0010
0100
2000
,
3000
0000
0000
0000
;

//---------------dance-single - ----------------
#NOTEDATA:;
#CHARTNAME:;
#STEPSTYPE:dance-single;
#DESCRIPTION:;
#CHARTSTYLE:;
#DIFFICULTY:Hard;
#METER:14;
#RADARVALUES:0.660322,0.753059,0.186444,0.116527,0.279666,595.000000,571.000000,24.000000,15.000000,0.000000,0.000000,0.000000,0.000000,0.000000,0.660322,0.753059,0.186444,0.116527,0.279666,595.000000,571.000000,24.000000,15.000000,0.000000,0.000000,0.000000,0.000000,0.000000;
#CREDIT:;
#DISPLAYBPM:105.000000:210.000000;
#NOTES:
0000
0000
0000
0000
,
0000
0000
0000
0000
,
0000
0000
0000
0000
,
0000
0000
0000
0000
,
0000
0000
0000
0000
,
1000
0000
0000
0001
0000
0000
0100
0000
0000
0010
0000
0000
1000
0000
1000
0000
,
0001
0000
0000
1000
0000
0000
0010
0000
0000
0100
0000
0000
0001
0000
0001
0000
,
1000
0000
0000
0100
0000
0000
0010
0000
0000
0001
0000
0000
0100
0000
0100
0000
,
0001
0000
0000
0010
0000
0000
0100
0000
0000
1000
0000
0000
0010
0100
0010
0100
,
0010
0000
0000
0000
1010
0000
0101
0000
0001
0010
0100
1000
0001
0000
0000
0000
,
0100
0001
0000
1000
0010
0000
1000
0000
,
0010
1000
0000
0001
0100
0000
0010
0000
,
1000
0100
0000
0010
0001
0000
0100
0000
,
0001
0010
0000
0100
1000
0001
1001
0000
,
0001
0100
0000
0010
0100
0000
0010
0000
,
1000
0010
0000
0100
0010
0000
0100
0000
,
0001
0010
0000
0100
1000
0000
0010
0100
,
0000
0000
0110
0000
0000
0000
0010
0000
0100
0000
0001
0000
1000
0000
0000
0100
,
0000
0000
0010
0000
0000
0000
0010
0000
0001
0000
0100
0000
0010
0000
0000
1000
,
0000
0000
0001
0000
0000
0000
0001
0000
0010
0000
0100
0000
1000
0000
0000
0010
,
0000
0000
0100
0000
0000
0000
0100
0000
0001
0000
1000
0000
0100
0000
0000
0010
,
0000
0000
0001
0000
0010
0000
0000
0100
0000
0000
1000
0000
0010
0000
0000
0100
,
0000
0000
0001
0000
0000
0000
0001
0000
1000
0000
0100
0000
0010
0000
0000
0001
,
0000
0000
0100
0000
0000
0000
0100
0000
0010
0000
1000
0000
0001
0000
0000
0010
,
0000
0000
0100
0000
0000
0000
0100
0000
1000
0000
0010
0000
0100
0000
0001
1000
,
0001
0020
0000
0130
0100
0100
1000
0010
,
0100
0010
1000
0000
0001
0100
0000
1000
,
0100
0001
0010
0100
1000
0000
0001
0100
,
0010
0100
0001
0000
1000
0010
0000
0001
,
0010
0000
0000
0100
0000
0000
0010
0000
0000
0000
0010
0000
1000
0000
0000
0000
1000
0000
0001
0000
0000
0000
0000
0000
,
0011
0000
1100
0000
1000
0010
0000
0001
,
0000
0010
0000
0000
1000
0000
0000
0100
0000
0000
0001
0000
0100
0000
1000
0000
,
0100
0010
0001
0000
1000
0010
0000
0100
,
0002
0000
0023
0000
0230
0000
1300
0100
,
0010
0001
0000
0100
0010
1000
0002
0000
,
0000
0000
0013
0000
0100
0000
1000
0000
0010
0000
0100
0000
0001
0000
0000
0010
,
0000
0000
1000
0000
0010
0000
0001
0000
0100
0000
0010
0000
1000
0000
0000
0100
,
0000
0000
0001
0000
0100
0000
0000
1000
0000
0000
0010
0000
0100
0000
0001
0000
,
0100
0010
0000
0010
1000
0000
0100
0010
,
0001
0100
0000
0100
0010
0000
0010
1000
,
0010
1000
0001
0100
0001
0100
0010
1000
,
0100
0010
0001
0100
0010
1000
1001
0000
,
0001
0000
0100
0010
0000
0000
1000
0000
0010
0100
0000
0000
,
0001
0000
0010
0100
0000
0000
1000
0000
0100
0010
0000
0000
,
0001
0000
0100
0010
0000
0010
1000
0000
1000
0001
0000
0000
,
0001
0000
0100
0000
0001
0000
0100
0000
0000
0010
0000
0000
2000
0000
0000
0000
0000
0000
3100
0000
0000
0010
0000
0000
,
0001
0000
0001
0100
0010
0000
0010
1000
,
0001
0000
0001
0010
0100
0000
0100
1000
,
0010
1000
0001
0100
0001
0010
0220
0000
,
0000
0000
0000
0000
0330
0000
0000
0000
1001
0000
0000
0000
0001
0000
0000
0100
,
0000
0000
1000
0000
0000
0000
0100
0000
0010
0000
0100
0000
0001
0000
0000
0010
,
0000
1000
0000
0010
0100
0010
0001
0200
,
0000
0000
0000
0310
1000
0100
0001
0100
,
0010
0000
0001
0000
0100
0000
1000
0000
0100
0000
0010
0000
1000
0000
0000
0100
,
0000
0000
0001
0000
0100
0000
0000
0010
0000
0000
0001
0000
0010
0000
0000
0100
,
0000
0000
1000
0000
0100
0000
0000
0001
0000
0000
0100
0000
0010
0000
0000
0000
,
0012
0000
0000
0103
0010
1000
0100
0100
,
0000
1100
0000
0101
0001
0010
0100
1000
,
0100
1000
0100
0010
0100
0010
0001
0010
,
0001
0000
0000
0010
0000
0000
0100
0000
0000
0010
0000
0000
0100
0000
0000
0010
0000
0000
0001
0000
0000
0000
0100
0000
,
0000
0010
0000
1000
0000
0100
0000
0001
0000
1000
0000
0010
,
0000
0000
0001
0000
0000
0000
0100
0000
0000
0000
0010
0000
0000
0000
1000
0000
0000
0000
0001
0000
0000
0010
0000
0000
,
0100
0010
0100
1000
0010
0000
0100
0001
,
1000
0001
1000
0100
0010
0000
0001
0100
,
1000
0100
0001
0010
0100
1000
2002
0000
,
0000
0000
0000
0000
3003
0000
0001
0100
,
1000
0100
0000
0010
0100
0000
1000
0100
,
0001
0100
0000
0010
0100
0000
0001
0010
,
1000
0010
0000
0100
0010
0000
0001
0100
,
1000
0100
0001
0010
0100
0001
0100
1000
,
0100
0010
0000
0001
0100
0000
0010
0001
,
0010
0100
0000
0010
1000
0000
0100
0001
,
1000
0010
0000
0001
0100
0000
1000
0100
,
0001
0010
0100
1000
0010
0100
0001
1000
,
0001
1000
0100
0001
0100
0001
1000
0010
,
1000
0000
0000
0010
0000
0000
0001
0000
0000
1000
0000
0000
0001
0000
0000
1000
0000
0000
0100
0000
0000
0000
0010
0000
,
0000
0011
0000
0100
0000
1000
0000
1010
0000
0001
0000
0100
,
0000
0000
0110
0000
0000
0000
0010
0000
0000
0000
1000
0000
0000
0000
1001
0000
0000
0000
0001
0000
0000
0100
0000
0000
,
0010
0000
0001
0000
0010
0000
1000
0000
0100
0000
0000
0000
0100
0000
0010
0001
,
0010
0000
0100
0000
1000
0000
0001
0100
0001
0000
0000
0000
0010
0000
0100
0000
,
0001
0100
1000
0100
0010
0001
2002
0000
,
0000
3003
0110
0010
,
1000
0100
0000
0001
0100
0000
0010
0000
,
0001
0010
0000
1000
0010
0000
0100
0000
,
1000
0010
0000
0001
0100
0000
1000
0010
,
0100
0000
0001
0000
1000
0000
0100
0000
0010
0000
0001
0000
0100
0000
0000
0010
,
0000
0000
1010
0000
0000
0000
0001
0000
0010
0000
0100
0000
1000
0000
0000
0010
,
0000
0000
0110
0000
0000
0000
0100
0000
0001
0000
1000
0000
0100
0000
0000
0010
,
0000
0000
0011
0000
0000
0000
0100
0000
0010
0000
1000
0000
0001
0000
0000
0011
,
0000
0000
0010
0000
0100
0000
0000
1100
0000
0000
1000
0000
0010
0000
0001
0000
,
0010
1000
0100
0000
0001
0100
0000
1000
,
0010
0100
1000
0100
0001
0000
0010
1000
,
0010
0001
0100
0000
1000
0100
0000
0001
,
0010
0000
0000
0100
0000
0000
1000
0000
0010
0000
1000
0000
0010
0000
1000
0000
0010
0000
0200
0000
0000
0000
0000
0000
,
0000
0000
0000
0000
,
0000
0000
0000
0000
0301
0010
1000
0010
,
0001
0000
0010
0000
1000
0000
0010
0000
0001
0000
0100
0000
0010
1000
0010
1000
;

//---------------dance-single - ----------------
#NOTEDATA:;
#CHARTNAME:;
#STEPSTYPE:dance-single;
#DESCRIPTION:;
#CHARTSTYLE:;
#DIFFICULTY:Challenge;
#METER:17;
#RADARVALUES:0.948867,1.092639,0.590406,0.310740,0.901146,855.000000,779.000000,76.000000,40.000000,0.000000,0.000000,0.000000,0.000000,0.000000,0.948867,1.092639,0.590406,0.310740,0.901146,855.000000,779.000000,76.000000,40.000000,0.000000,0.000000,0.000000,0.000000,0.000000;
#CREDIT:;
#DISPLAYBPM:105.000000:210.000000;
#NOTES:
// measure 0
0000
0000
0000
0000
,  // measure 1
0000
0000
0000
0000
,  // measure 2
0000
0000
0000
0000
,  // measure 3
0000
0000
0000
0000
,  // measure 4
0000
0000
0000
0000
0000
0000
0000
0000
0000
0000
0000
1000
0001
0000
1001
0000
,  // measure 5
1000
0000
0100
0000
1100
0000
1000
0010
0000
0100
0001
0000
0011
0000
0010
0000
,  // measure 6
0100
0000
0010
0000
0011
0000
0001
0100
0000
0010
1000
0000
1100
0000
0100
0000
,  // measure 7
0010
0000
0100
0000
0110
0000
0001
0100
0000
0010
1000
0000
1001
0000
0001
0000
,  // measure 8
0100
0000
0010
0000
0110
0000
1000
0010
0000
0100
0001
0000
1000
0100
0010
0002
,  // measure 9
2000
0000
0000
0000
3003
0000
0000
0000
0110
0000
0000
0000
0010
1000
0010
0000
0100
0001
0100
0000
0010
0100
0010
0100
0020
0000
0000
0000
0000
0000
1030
0000
,  // measure 10
0100
0000
0100
0000
0000
0000
1000
0000
0100
0000
0010
0000
0002
0000
0000
0103
,  // measure 11
0010
0000
0010
0000
0000
0000
0100
0001
0100
0001
0100
0000
0020
0000
0000
1030
,  // measure 12
0001
0000
0001
0000
0000
0000
0010
0000
0100
0000
1000
0000
1020
0000
0000
0130
,  // measure 13
0001
0000
0001
0000
0000
0000
1000
0100
1000
0000
0001
0000
0021
0000
0000
0130
,  // measure 14
1000
0000
1000
0000
0000
0000
0010
0000
0100
0000
0001
0000
2000
0000
0000
3100
,  // measure 15
0010
0000
0010
0000
0000
0000
0001
0000
1000
0000
0010
0000
0210
0000
0000
0301
,  // measure 16
0010
0000
0010
0000
0000
0000
0010
0000
0100
0000
1000
0000
1001
0000
0001
0100
,  // measure 17
0001
0000
0020
0000
0000
0000
0130
1000
0100
1000
0100
1000
0001
0000
0010
0001
,  // measure 18
0000
0010
0001
0000
0000
0000
0010
0000
0100
0000
1000
0000
0010
0000
0100
0001
,  // measure 19
0000
0100
0001
0000
0000
0000
1000
0001
0100
0000
0010
0000
1000
0000
0001
0010
,  // measure 20
0000
0001
0010
0000
0000
0000
0100
0000
1000
0000
0010
0000
0100
0000
0001
1000
,  // measure 21
0000
0001
1000
0000
0100
0000
0010
0100
0000
0010
0100
0000
0010
0000
0001
0100
,  // measure 22
0000
0010
0100
0000
0000
0000
0010
0000
1000
0000
0001
0000
0010
0000
0100
1000
,  // measure 23
0000
0010
1000
0000
0000
0000
0001
0000
0100
0000
0010
0000
1000
0000
0100
0010
,  // measure 24
0000
0100
1000
0000
0000
0000
0010
0000
0100
0000
0001
0000
0011
0000
0010
0100
,  // measure 25
0010
0200
0000
1300
1000
0010
0100
0100
,  // measure 26
0100
0100
0101
0000
0010
1010
0000
1000
,  // measure 27
0001
0010
1000
0010
0001
0100
0010
0010
,  // measure 28
0010
0010
1010
0000
0100
0101
0000
0001
,  // measure 29
1000
0000
0000
0100
0000
0000
0010
0000
0001
0000
0100
0000
0010
0000
1000
0000
0001
0000
0020
0000
0000
0030
0000
0000
,  // measure 30
0011
0000
1100
0000
0010
0110
0000
1001
,  // measure 31
0000
0011
0000
0000
1010
0000
0000
1100
0000
0000
0101
0000
0010
0000
0010
0000
,  // measure 32
0010
0010
1010
0000
0100
0101
0000
0011
,  // measure 33
0000
0000
0000
1100
0000
0000
0000
0000
0000
0000
0000
0000
1000
0000
0000
0000
0010
0000
0000
0000
0100
0000
0000
0000
0001
0000
0000
0000
1000
0000
0000
0000
0100
0000
0000
0000
0010
0000
0000
0000
0000
0000
0001
0000
0000
0000
0000
0000
,  // measure 34
0100
2000
0000
3100
0001
0010
0200
0000
,  // measure 35
0000
0000
1300
0010
0100
0000
0001
0000
1000
0000
0100
0000
0010
0000
0001
0100
,  // measure 36
0000
0010
0100
0000
1000
0000
0100
0000
0001
0000
0010
0000
0100
0000
1000
0010
,  // measure 37
0000
0100
0010
0000
0001
0000
0010
0100
0010
0000
1000
0000
0100
0000
0010
0000
,  // measure 38
0001
0000
0101
0000
0000
0000
0100
0010
0100
0010
0100
0010
1000
0000
0100
1000
,  // measure 39
0000
0001
1000
0000
0001
0000
0010
0001
0010
0001
0100
0000
0010
0000
0000
1010
,  // measure 40
0000
0000
1000
0000
0001
0000
0000
0101
0000
0000
0100
0010
0100
0000
0010
1000
,  // measure 41
0010
0000
0000
0000
0000
0000
0100
0000
0000
0001
0000
0000
0100
0000
0000
0000
0000
0000
0001
0000
0000
0010
0000
0000
0001
0000
0000
0010
0000
0000
0100
0000
0000
1000
0000
0000
0200
0000
0000
0000
0000
0000
0000
0000
1300
0000
0000
0000
,  // measure 42
0010
0100
0001
1000
0000
1000
0100
0010
0001
1000
0000
0001
,  // measure 43
0010
0100
1000
0001
0000
0001
0100
0010
1000
0001
0000
0001
,  // measure 44
0100
1000
0100
0001
0000
1000
0010
0001
0010
2000
0000
0000
,  // measure 45
0000
0000
0000
0000
3100
0010
0100
0010
0002
0000
0003
0000
0101
0000
1000
0000
,  // measure 46
0100
0010
0100
1000
0001
0100
1010
0001
,  // measure 47
0010
0000
0100
0000
0010
0000
0001
0000
1000
0000
0010
0000
0100
0001
0100
0000
,  // measure 48
0001
0010
0001
0000
1000
0100
1000
0000
0010
1000
0010
0000
0220
0000
0000
0000
,  // measure 49
0000
0000
0000
0000
0330
0000
0000
0000
1001
0000
0000
0000
0001
0000
0100
0010
,  // measure 50
0000
0100
1000
0000
0100
0000
0001
0000
0010
0000
0100
0000
1000
0000
0000
1010
,  // measure 51
0000
0000
0011
0000
0000
0000
0001
0000
0100
0000
1000
0000
0100
0000
0001
0010
,  // measure 52
0001
0010
0001
0010
0001
0010
0100
1000
0100
0010
0001
1000
0002
0000
0203
0000
,  // measure 53
0320
0000
2030
0000
3001
0010
0001
0010
0200
0000
0300
0000
1100
0000
0000
1000
,  // measure 54
0010
0000
0100
0000
0101
0000
0000
0001
0100
0000
0010
0000
1010
0000
0000
1000
,  // measure 55
0100
0000
0010
0000
0011
0000
0000
0001
1000
0000
0010
0000
0110
0000
0000
0000
,  // measure 56
2002
3000
0000
0103
1000
0100
0001
0011
,  // measure 57
0000
0000
1010
0000
0000
0000
1000
0100
1000
0100
1000
0100
0010
0000
0010
0000
,  // measure 58
0001
0000
0001
0000
1000
0000
1000
0000
0010
0000
0010
0000
0100
0000
0100
0001
,  // measure 59
0000
0000
0000
1000
0000
0000
0010
0000
0000
0000
0000
0000
0110
0000
0000
0000
0000
0000
0000
0000
0000
1001
0000
0000
0000
0000
0000
0000
0000
0000
0110
0000
0000
0000
0000
0000
1010
0000
0000
0000
0000
0000
0000
0000
1100
0000
0000
0000
,  // measure 60
0000
1100
0000
0011
0000
0101
0000
0101
0000
1010
0000
0011
,  // measure 61
0000
0000
0000
0000
1100
0000
0000
0000
0000
0000
0000
0000
0101
0000
0000
0000
0000
0000
0000
0000
0110
0000
0000
0000
0000
0000
0000
0000
1001
0000
0000
0000
0000
0000
0000
0000
0110
0000
0000
0000
0000
0000
0000
0000
0000
0010
0000
0000
,  // measure 62
1000
0000
0100
0000
1100
0000
0000
1000
0010
0000
0100
0000
0101
0000
0000
0001
,  // measure 63
1000
0000
0010
0000
0110
0000
0000
0100
0001
0000
0010
0000
0100
1000
0100
0000
,  // measure 64
0010
0001
0010
0000
0001
0100
0001
0000
1000
0010
1000
0010
2000
0000
0000
0000
,  // measure 65
0000
0000
0000
0000
3001
0000
0001
0010
,  // measure 66
1000
0000
0020
0000
0000
0000
0031
0000
0101
0000
0000
0000
0100
0000
0010
1000
,  // measure 67
0000
0100
2000
0000
0000
0000
3001
0000
0011
0000
0000
0000
1000
0000
0010
0000
,  // measure 68
0001
0000
0020
0000
0000
0000
1030
0000
1100
0000
0000
0000
0100
0010
0001
0000
,  // measure 69
0100
0000
0010
1000
0010
1000
0001
0000
0100
0001
0100
0001
1000
0000
0100
0000
,  // measure 70
0001
0000
0200
0000
0000
0000
1300
0000
1010
0000
0000
0000
0010
0000
0100
0001
,  // measure 71
0000
0010
0002
0000
0000
0000
1003
0000
1100
0000
0000
0000
0001
0000
0100
0000
,  // measure 72
1000
0000
0200
0000
0000
0000
0301
0000
0011
0000
0000
0000
0010
0100
0010
0100
,  // measure 73
0020
0000
0100
0000
0030
0000
1000
0000
0010
0001
0010
0001
0100
0000
0100
0000
,  // measure 74
0010
0010
1000
1000
0001
0001
0010
0010
,  // measure 75
0100
0000
0000
0000
0000
0000
0100
0000
0000
0000
0000
0000
1000
0000
0000
0010
0000
0000
1000
0000
0000
0100
0000
0000
0010
0000
0000
0001
0000
0000
0100
0000
0000
0010
0000
0000
1000
0000
0000
0000
0100
0000
0000
0000
1000
0000
0000
0000
,  // measure 76
0001
0100
0001
1000
0010
1000
0001
0010
0001
0100
0010
0100
,  // measure 77
0001
0000
0000
0000
1000
0000
0000
0000
0001
0000
0000
0000
0010
0000
0000
0000
0100
0000
0000
0000
0010
0000
0000
0000
0001
0000
0000
0000
1000
0000
0000
0000
0001
0000
0000
0000
0200
0000
0000
0000
0000
0000
0310
0000
0000
1000
0000
0000
,  // measure 78
0100
0000
0001
0000
0100
0000
0010
0000
0001
0000
0100
0000
0010
1000
0010
1000
,  // measure 79
0001
0100
0001
0100
0010
1000
0001
0100
0010
1000
0100
0010
0002
0000
0000
0000
,  // measure 80
0000
0000
0000
2003
,  // measure 81
0000
0000
0000
0000
3001
0010
0100
1000
0200
0000
0000
0000
0310
0000
0010
0001
,  // measure 82
0000
1000
0100
0000
0000
0000
1000
0000
0010
0000
0100
0000
0001
0000
0010
0100
,  // measure 83
0000
1000
0001
0000
0000
0000
0100
0010
1000
0000
0001
0000
0010
0000
0100
1000
,  // measure 84
0000
0001
0010
0000
0000
0000
0001
0000
0100
0000
1000
0000
0100
0000
0001
0000
,  // measure 85
0010
0100
0010
0000
0100
1000
0100
1000
0100
0010
0100
0010
0001
0000
0010
1000
,  // measure 86
0000
0010
0001
0000
0000
0000
0100
0000
0010
0000
1000
0000
0001
0000
0100
1000
,  // measure 87
0000
0100
0001
0000
0000
0000
0010
0100
1000
0000
0001
0000
0100
0000
0010
1000
,  // measure 88
0000
0010
0001
0000
0010
0000
1000
0000
0100
0000
0010
0000
0001
0100
0010
1000
,  // measure 89
0001
0000
1000
0000
0001
0010
0100
1000
0010
0000
0100
0000
0001
0000
0001
0000
,  // measure 90
0001
0001
0011
0000
1000
1100
0000
0100
,  // measure 91
0010
0000
0001
0000
0100
0010
1000
0010
0100
0001
0010
0100
1000
0000
1000
0000
,  // measure 92
1000
1000
1010
0000
0001
0101
0000
0100
,  // measure 93
0010
0000
0000
1000
0000
0000
0001
0000
0010
0000
1000
0000
0001
0000
0100
0000
1000
0000
0020
0000
0000
0000
0000
0000
,  // measure 94
0000
0000
0000
0000
,  // measure 95
0000
0000
0000
0000
0000
0000
0000
0000
0130
0001
0100
0001
0010
0001
0010
0001
,  // measure 96
0010
0100
1000
0100
1000
0010
1000
0010
1000
0010
0100
0001
0010
0100
1000
0002
,  // measure 97
0003
0000
0000
0000
;

//---------------dance-double - ----------------
#NOTEDATA:;
#CHARTNAME:;
#STEPSTYPE:dance-double;
#DESCRIPTION:;
#CHARTSTYLE:;
#DIFFICULTY:Hard;
#METER:14;
#RADARVALUES:0.647005,0.715406,0.186444,0.132064,0.236939,583.000000,559.000000,24.000000,17.000000,0.000000,0.000000,0.000000,0.000000,0.000000,0.647005,0.715406,0.186444,0.132064,0.236939,583.000000,559.000000,24.000000,17.000000,0.000000,0.000000,0.000000,0.000000,0.000000;
#CREDIT:;
#DISPLAYBPM:105.000000:210.000000;
#NOTES:
00000000
00000000
00000000
00000000
,
00000000
00000000
00000000
00000000
,
00000000
00000000
00000000
00000000
,
00000000
00000000
00000000
00000000
,
00000000
00000000
00000000
00000000
,
00001000
00000000
00000000
01000000
00000000
00000000
00100000
00000000
00000000
00010000
00000000
00000000
00001000
00000000
00001000
00000000
,
00010000
00000000
00000000
00000010
00000000
00000000
00000100
00000000
00000000
00001000
00000000
00000000
00010000
00000000
00010000
00000000
,
00001000
00000000
00000000
00100000
00000000
00000000
01000000
00000000
00000000
00010000
00000000
00000000
00001000
00000000
00001000
00000000
,
00010000
00000000
00000000
00000100
00000000
00000000
00000010
00000000
00000000
00001000
00000000
00000000
00010000
00001000
00010000
00001000
,
00010000
00000000
00000000
00000000
00011000
00000000
00010000
00000000
00000100
00001000
00000100
00001000
00000001
00000000
00000000
00000000
,
00000010
00001000
00000000
00010000
00001000
00000000
00100000
00000000
,
01000000
00010000
00000000
00001000
00010000
00000000
00000010
00000000
,
00000100
00001000
00000000
00010000
00001000
00000000
01000000
00000000
,
00100000
00010000
00000000
00001000
00010000
00001000
00011000
00000000
,
00010000
01000000
00000000
00100000
01000000
00000000
00010000
00000000
,
00001000
00000010
00000000
00000100
00000010
00000000
00001000
00000000
,
00010000
00100000
00000000
00010000
00001000
00000000
00000100
00001000
,
00000000
00000000
00011000
00000000
00000000
00000000
00010000
00000000
01000000
00000000
10000000
00000000
00100000
00000000
00000000
01000000
,
00000000
00000000
00010000
00000000
00000000
00000000
00010000
00000000
10000000
00000000
01000000
00000000
00100000
00000000
00000000
00010000
,
00000000
00000000
01000000
00000000
00000000
00000000
01000000
00000000
00001000
00000000
00010000
00000000
00000100
00000000
00000000
00000010
,
00000000
00000000
00000001
00000000
00000000
00000000
00000001
00000000
00001000
00000000
00000010
00000000
00000100
00000000
00000000
00001000
,
00000000
00000000
00010000
00000000
01000000
00000000
00000000
00010000
00000000
00000000
00001000
00000000
00000010
00000000
00000000
00001000
,
00000000
00000000
00010000
00000000
00000000
00000000
00010000
00000000
00100000
00000000
10000000
00000000
01000000
00000000
00000000
00100000
,
00000000
00000000
01000000
00000000
00000000
00000000
01000000
00000000
00010000
00000000
00001000
00000000
00000010
00000000
00000000
00000001
,
00000000
00000100
00000000
00000100
00000010
00001000
00000100
00010000
,
00001000
00200000
00000000
01300000
01000000
01000000
10000000
00100000
,
00010000
00100000
10000000
00000000
00010000
01000000
00000000
10000000
,
01000000
00010000
00100000
01000000
00010000
00000000
00001000
00000010
,
00000001
00000010
00001000
00000000
00010000
00001000
00000000
00000100
,
00000001
00000010
00000100
00000000
00002100
00000000
00003001
00000000
,
00000101
00000000
00001010
00000000
00001000
00000100
00000000
00000010
,
00000000
00001000
00000000
00000000
00010000
00000000
00000000
00100000
00000000
00000000
10000000
00000000
01000000
00000000
00100000
00000000
,
00010000
01000000
00001000
00000000
00010000
00000010
00000000
00001000
,
00000200
00000000
00000320
00000000
00000032
00000000
00000103
00001000
,
00010000
01000000
00000000
10000000
00100000
01000000
00020000
00000000
,
00000000
00000000
00130000
00000000
01000000
00000000
10000000
00000000
00100000
00000000
00010000
00000000
00001000
00000000
00000000
00100000
,
00000000
00000000
00010000
00000000
01000000
00000000
00001000
00000000
00010000
00000000
00000100
00000000
00001000
00000000
00000000
00000010
,
00000000
00000000
00010000
00000000
00001000
00000000
00000000
00000100
00000000
00000000
00000001
00000000
00000010
00000000
00000100
00000000
,
00000010
00000001
00000000
00000100
00001000
00000000
00010000
00100000
,
10000000
01000000
00000000
00100000
01000000
00000000
00010000
00000100
,
00010000
00000100
00001000
00000010
00001000
00000010
00010000
00000100
,
00000010
00000001
00000100
00001000
00010000
01000000
20000000
00000000
,
30010000
01000000
00100000
00010000
,
00001000
00000100
00000010
00001000
,
00000001
00000000
00000100
00000010
00000000
00000010
00001000
00000000
00001000
00000100
00000000
00000000
,
00010000
00000000
00001000
00000000
00010000
00000000
00001000
00000000
00000000
00100000
00000000
00000000
00020000
00000000
00000000
00000000
00000000
00000000
01030000
00000000
00000000
00100000
00000000
00000000
,
10000000
00000000
10000000
01000000
00010000
00000000
00010000
00001000
,
00000010
00000000
00000010
00000001
00000100
00000000
00000100
00000010
,
00001000
00000100
00000010
00000001
00000100
00001000
00022000
00000000
,
00000000
00000000
00000000
00000000
00033000
00000000
00000000
00000000
00011000
00000000
00000000
00000000
00010000
00000000
00000000
01000000
,
00000000
00000000
10000000
00000000
00000000
00000000
00100000
00000000
01000000
00000000
00100000
00000000
00010000
00000000
00000000
00001000
,
00000000
00000010
00000000
00000100
00001000
00000100
00000010
00000002
,
00000000
00000000
00000000
00001003
00000010
00010000
00001000
00100000
,
00010000
00000000
01000000
00000000
00001000
00000000
00010000
00000000
00000100
00000000
00001000
00000000
00000001
00000000
00000000
00000010
,
00000000
00000000
00001000
00000000
00010000
00000000
00000000
00100000
00000000
00000000
00010000
00000000
00001000
00000000
00000000
00000010
,
00000000
00000000
00001000
00000000
00010000
00000000
00000000
00100000
00000000
00000000
10000000
00000000
01000000
00000000
00000000
00000000
,
01200000
00000000
00000000
00310000
01000000
00001000
00010000
00000100
,
00000000
00010100
00000000
01001000
01000000
00010000
00100000
01000000
,
00100000
01000000
10000000
01000000
10000000
01000000
00010000
01000000
,
00010000
00000000
00000000
01000000
00000000
00000000
00010000
00000000
00000000
00001000
00000000
00000000
00000010
00000000
00000000
00000001
00000000
00000000
00001000
00000000
00000000
00000000
00000010
00000000
,
00000000
00000100
00000000
00001000
00000000
00010000
00000000
00100000
00000000
01000000
00000000
00010000
,
00000000
00000000
00100000
00000000
00000000
00000000
01000000
00000000
00000000
00000000
10000000
00000000
00000000
00000000
00010000
00000000
00000000
00000000
01000000
00000000
00000000
00100000
00000000
00000000
,
00010000
00001000
00010000
00001000
00000100
00000000
00000010
00000100
,
00001000
00010000
00001000
00010000
00100000
00000000
01000000
00100000
,
10000000
01000000
00100000
00010000
01000000
00001000
00022000
00000000
,
00000000
00000000
00000000
00000000
00033000
00000000
00010000
00000100
,
00001000
00000001
00000000
00000100
00000010
00000000
00001000
00000100
,
00000010
00000001
00000000
00001000
00000010
00000000
00010000
00001000
,
00000100
00001000
00000000
00010000
00001000
00000000
00010000
01000000
,
10000000
01000000
00100000
00010000
01000000
00100000
00010000
00001000
,
00000100
00000001
00000000
00000010
00000100
00000000
00000010
00001000
,
00010000
00100000
00000000
01000000
00100000
00000000
10000000
01000000
,
00010000
00001000
00000000
00100000
00010000
00000000
01000000
00001000
,
00010000
00010100
00000000
00000100
00001000
00000100
00000010
00000001
,
00000010
00000001
00000100
00001000
00000100
00001000
00010000
01000000
,
00010000
00000000
00000000
01000000
00000000
00000000
10000000
00000000
00000000
00100000
00000000
00000000
10000000
00000000
00000000
00100000
00000000
00000000
00010000
00000000
00000000
00000000
00001000
00000000
,
00000000
01001000
00000000
00001000
00000000
00010000
00000000
00010100
00000000
00010000
00000000
00001000
,
00000000
00000000
00101000
00000000
00000000
00000000
00001000
00000000
00000000
00000000
00010000
00000000
00000000
00000000
00010010
00000000
00000000
00000000
00000010
00000000
00000000
00001000
00000000
00000000
,
00000100
00000010
00000100
00000010
00000001
00000000
00000100
00001000
,
00001000
01000000
00010000
00100000
00100000
00000000
01000000
10000000
,
00100000
00010000
00001000
00000100
00000001
00000010
00000220
00000000
,
00000000
00000330
00001001
00000001
,
00000100
00001000
00000000
00010000
01000000
00000000
10000000
00000000
,
00100000
00010000
00000000
00001000
00000010
00000000
00000001
00000000
,
00000010
00000100
00000000
00010000
00001000
00000000
00100000
01000000
,
10000000
00000000
00100000
00000000
01000000
00000000
00010000
00000000
10000000
00000000
01000000
00000000
00100000
00000000
00000000
00010000
,
00000000
00000000
01010000
00000000
00000000
00000000
01000000
00000000
00001000
00000000
00010000
00000000
00000100
00000000
00000000
00000010
,
00000000
00000000
00000011
00000000
00000000
00000000
00000001
00000000
00001000
00000000
00000010
00000000
00000100
00000000
00000000
00001000
,
00000000
00000000
00011000
00000000
00000000
00000000
00010000
00000000
00100000
00000000
10000000
00000000
01000000
00000000
00000000
01100000
,
00000000
00000000
00100000
00000000
00001000
00000000
00000000
00011000
00000000
00000000
00010000
00000000
00000100
00000000
00001000
00000000
,
00000100
00000010
00000001
00000000
00001000
00000010
00000000
00010000
,
00100000
10000000
01000000
00100000
00010000
00000000
01000000
00010000
,
01000000
00100000
10000000
00000000
01000000
00010000
00000000
00000100
,
00000010
00000000
00000000
00000001
00000000
00000000
00000100
00000000
00000000
00000000
00000100
00000000
00001000
00000000
00000000
00000000
00001000
00000000
00020000
00000000
00000000
00000000
00000000
00000000
,
00000000
00000000
00000000
00000000
,
00000000
00000000
00000000
00000000
00130000
10000000
01000000
00010000
,
00001000
00000000
00010000
00000000
00001000
00000000
00000010
00000000
00000001
00000000
00000100
00000000
00001000
00010000
00001000
00010000
;

//---------------dance-double - ----------------
#NOTEDATA:;
#CHARTNAME:;
#STEPSTYPE:dance-double;
#DESCRIPTION:;
#CHARTSTYLE:;
#DIFFICULTY:Challenge;
#METER:17;
#RADARVALUES:0.908914,1.017285,0.536026,0.341814,0.819577,819.000000,750.000000,69.000000,44.000000,0.000000,0.000000,0.000000,0.000000,0.000000,0.908914,1.017285,0.536026,0.341814,0.819577,819.000000,750.000000,69.000000,44.000000,0.000000,0.000000,0.000000,0.000000,0.000000;
#CREDIT:;
#DISPLAYBPM:105.000000:210.000000;
#NOTES:
00000000
00000000
00000000
00000000
,
00000000
00000000
00000000
00000000
,
00000000
00000000
00000000
00000000
,
00000000
00000000
00000000
00000000
,
00000000
00000000
00000000
00000000
00000000
00000000
00000000
00000000
00000000
00000000
00000000
00001000
00010000
00000000
00011000
00000000
,
00001000
00000000
00100000
00000000
01100000
00000000
01000000
00010000
00000000
00001000
00010000
00000000
00011000
00000000
00001000
00000000
,
00010000
00000000
00000100
00000000
00000110
00000000
00000010
00001000
00000000
00010000
00001000
00000000
00011000
00000000
00010000
00000000
,
00001000
00000000
01000000
00000000
01100000
00000000
00100000
00010000
00000000
00001000
00010000
00000000
00011000
00000000
00001000
00000000
,
00010000
00000000
00000010
00000000
00000110
00000000
00000100
00001000
00000000
00010000
00001000
00000000
01000000
00010000
00100000
00002000
,
00020000
00000000
00000000
00000000
00033000
00000000
00000000
00000000
00011000
00000000
00000000
00000000
00010000
00000000
00001000
00000000
00000100
00000000
00000001
00000000
00000010
00000100
00000010
00000100
00000020
00000000
00000000
00000000
00000000
00000000
00000031
00000000
,
00001000
00000000
00000100
00000000
00000000
00000000
00000010
00000000
00001000
00000000
00010000
00000000
00200000
00000000
00000000
10300000
,
01000000
00000000
00100000
00000000
00000000
00000000
00010000
01000000
00010000
01000000
00010000
00000000
20000000
00000000
00000000
30100000
,
01000000
00000000
00010000
00000000
00000000
00000000
00100000
00000000
01000000
00000000
00010000
00000000
00002000
00000000
00000000
00103000
,
00010000
00000000
01000000
00000000
00000000
00000000
00001000
00010000
00001000
00000000
00010000
00000000
00000200
00000000
00000000
00001300
,
00000010
00000000
00000100
00000000
00000000
00000000
00000001
00000000
00001000
00000000
00000100
00000000
00000020
00000000
00000000
00000031
,
00000100
00000000
00000010
00000000
00000000
00000000
00000100
00000000
00001000
00000000
00010000
00000000
00200000
00000000
00000000
10300000
,
01000000
00000000
00100000
00000000
00000000
00000000
01000000
00000000
00010000
00000000
00001000
00000000
00011000
00000000
00010000
00001000
,
00010000
00000000
00000200
00000000
00000000
00000000
00001300
00000010
00001000
00000010
00001000
00000010
00000100
00000000
00000001
00000010
,
00000000
00000100
00000010
00000000
00000000
00000000
00000001
00000000
00000100
00000000
00001000
00000000
00010000
00000000
00100000
01000000
,
00000000
00100000
10000000
00000000
00000000
00000000
01000000
00100000
01000000
00000000
00010000
00000000
00001000
00000000
00000010
00000100
,
00000000
00000010
00000001
00000000
00000000
00000000
00001000
00000000
00000010
00000000
00000100
00000000
00001000
00000000
00010000
00001000
,
00000000
00010000
01000000
00000000
00010000
00000000
00001000
00010000
00000000
00001000
00000100
00000000
00001000
00000000
00010000
01000000
,
00000000
00100000
01000000
00000000
00000000
00000000
10000000
00000000
00100000
00000000
00010000
00000000
00001000
00000000
00000100
00000001
,
00000000
00000100
00000010
00000000
00000000
00000000
00000001
00000000
00000010
00000000
00001000
00000000
00000100
00000000
00000010
00000001
,
00000000
00000010
00000100
00000000
00000000
00000000
00010000
00000000
00001000
00000000
00100000
00000000
01100000
00000000
01000000
10000000
,
01000000
00020000
00000000
00031000
00001000
00000010
00000001
00000001
,
00000001
00000001
00000101
00000000
00001000
00001010
00000000
00000010
,
00000100
00001000
00010000
00100000
01000000
00010000
10000000
10000000
,
10000000
10000000
11000000
00000000
00010000
00110000
00000000
00100000
,
01000000
00000000
00000000
10000000
00000000
00000000
00100000
00000000
00010000
00000000
00001000
00000000
00010000
00000000
00001000
00000000
00000100
00000000
00000002
00000000
00000000
00000003
00000000
00000000
,
00000011
00000000
00001100
00000000
00010000
00010010
00000000
01001000
,
00000000
00011000
00000000
00000000
00010100
00000000
00000000
00011000
00000000
00000000
00101000
00000000
01000000
00000000
01000000
00000000
,
01000000
01000000
01010000
00000000
00100000
10100000
00000000
11000000
,
00000000
00000000
00000000
00110000
00000000
00000000
00000000
00000000
00000000
00000000
00000000
00000000
00100000
00000000
00000000
00000000
00001000
00000000
00000000
00000000
00010000
00000000
00000000
00000000
00000100
00000000
00000000
00000000
00001000
00000000
00000000
00000000
00000100
00000000
00000000
00000000
00000010
00000000
00000000
00000000
00000000
00000000
00000001
00000000
00000000
00000000
00000000
00000000
,
00000100
00002000
00000000
00013000
00100000
10000000
02000000
00000000
,
00000000
00000000
03100000
00010000
00100000
00000000
01000000
00000000
00010000
00000000
00001000
00000000
00000010
00000000
00000100
00000010
,
00000000
00000001
00000100
00000000
00001000
00000000
00010000
00000000
00100000
00000000
10000000
00000000
01000000
00000000
00100000
10000000
,
00000000
00100000
00010000
00000000
00100000
00000000
01000000
10000000
01000000
00000000
00100000
00000000
00001000
00000000
00010000
00000000
,
00000100
00000000
00000110
00000000
00000000
00000000
00000010
00000001
00000010
00000001
00000010
00000001
00000100
00000000
00001000
00010000
,
00000000
00001000
00100000
00000000
00010000
00000000
01000000
00100000
01000000
00100000
10000000
00000000
01000000
00000000
00000000
01100000
,
00000000
00000000
00100000
00000000
00001000
00000000
00000000
00011000
00000000
00000000
00010000
00001000
00010000
00000000
00000100
00001000
,
00000100
00000000
00000000
00000000
00000000
00000000
00000010
00000000
00000000
00000001
00000000
00000000
00000010
00000000
00000000
00000000
00000000
00000000
00000001
00000000
00000000
00000100
00000000
00000000
00000001
00000000
00000000
00000100
00000000
00000000
00000010
00000000
00000000
00001000
00000000
00000000
00000020
00000000
00000000
00000000
00000000
00000000
00000000
00000000
00010030
00000000
00000000
00000000
,
00001000
00010000
00100000
01000000
00000000
00001000
00010000
00001000
00000100
00000010
00000000
00010000
,
00001000
00010000
00000100
00000010
00000000
00001000
00010000
00001000
00100000
01000000
00000000
00010000
,
00001000
00000100
00001000
00010000
00000000
00001000
00010000
01000000
00010000
00002000
00000000
00000000
,
00000000
00000000
00000000
00000000
00013000
00000100
00010000
00000100
00000020
00000000
00000030
00000000
00000011
00000000
00001000
00000000
,
00000010
00000100
00001000
00010000
00100000
10000000
11000000
00010000
,
01000000
00000000
00100000
00000000
00010000
00000000
00001000
00000000
00000010
00000000
00000001
00000000
00000100
00000010
00001000
00000000
,
00000100
00010000
00001000
00000000
00100000
00010000
01000000
00000000
00100000
10000000
00010000
00000000
20020000
00000000
00000000
00000000
,
00000000
00000000
00000000
00000000
30030000
00000000
00000000
00000000
01100000
00000000
00000000
00000000
00100000
00000000
10000000
01000000
,
00000000
01000000
10000000
00000000
01000000
00000000
00010000
00000000
00001000
00000000
00000010
00000000
00000001
00000000
00000000
00000101
,
00000000
00000000
00001010
00000000
00000000
00000000
00001000
00000000
00000100
00000000
00000010
00000000
00000001
00000000
00000100
00000010
,
00000100
00000010
00000100
00000010
00000100
00000000
00001000
00000000
00010000
00000000
00100000
00000000
20000000
00000000
32000000
00000000
,
03200000
00000000
00320000
00000000
01030000
00000000
00001000
00010000
00000020
00000000
00000030
00000000
00001010
00000000
00000000
00001000
,
00000000
00000000
00000100
00000000
00000011
00000000
00000000
00000001
00000000
00000000
00001000
00000000
00001100
00000000
00000000
00010000
,
00000000
00000000
00001000
00000000
01001000
00000000
00000000
01000000
00000000
00000000
00100000
00000000
10100000
00000000
00000000
00000000
,
02020000
03000000
00000000
00130000
00001000
00010000
00000100
00000110
,
00000000
00000000
00001001
00000000
00000000
00000000
00000001
00000100
00000010
00001000
00000001
00000100
00000010
00000000
00010000
00000000
,
00001000
00000000
00000100
00000000
00000001
00000000
00000010
00000000
00001000
00000000
00010000
00000000
01000000
00000000
10000000
00100000
,
00000000
00000000
00000000
01000000
00000000
00000000
00010000
00000000
00000000
00000000
00000000
00000000
00110000
00000000
00000000
00000000
00000000
00000000
00000000
00000000
00000000
00101000
00000000
00000000
00000000
00000000
00000000
00000000
00000000
00000000
00011000
00000000
00000000
00000000
00000000
00000000
00010100
00000000
00000000
00000000
00000000
00000000
00000000
00000000
00000100
00000000
00000000
00000000
,
00000000
00000110
00000000
00000011
00000000
00000001
00000000
00000101
00000000
00001100
00000000
00001000
,
00000000
00000000
00000000
00000000
00011000
00000000
00000000
00000000
00000000
00000000
00000000
00000000
01010000
00000000
00000000
00000000
00000000
00000000
00000000
00000000
01000000
00000000
00000000
00000000
00000000
00000000
00000000
00000000
11000000
00000000
00000000
00000000
00000000
00000000
00000000
00000000
10010000
00000000
00000000
00000000
00000000
00000000
00000000
00000000
00000000
00010000
00000000
00000000
,
00000000
00000000
01000000
00000000
01010000
00000000
00000000
00001000
00000000
00000000
00010000
00000000
00010100
00000000
00000000
00000100
,
00000000
00000000
00000010
00000000
00000011
00000000
00000000
00001000
00000000
00000000
00000010
00000000
00000100
00000001
00001000
00000000
,
00000010
00010000
00001000
00000000
00100000
00010000
10000000
00000000
00100000
01000000
00100000
01000000
00002000
00000000
00000000
00000000
,
00000000
00000000
00000000
00000000
00013000
00000000
00010000
00001000
,
00000100
00000000
00000002
00000000
00000000
00000000
00000013
00000000
00000110
00000000
00000000
00000000
00000100
00000000
00010000
00001000
,
00000000
00010000
00200000
00000000
00000000
00000000
10300000
00000000
11000000
00000000
00000000
00000000
01000000
00000000
00100000
00000000
,
00010000
00000000
02000000
00000000
00000000
00000000
03001000
00000000
00011000
00000000
00000000
00000000
00010000
00000100
00001000
00000000
,
00000001
00000000
00000100
00000010
00001000
00000000
00000100
00000000
00001000
00000100
00000010
00000000
00000100
00000000
00010000
00000000
,
00001000
00000000
00200000
00000000
00000000
00000000
01300000
00000000
11000000
00000000
00000000
00000000
10000000
00000000
00100000
00010000
,
00000000
00001000
00020000
00000000
00000000
00000000
00030100
00000000
00000110
00000000
00000000
00000000
00000001
00000000
00000100
00000000
,
00001000
00000000
00020000
00000000
00000000
00000000
00130000
00000000
10100000
00000000
00000000
00000000
10000000
01000000
10000000
01000000
,
00200000
00000000
00010000
00000000
00300000
00000000
01000000
00000000
00010000
00001000
00010000
00001000
00000100
00000000
00000010
00000000
,
00001000
00100000
00010000
00001000
00000100
00010000
01000000
00100000
,
10000000
00000000
00000000
00010000
00000000
00000000
02000000
00000000
00000000
03200000
00000000
00000000
00320000
00000000
00000000
00032000
00000000
00000000
00003100
00000000
00000001
00000000
00000100
00000000
,
00000010
00001000
00000010
00010000
00001000
00010000
01000000
10000000
01000000
00100000
00010000
00100000
,
00001000
00000000
00000000
00000000
00010000
00000000
00000000
00000000
00001000
00000000
00000000
00000000
00000100
00000000
00000000
00000000
00000001
00000000
00000000
00000000
00000010
00000000
00000000
00000000
00001000
00000000
00000000
00000000
00010000
00000000
00000000
00000000
01000000
00000000
00000000
00000000
20000000
00000000
00000000
00000000
00000000
00000000
30100000
00000000
00000000
01000000
00000000
00000000
,
00100000
00000000
00010000
00000000
00001000
00000000
00000100
00000000
00000001
00000000
00000010
00000000
00000100
00001000
00000100
00001000
,
00000100
00010000
00000100
00010000
00001000
00000000
01000000
00000000
00010000
10000000
00100000
01000000
00002000
00000000
00000000
00000000
,
00000000
00000000
00000000
00023000
,
00000000
00000000
00000000
00000000
00030100
00001000
00000100
00000010
00000002
00000000
00000000
00000000
00001003
00000000
00001000
00000010
,
00000000
00010000
00001000
00000000
00000000
00000000
00100000
00000000
01000000
00000000
10000000
00000000
00010000
00000000
01000000
00001000
,
00000000
00010000
00000100
00000000
00000000
00000000
00000010
00000001
00000100
00000000
00001000
00000000
00010000
00000000
00100000
10000000
,
00000000
01000000
00100000
00000000
00000000
00000000
00010000
00000000
01000000
00000000
00001000
00000000
00010000
00000000
00000100
00000000
,
00000010
00000001
00000010
00000000
00000100
00010000
00000100
00010000
00001000
01000000
00001000
01000000
00010000
00000000
00100000
01000000
,
00000000
10000000
00100000
00000000
00000000
00000000
00010000
00000000
00001000
00000000
00100000
00000000
01000000
00000000
00010000
00001000
,
00000000
00000010
00001000
00000000
00000000
00000000
00010000
00001000
00000100
00000000
00000001
00000000
00000010
00000000
00000100
00000010
,
00000000
00001000
00010000
00000000
01000000
00000000
10000000
00000000
00100000
00000000
00010000
00000000
00001000
00000100
00001000
00000000
,
00010000
00000000
00001000
00000000
00010000
01000000
00010000
00000000
00001000
00000000
00000100
00000000
00000001
00000000
00000001
00000000
,
00000001
00000001
00001001
00000000
00010000
00011000
00000000
00001000
,
00100000
00000000
01000000
00000000
10000000
00100000
01000000
00100000
10000000
01000000
00100000
00010000
10000000
00000000
10000000
00000000
,
10000000
10000000
10010000
00000000
00001000
00011000
00000000
00010000
,
00001000
00000000
00000000
00000100
00000000
00000000
00000001
00000000
00000010
00000000
00001000
00000000
00010000
00000000
01000000
00000000
10000000
00000000
00200000
00000000
00000000
00000000
00000000
00000000
,
00000000
00000000
00000000
00000000
,
00000000
00000000
00000000
00000000
00000000
00000000
00000000
00000000
00310000
00001000
00010000
00000000
00001000
00000100
00001000
00000000
,
00000100
00000010
00000100
00000000
00000010
00000001
00000010
00000000
00000100
00001000
00000100
00001000
00010000
00100000
01000000
20000000
,
30000000
00000000
00000000
00000000
;

//---------------dance-double - ----------------
#NOTEDATA:;
#CHARTNAME:;
#STEPSTYPE:dance-double;
#DESCRIPTION:;
#CHARTSTYLE:;
#DIFFICULTY:Easy;
#METER:9;
#RADARVALUES:0.289654,0.376772,0.062148,0.108759,0.000000,261.000000,253.000000,8.000000,14.000000,0.000000,0.000000,0.000000,0.000000,0.000000,0.289654,0.376772,0.062148,0.108759,0.000000,261.000000,253.000000,8.000000,14.000000,0.000000,0.000000,0.000000,0.000000,0.000000;
#CREDIT:;
#DISPLAYBPM:105.000000:210.000000;
#NOTES:
00000000
00000000
00000000
00000000
,
00000000
00000000
00000000
00000000
,
00000000
00000000
00000000
00000000
,
00000000
00000000
00000000
00000000
,
00000000
00000000
00000000
00000000
,
00001000
00000000
00010000
00000000
00000000
00000010
00000010
00000000
,
00010000
00000000
00001000
00000000
00000000
01000000
01000000
00000000
,
00001000
00000000
00010000
00000000
00000000
00000100
00000100
00000000
,
00010000
00000000
00001000
00000000
00000000
00100000
00100000
00000000
,
00001000
00022000
00033000
00010000
,
00000100
00010000
00000000
00010000
,
00000000
00010000
00000000
00001000
,
01000000
00001000
00000000
00001000
,
00000000
00001000
00000000
00010000
,
00000010
00010000
00000000
00010000
,
00000000
00010000
00000000
00001000
,
00100000
00001000
00000000
00001000
,
00000000
00001000
00000000
00010000
,
00001000
01000000
00000000
00001000
,
00010000
00000100
00000000
00010000
,
00001000
00100000
00000000
00001000
,
00010000
00000010
00000000
00010000
,
00001000
00000100
00000000
00001000
,
00010000
00100000
00000000
00010000
,
00001000
00000010
00000000
00001000
,
00010000
01000000
00000000
10000000
,
00100000
00000000
00010000
00000000
00001000
00001000
00000000
00000000
,
00000000
00000000
00000000
00000001
,
00000010
00000000
00001000
00000000
00010000
00010000
00000000
00000000
,
00000000
00001000
00020000
00000000
,
00031000
00000000
00000000
00000000
00010000
00010000
00000000
00000000
,
00000000
00001000
00001000
00000100
,
00000001
00000000
00000010
00000000
00000100
00000010
00000000
00000000
,
00000000
00001000
00001000
00010000
,
00000000
01000000
00000000
10000000
,
00000000
00100000
00000000
00010000
,
00000000
00001000
00000000
00000100
,
00000000
00000001
00000000
00000010
,
00000000
00000100
00000000
00001000
,
00000000
00010000
00000000
00100000
,
00000000
01000000
00000000
10000000
,
00100000
00010000
00001000
00022000
,
00000000
00000000
00000000
00000000
,
00000000
00000000
00000000
00033000
,
00000000
00000000
00000000
00011000
,
00000000
00020000
00030000
00000100
,
00001000
00000100
00001000
00000100
,
00000010
00000100
00000010
00000001
,
00000010
00000001
00000010
00000002
,
00000000
00000000
00000103
00000100
,
00000010
00001000
00000000
00000100
,
00000010
00001000
00000000
00010000
,
01000000
00100000
00000000
00010000
,
01000000
00100000
00000000
10000000
,
01000000
00010000
00000000
01000000
,
00010000
00001000
00000000
00010000
,
00001000
00000010
00000000
00001000
,
00000010
00000001
00000100
00000010
,
00000010
00010000
00010000
00001000
,
00001000
01000000
01000000
00200000
,
00000000
00000000
00000000
00000000
,
00000000
00000000
00300000
10000000
,
00010000
10000000
00010000
00100000
,
01000000
00100000
01000000
00010000
,
00001000
00000010
00000100
00000020
,
00000000
00000000
00000031
00001000
,
00000100
00000000
00000100
00000010
,
00000001
00000000
00000001
00001000
,
00000010
00000000
00000010
00010000
,
00001000
00000000
00001000
00010000
,
00100000
00000000
00100000
10000000
,
00010000
00000000
00010000
01000000
,
00100000
00000000
00100000
10000000
,
01000000
00100000
00010000
01000000
,
00100000
00010000
00001000
00000100
,
00000010
00001000
00000100
00000020
,
00000000
00000000
00000000
00000000
,
00000000
00000000
00000030
00000001
,
00000100
00001000
00010000
00100000
,
10000000
01000000
00010000
00002000
,
00000000
00000000
00003000
00020000
,
00000000
00030000
00011000
00000100
,
00000000
00000100
00000000
00000010
,
00000000
00000010
00000000
00001000
,
00000000
00001000
00000000
00010000
,
00000000
00010000
00010000
01000000
,
10000000
00100000
00010000
00100000
,
01000000
00100000
00000000
00010000
,
00001000
00000100
00000010
00000100
,
00000001
00000010
00001000
00011000
,
00100000
01000000
00000000
00010000
,
00001000
00010000
00000000
00011000
,
00000100
00000010
00000000
00001000
,
00010000
00001000
00010000
00011000
,
00000000
00000000
00000000
00000000
,
00000000
00000000
00022000
00000000
,
00000000
00000000
00000000
00000000
,
00033000
00000000
00000000
00000000
;

//---------------dance-double - ----------------
#NOTEDATA:;
#CHARTNAME:;
#STEPSTYPE:dance-double;
#DESCRIPTION:;
#CHARTSTYLE:;
#DIFFICULTY:Medium;
#METER:12;
#RADARVALUES:0.531587,0.602835,0.108759,0.225286,0.069916,479.000000,465.000000,14.000000,29.000000,0.000000,0.000000,0.000000,0.000000,0.000000,0.531587,0.602835,0.108759,0.225286,0.069916,479.000000,465.000000,14.000000,29.000000,0.000000,0.000000,0.000000,0.000000,0.000000;
#CREDIT:;
#DISPLAYBPM:105.000000:210.000000;
#NOTES:
00000000
00000000
00000000
00000000
,
00000000
00000000
00000000
00000000
,
00000000
00000000
00000000
00000000
,
00000000
00000000
00000000
00000000
,
00000000
00000000
00000000
00000000
,
00001000
00000000
00010000
00000000
00000010
00010000
00001000
00000000
,
00010000
00000000
00001000
00000000
01000000
00001000
00010000
00000000
,
00001000
00000000
00010000
00000000
00000100
00010000
00001000
00000000
,
00010000
00000000
00001000
00000000
00100000
00001000
00010000
00001000
,
00011000
00020000
00000000
00031000
,
00100000
00010000
01000000
00100000
,
10000000
01000000
00010000
00010000
,
00000100
00001000
00000010
00000100
,
00000001
00000010
00001000
00001000
,
01000000
00010000
00100000
01000000
,
10000000
00100000
00010000
00000010
,
00001000
00000000
00000100
00000000
00000010
00000000
00000001
00000100
,
00000000
00000100
00000010
00010000
00000010
00010000
00001000
00000000
,
00001000
00100000
00000000
00100000
01000000
00000000
10000000
00000000
,
00100000
00010000
00000000
00010000
00001000
00000000
00000100
00000000
,
00000001
00000010
00000000
00000010
00000100
00000000
00010000
00000000
,
00011000
00000000
00001000
00100000
00010000
00000000
01000000
00000000
,
00100000
10000000
00000000
10000000
01000000
00000000
00010000
00000000
,
00001000
00010000
00000000
00010000
00000100
00000000
00000010
00000000
,
00000001
00000100
00000000
00000100
00000010
00000000
00001000
00000000
,
00000100
00010000
00000000
00022000
00033000
00000000
00001000
01000000
,
00100000
01000000
00001000
00000000
01000000
00200000
00000000
00000000
,
10300000
00000000
01000000
00000000
00100000
00000000
00001000
00010000
,
00000100
00010000
00001000
00000000
00010000
00000020
00000000
00000000
,
00001030
00000000
00001000
00000000
00000100
00000000
00000010
00000001
,
00000100
00000001
00000010
00000000
00000100
00002000
00000000
00000000
,
00003010
00000000
00010000
00000000
00001000
00000000
00100000
00010000
,
01000000
00010000
00100000
00000000
01000000
20000000
00000000
00000000
,
30100000
00000000
00200000
00000000
02300000
00000000
03010000
10000000
,
01000000
00100000
00000000
00100000
00001000
00000000
00020000
00000000
,
00000000
00030100
00000010
00000000
00000011
00000000
00000001
00000000
,
00000100
00000000
00001000
00000000
00010000
00000000
00100000
10000000
,
01000000
10000000
01000000
00100000
00010000
01000000
00200000
00000000
,
00000000
00310000
00001000
00000000
00010000
00000100
00001000
00000000
,
00000001
00000000
00000100
00000000
00001000
00000000
00010000
00001000
,
00100000
00000000
00010000
00100000
01000000
00000000
10000000
00100000
,
01000000
00010000
00100000
01000000
00010000
00001000
00000010
00000000
,
00000000
00000100
00000000
00000010
,
00000000
00000011
00001000
00011000
,
00000000
00011000
00100000
20200000
,
30300000
00000000
10000000
01000000
00100000
00000000
00100000
00010000
,
01000000
00001000
00010000
00000100
00001000
00000000
00000010
00001000
,
00000100
00010000
00001000
00100000
00010000
00000000
01000000
00100000
,
00010000
00001000
00000100
00000010
00001000
00000100
00000020
00000000
,
00000000
00000000
00000031
00000001
,
00000100
00001000
00000000
00010000
00001000
00000000
00010000
00000000
,
01000000
00010000
00000000
00001000
00010000
00000000
00100000
01000000
,
00010000
00000000
00100000
01000000
10000000
00000000
00100000
00010000
,
00001000
00000000
00010000
00001000
00000100
00000000
00000101
00000000
,
00000001
00000010
00000000
00000100
00000010
00000000
00001000
00000000
,
00010000
01000000
00000000
00100000
01000000
00000000
10000000
00100000
,
00010000
00000000
00100000
00010000
00001000
00000000
00010000
00001000
,
00000100
00000001
00000000
00000001
00000010
00001000
00020000
00000000
,
00030010
00002000
01003000
00020000
,
00030100
00000000
00000000
00002000
00000000
00000000
00103000
00000000
00000000
00100000
00000000
01000000
,
00000000
01000000
00000000
10000000
00000000
00100000
00000000
00100000
00000000
00010000
00000000
00001000
,
00000000
00000000
00001000
00000000
00000000
00000000
00000100
00000000
00000000
00000000
00000001
00000000
00000000
00000000
00000001
00000000
00000000
00000000
00001000
00000000
00000000
00000100
00000000
00000000
,
00000010
00000000
00000100
00001000
00000001
00000000
00000100
00001000
,
00010000
00000000
00001000
00010000
01000000
00000000
10000000
00100000
,
01000000
00010000
10000000
01000000
00100000
00001000
00022000
00000000
,
00000000
00000000
00033000
00010000
,
00000100
00000000
00000000
00001000
00000001
00000000
00000100
00000000
,
00001000
00000000
00000000
00010000
00001000
00000000
00100000
00000000
,
01000000
00000000
00000000
10000000
00100000
00000000
00010000
00000000
,
00001000
00000000
00000000
00000100
00000001
00000010
00000002
00000000
,
00000103
00001000
00000000
00010000
00001000
00000000
00000010
00000000
,
00001000
00010000
00000000
00100000
00010000
00000000
00001000
00000000
,
00010000
01000000
00000000
10000000
00100000
00000000
00010000
00001000
,
00010000
00000010
00000000
00000010
00001000
00000010
00020000
00000000
,
00030100
00002000
00103000
00020000
,
00030010
00000000
00000000
00002000
00000000
00000000
01003000
00000000
00000000
01000000
00000000
00010000
,
00000000
00010000
00000000
10000000
00000000
00100000
00000000
00100000
00000000
00010000
00000000
00001000
,
00000000
00001000
00000000
00000100
00000000
00000001
00000000
00000001
00000000
00001001
00000000
00000000
,
00001000
00000010
00010000
00011000
,
00001000
00000000
01000000
00000000
00010000
00000000
10000000
01000000
,
10000000
01000000
00100000
00010000
00100000
00001000
00020000
00000000
,
00000000
00000000
00030010
00001010
,
00001000
00000100
00000000
00000010
00001000
00000000
00010000
00000000
,
01000000
10000000
00000000
00100000
00010000
00000000
00001000
00000000
,
00000100
00000001
00000000
00000010
00001000
00000000
00010000
00001000
,
00010000
00100000
01000000
00100000
10000000
01000000
00010000
00000000
,
00001000
00010000
00000000
00000100
00001000
00000100
00000010
00000000
,
00000001
00000100
00000000
00001000
00010000
00001000
01000000
00000000
,
00010000
00000000
00100000
00000000
00000000
00000000
01000000
00000000
10000000
00000000
00100000
00000000
00010000
00000000
00000000
00010000
,
00000000
00000000
00010000
00000000
00001000
00000000
00000000
00001000
00000000
00000000
00001000
00000000
00000100
00000000
00000001
00000000
,
00000010
00000100
00000010
00000000
00000001
00001000
00000000
00000010
,
00000100
00000000
00001000
00000000
00010000
00000000
00100000
01000000
,
00100000
10000000
00010000
00000000
01000000
00100000
00000000
10000000
,
00010000
00000000
01000000
00100000
00010000
00001000
00022000
00000000
,
00000000
00000000
00000000
00000000
,
00000000
00000000
00033000
00000000
00010000
00100000
01000000
00100000
,
00010000
00001000
00000100
00000010
00000100
00001000
00010000
02000000
,
03000000
00000000
00000000
00000000
;
