#VERSION:0.83;
#TITLE:Cookie;
#SUBTITLE:;
#ARTIST:New Jeans;
#TITLETRANSLIT:;
#SUBTITLETRANSLIT:;
#ARTISTTRANSLIT:;
#GENRE:K-POP;
#ORIGIN:;
#CREDIT:MUINELIM;
#BANNER:Cookie.png;
#BACKGROUND:Cookie-bg.png;
#PREVIEWVID:;
#JACKET:Cookie-jacket.png;
#CDIMAGE:;
#DISCIMAGE:;
#LYRICSPATH:;
#CDTITLE:;
#MUSIC:Cookie.ogg;
#OFFSET:-0.096000;
#SAMPLESTART:48.439953;
#SAMPLELENGTH:15.246624;
#SELECTABLE:YES;
#BPMS:0.000=78.500;
#STOPS:;
#DELAYS:;
#WARPS:;
#TIMESIGNATURES:0.000=4=4;
#TICKCOUNTS:0.000=4;
#COMBOS:0.000=1;
#SPEEDS:0.000=1.000=0.000=0;
#SCROLLS:0.000=1.000;
#FAKES:;
#LABELS:0.000=Song Start;
#BGCHANGES:0.000=Cookie.avi=1.000=0=0=0=StretchNoLoop====,
99999=-nosongbg-=1.000=0=0=0 // don't automatically add -songbackground-
;
#KEYSOUNDS:;
#ATTACKS:
;

//---------------dance-single - ----------------
#NOTEDATA:;
#CHARTNAME:;
#STEPSTYPE:dance-single;
#DESCRIPTION:;
#CHARTSTYLE:;
#DIFFICULTY:Beginner;
#METER:1;
#RADARVALUES:0.076919,0.111218,0.000000,0.008827,0.000000,61.000000,61.000000,0.000000,1.000000,0.000000,0.000000,0.000000,0.000000,0.000000,0.076919,0.111218,0.000000,0.008827,0.000000,61.000000,61.000000,0.000000,1.000000,0.000000,0.000000,0.000000,0.000000,0.000000;
#CREDIT:MILEN;
#NOTES:
0000
0000
0000
0000
,
0000
0000
0000
0000
,
0000
0000
0000
0000
,
0000
0000
0000
0000
,
1000
0000
1000
0000
,
1000
0000
1000
1000
,
1000
0000
1000
1000
,
1000
0000
0000
0000
,
0001
0000
0001
0000
,
0001
0000
0001
0001
,
0001
0000
0001
0001
,
0001
0000
0000
0000
,
1000
0000
0000
0000
,
0001
0000
0000
0000
,
1000
0000
0001
0000
,
1000
1000
1000
0000
,
0001
0000
0000
0000
,
1000
0000
0000
0000
,
0001
0001
0000
0001
,
0001
0000
1000
0000
,
1000
0000
0000
0000
,
0001
0000
0000
0000
,
1000
1000
0000
1000
,
1000
0000
0001
0000
,
1000
0000
1000
0000
,
0001
0000
0001
0000
,
1000
0000
0001
0000
,
1000
0000
0001
0000
,
1000
0000
1000
0000
,
1000
0000
1000
0000
,
0001
0000
0001
0000
,
0001
0000
0000
0000
,
0001
0000
0001
0000
,
0001
0000
0001
0000
,
1000
0000
1000
0000
,
2000
0000
0000
0000
,
3000
0000
0000
0000
;

//---------------dance-single - ----------------
#NOTEDATA:;
#CHARTNAME:;
#STEPSTYPE:dance-single;
#DESCRIPTION:;
#CHARTSTYLE:;
#DIFFICULTY:Easy;
#METER:3;
#RADARVALUES:0.118532,0.142995,0.070615,0.008827,0.000000,94.000000,86.000000,8.000000,1.000000,0.000000,0.000000,0.000000,0.000000,0.000000,0.118532,0.142995,0.070615,0.008827,0.000000,94.000000,86.000000,8.000000,1.000000,0.000000,0.000000,0.000000,0.000000,0.000000;
#CREDIT:MILEN;
#NOTES:
0000
0000
0000
0000
,
0000
0000
0000
0000
,
0000
0000
0000
0000
,
0000
0000
0000
0000
,
1000
0001
1000
0001
,
1000
0000
0001
1000
,
1001
0000
1000
0001
,
1001
0000
0000
0010
,
0010
0100
0010
0100
,
0010
0000
0100
0010
,
0110
0000
0010
0100
,
0110
0000
0000
0001
,
1000
0100
0010
0001
,
1000
0100
0010
0001
,
0100
0100
1000
1000
,
0010
0010
0001
0000
,
1001
0000
0100
0000
,
1001
0000
0010
0000
,
1000
0001
1000
0001
,
0010
0100
0010
0000
,
0110
0000
1000
0000
,
0110
0000
0001
0000
,
0100
0010
0100
0010
,
0100
0000
0010
0000
,
1000
0000
0100
0000
,
0001
0000
0010
0000
,
1000
0100
0001
0010
,
1000
0100
0001
0010
,
0010
0000
0001
0000
,
0100
0000
1000
0000
,
0010
0000
0001
0000
,
0100
0000
0000
0000
,
1000
0000
0010
0000
,
0001
0000
0100
0000
,
1000
0000
0010
0000
,
0002
0000
0000
0000
,
0003
0000
0000
0000
;

//---------------dance-double - ----------------
#NOTEDATA:;
#CHARTNAME:;
#STEPSTYPE:dance-double;
#DESCRIPTION:;
#CHARTSTYLE:;
#DIFFICULTY:Easy;
#METER:3;
#RADARVALUES:0.119793,0.142995,0.079441,0.017654,0.000000,95.000000,86.000000,9.000000,2.000000,0.000000,0.000000,0.000000,0.000000,0.000000,0.119793,0.142995,0.079441,0.017654,0.000000,95.000000,86.000000,9.000000,2.000000,0.000000,0.000000,0.000000,0.000000,0.000000;
#CREDIT:MILEN;
#NOTES:
00000000
00000000
00000000
00000000
,
00000000
00000000
00000000
00000000
,
00000000
00000000
00000000
00000000
,
00000000
00000000
00000000
00000000
,
00001000
00010000
00001000
00010000
,
00001000
00000000
00010000
00001000
,
00011000
00000000
00001000
00010000
,
00011000
00000000
00000000
00000010
,
00010000
00001000
00010000
00001000
,
00010000
00000000
00001000
00010000
,
00011000
00000000
00010000
00001000
,
00011000
00000000
00000000
01000000
,
00001000
00010000
00100000
01000000
,
00001000
00010000
00000010
00000100
,
00001000
00010000
00001000
00000100
,
00000001
00000010
00000100
00000000
,
00001001
00000000
00000100
00000000
,
00001001
00000000
00000100
00000000
,
00000001
00000100
00001000
00010000
,
00100000
10000000
00010000
00000000
,
10010000
00000000
01000000
00000000
,
10010000
00000000
01000000
00000000
,
10000000
01000000
00010000
00001000
,
00000010
00000000
00000001
00000000
,
00000100
00000000
00001000
00000000
,
00010000
00000000
00100000
00000000
,
10000000
01000000
00010000
00001000
,
00000010
00000001
00000100
00001000
,
00001000
00000000
00010000
00000000
,
01000000
00000000
10000000
00000000
,
00100000
00000000
00010000
00000000
,
00001000
00000000
00000000
00000000
,
00010000
00000000
00001000
00000000
,
00000100
00000000
00000001
00000000
,
00000010
00000000
00001000
00000000
,
00022000
00000000
00000000
00000000
,
00033000
00000000
00000000
00000000
;

//---------------dance-single - ----------------
#NOTEDATA:;
#CHARTNAME:;
#STEPSTYPE:dance-single;
#DESCRIPTION:;
#CHARTSTYLE:;
#DIFFICULTY:Medium;
#METER:5;
#RADARVALUES:0.208061,0.238324,0.105922,0.061788,0.000000,165.000000,153.000000,12.000000,7.000000,0.000000,0.000000,0.000000,0.000000,0.000000,0.208061,0.238324,0.105922,0.061788,0.000000,165.000000,153.000000,12.000000,7.000000,0.000000,0.000000,0.000000,0.000000,0.000000;
#CREDIT:MILEN;
#NOTES:
0000
0000
0000
0000
,
0000
0000
0000
0000
,
0000
0000
0000
0000
,
0000
0000
0000
0000
,
1000
0100
0010
0001
,
0100
0000
0100
0000
1000
0001
1000
0000
,
0110
0000
0000
0000
0001
1000
0001
0000
,
0110
1000
1000
0001
,
0001
0010
0100
1000
,
0010
0000
0010
0000
0001
1000
0001
0000
,
0110
0000
0000
0000
1000
0001
1000
0000
,
0110
0001
0001
1000
,
1000
0000
0010
0000
0001
0000
0010
1000
,
1000
0000
0100
0000
0001
0000
0100
0100
,
1000
0010
0001
0100
,
1000
0001
1000
0001
0020
0000
0130
0000
,
1001
0000
0100
0000
0010
0100
0010
0000
,
1001
0000
0010
0000
0100
0010
0100
0000
,
0010
1000
0100
0000
0010
0001
0100
0000
,
0010
1000
0001
0100
0010
0010
0010
0000
,
1001
0000
0100
0000
1000
0010
0100
0000
,
1001
0000
0010
0000
0001
0100
0010
0000
,
1000
0001
0100
0000
0001
1000
0010
0000
,
1000
0100
0001
0010
,
2000
0100
0001
3100
,
0002
0010
1000
0013
,
0200
0310
0002
1003
,
1010
0100
0101
0010
,
0110
0000
1000
0100
0010
0000
0010
0001
,
0100
0000
1000
0001
0010
0000
0001
0010
,
0100
0000
0100
1000
0010
0000
0001
1000
,
0200
0000
0000
0000
0300
0000
1000
1000
,
0010
0000
0001
0001
0100
0000
1000
1000
,
0010
0000
0001
1000
1001
0000
0010
0010
,
1000
0000
0100
0100
0001
0000
0010
0100
,
0020
0000
0000
0000
,
0030
0000
0000
0000
;

//---------------dance-double - ----------------
#NOTEDATA:;
#CHARTNAME:;
#STEPSTYPE:dance-double;
#DESCRIPTION:;
#CHARTSTYLE:;
#DIFFICULTY:Medium;
#METER:6;
#RADARVALUES:0.205539,0.254213,0.141229,0.052961,0.000000,163.000000,147.000000,16.000000,6.000000,0.000000,0.000000,0.000000,0.000000,0.000000,0.205539,0.254213,0.141229,0.052961,0.000000,163.000000,147.000000,16.000000,6.000000,0.000000,0.000000,0.000000,0.000000,0.000000;
#CREDIT:MILEN;
#NOTES:
00000000
00000000
00000000
00000000
,
00000000
00000000
00000000
00000000
,
00000000
00000000
00000000
00000000
,
00000000
00000000
00000000
00000000
,
10000000
01000000
00100000
00010000
,
00001000
00000000
00001000
00000000
00000010
00000100
00000001
00000000
,
00000011
00000000
00000000
00000000
00000100
00000010
00001000
00000000
,
00001100
00000010
00000100
00000001
,
00000001
00000010
00000100
00001000
,
00010000
00000000
00010000
00000000
01000000
00100000
10000000
00000000
,
11000000
00000000
00000000
00000000
00100000
01000000
00010000
00000000
,
00110000
01000000
00100000
10000000
,
10000000
01000000
00010000
00001000
,
00011000
00000001
00000010
00001000
,
00011000
10000000
01000000
00010000
,
00001000
00010000
00001000
00010000
00000010
00000000
00001000
00000000
,
00001001
00000010
00001000
00100000
,
10010000
01000000
00001000
00000100
,
00000001
00000010
00000001
00000000
00001000
00000100
00001000
00000000
,
00000001
00000010
00000100
00010000
00001000
00001000
00001000
00000000
,
00011000
01000000
10000000
00100000
,
00011000
00000100
00000001
00000010
,
00001000
00010000
00100000
00000000
00010000
00001000
00000100
00000000
,
00001000
01000000
00010000
00000100
,
00000002
00000010
00000100
00001003
,
00020000
00000010
00000100
00031000
,
00200000
01300000
20000000
30010000
,
10100000
00110000
00011000
00001100
,
00000101
00000000
00000001
00000010
00000100
00000000
00000010
00000100
,
00001000
00000000
00000100
00001000
00010000
00000000
10000000
01000000
,
00100000
00000000
01000000
00100000
00010000
00000000
00100000
00010000
,
00002000
00000000
00000000
00000000
00003000
00000000
00000010
00000001
,
00000100
00000000
00000100
00001000
00010000
00000000
00010000
00100000
,
10000000
00000000
10000000
01000000
01100000
00000000
10000000
01000000
,
00010000
00000000
00010000
00001000
00000010
00000000
00000010
00000001
,
00000200
00000000
00000000
00000000
,
00000300
00000000
00000000
00000000
;

//---------------dance-single - ----------------
#NOTEDATA:;
#CHARTNAME:;
#STEPSTYPE:dance-single;
#DESCRIPTION:;
#CHARTSTYLE:;
#DIFFICULTY:Hard;
#METER:8;
#RADARVALUES:0.341724,0.365431,0.423688,0.079441,0.132402,271.000000,223.000000,48.000000,9.000000,0.000000,0.000000,0.000000,0.000000,0.000000,0.341724,0.365431,0.423688,0.079441,0.132402,271.000000,223.000000,48.000000,9.000000,0.000000,0.000000,0.000000,0.000000,0.000000;
#CREDIT:MILEN;
#NOTES:
0000
0000
0000
0000
,
0000
0000
0000
0000
,
0000
0000
0000
0000
,
0000
0000
0000
0000
,
1000
0100
1000
0001
0100
0001
1000
0100
,
1000
0010
0000
0010
1000
0000
0100
0010
0100
0000
0010
0000
0001
0000
0100
0000
,
0101
0000
0011
0000
0010
0100
1000
0010
,
1010
0000
0000
0000
1100
0000
0000
0000
1001
0000
0000
0000
1000
0001
1000
0000
,
0001
0100
0001
1000
0100
1000
0001
0100
,
0001
0010
0000
0010
0001
0000
0100
0010
0100
0000
0010
0000
1000
0000
0100
0000
,
1100
0000
1010
0000
0010
0100
0001
0010
,
0011
0000
0000
0000
0101
0000
0000
0000
0110
0000
0010
0000
1000
0100
0010
0000
,
0100
0000
1000
0000
0010
0000
0100
0001
0000
0001
0100
0000
0001
1000
0100
1000
,
0001
0000
0010
0000
0100
0000
1000
0010
0100
0000
0001
0000
1000
0000
0100
0010
,
0000
0011
0001
1010
1000
0101
0001
1100
,
1000
0010
0001
0100
2002
0000
3003
0000
,
1000
0000
0010
0000
0100
0000
0001
0010
0000
0000
1000
0100
0000
0000
0001
0000
,
0001
0000
0100
0000
0010
0000
1000
0100
0000
0000
0001
0010
0000
0000
0000
0000
,
1001
0000
0010
0100
0001
0000
0011
0000
0000
0000
0100
0010
1000
0000
1100
0000
,
0001
0010
0100
1000
0001
0100
0010
1001
,
1001
0010
0100
0001
0100
1000
0100
1001
,
1001
0100
0010
1000
0010
0001
0010
1000
,
0100
0000
0010
0001
1000
0000
1100
0000
0000
0000
0100
1000
0001
0000
0011
0000
,
2000
0000
0000
0000
3200
0000
0000
0000
0320
0000
0000
0000
0032
0000
0103
0010
,
0100
0000
0110
0000
0000
1010
0000
0000
1100
0000
0000
0101
0000
0000
0011
0000
,
0000
0000
0110
0000
0000
0011
0000
0000
0101
0000
0000
1100
0000
0000
1010
0000
,
0000
0000
0110
0000
0000
1010
0000
0000
0011
0000
0000
1100
0000
0000
0101
0000
,
0000
0000
1001
0000
0000
0101
0000
0000
1100
0000
0000
0000
1000
0000
0100
0000
,
0010
0010
0001
0100
0010
0010
1000
0100
,
0010
0010
0001
0001
0001
0000
1000
0010
,
0100
0100
0001
0010
0100
0100
1000
0010
,
0200
0000
0000
0000
0300
0000
0001
0001
,
0011
0000
1000
1000
1010
0000
0001
0001
,
0101
0000
1000
0100
0010
0000
0100
0100
,
1100
0000
0010
0010
0011
0000
0100
0100
,
2002
0000
0000
0000
,
3003
0000
0000
0000
;

//---------------dance-double - ----------------
#NOTEDATA:;
#CHARTNAME:;
#STEPSTYPE:dance-double;
#DESCRIPTION:;
#CHARTSTYLE:;
#DIFFICULTY:Hard;
#METER:8;
#RADARVALUES:0.322810,0.365431,0.388380,0.123576,0.075028,256.000000,212.000000,44.000000,14.000000,0.000000,0.000000,0.000000,0.000000,0.000000,0.322810,0.365431,0.388380,0.123576,0.075028,256.000000,212.000000,44.000000,14.000000,0.000000,0.000000,0.000000,0.000000,0.000000;
#CREDIT:MILEN;
#NOTES:
// measure 0
00000000
00000000
00000000
00000000
,  // measure 1
00000000
00000000
00000000
00000000
,  // measure 2
00000000
00000000
00000000
00000000
,  // measure 3
00000000
00000000
00000000
00000000
,  // measure 4
00001000
00010000
01000000
00010000
00001000
00010000
01000000
10000000
,  // measure 5
00100000
00000000
00010000
00000000
00001000
00000000
00000010
00000100
00000010
00000000
00000001
00000000
00000100
00000000
00001000
00000000
,  // measure 6
00011000
00000000
00110000
00000000
00100000
10000000
01000000
00010000
,  // measure 7
00011000
00000000
00001010
00000000
00000101
00000000
00000010
00000010
,  // measure 8
00010000
00001000
00000100
00001000
00010000
00001000
00000100
00000001
,  // measure 9
00000010
00000000
00001000
00000000
00010000
00000000
00100000
01000000
00100000
00000000
10000000
00000000
01000000
00000000
00010000
00000000
,  // measure 10
00011000
00000000
00001010
00000000
00000010
00000001
00000100
00001000
,  // measure 11
00011000
00000000
00000000
00000000
00110000
00000000
00000000
00000000
11000000
00000000
00000000
00000000
10000000
00010000
10000000
00000000
,  // measure 12
00100000
00000000
00010000
00000000
00100000
00000000
10000000
00000000
01000000
00000000
00010000
00000000
00001000
00010000
00001000
00000000
,  // measure 13
00000100
00000000
00000001
00000000
00000010
00000000
00001000
00000000
00000010
00000000
00000001
00000000
00000100
00000000
00001000
00010000
,  // measure 14
00000000
00010100
00010000
00011000
00001000
01001000
01000000
01010000
,  // measure 15
00010000
00100000
01000000
10000000
20020000
00000000
30030000
00000000
,  // measure 16
00010000
00100000
01000000
00010000
00001000
00100000
01000000
01000000
,  // measure 17
00001000
00000100
00000010
00001000
00010000
00000100
00000010
00000001
,  // measure 18
00000101
00000000
00000100
00001000
00010000
00000000
00001000
00000000
00000000
00000000
00000100
00001000
00010000
00000000
00001000
00000000
,  // measure 19
00000100
00000001
00000010
00001000
00010000
01000000
10000000
00010000
,  // measure 20
10010000
01000000
00100000
00010000
00001000
00000100
00000001
00001000
,  // measure 21
00001001
00000010
00000100
00001000
00010000
00100000
10000000
00010000
,  // measure 22
10010000
00000000
10000000
01000000
00010000
00000000
01000000
00000000
00000000
00000000
10000000
01000000
00010000
00000000
01000000
00000000
,  // measure 23
20000000
00000000
00000000
00000000
30200000
00000000
00000000
00000000
00320000
00000000
00000000
00000000
00032000
00000000
00003100
00000010
,  // measure 24
00000100
00000000
00000101
00000000
00000000
00001010
00000000
00000000
00011000
00000000
00000000
00110000
00000000
00000000
11000000
00000000
,  // measure 25
00000000
00000000
10100000
00000000
00000000
01010000
00000000
00000000
00011000
00000000
00000000
00001100
00000000
00000000
00000011
00000000
,  // measure 26
00000000
00000000
00000101
00000000
00000000
00010010
00000000
00000000
00011000
00000000
00000000
00101000
00000000
00000000
11000000
00000000
,  // measure 27
00000000
00000000
00110000
00000000
00000000
00011000
00000000
00000000
00001010
00000000
00000000
00000000
00000001
00000000
00000100
00000000
,  // measure 28
00002000
00000000
00003100
00001000
00020000
00000000
00031000
00010000
,  // measure 29
00200000
00000000
10300000
00010000
10010000
00000000
10000000
01000000
,  // measure 30
00020000
00000000
01030000
00010000
00002000
00000000
00013000
00001000
,  // measure 31
00000020
00000000
00000000
00000000
00000030
00000000
00000001
00000001
,  // measure 32
00001100
00000000
00000010
00000010
00011000
00000000
00100000
00100000
,  // measure 33
01010000
00000000
10000000
01000000
00100000
00000000
10000000
10000000
,  // measure 34
00110000
00000000
00001000
00001000
00010010
00000000
00000100
00000100
,  // measure 35
00000022
00000000
00000000
00000000
,  // measure 36
00000033
00000000
00000000
00000000
;
