#TITLE:ちるちる;
#SUBTITLE:;
#ARTIST:REOL;
#TITLETRANSLIT:ChiruChiru;
#SUBTITLETRANSLIT:;
#ARTISTTRANSLIT:;
#GENRE:J-MUSIC;
#CREDIT:MUINELIM;
#BANNER:ChiruChiru.png;
#BACKGROUND:ChiruChiru-bg.png;
#LYRICSPATH:;
#CDTITLE:;
#MUSIC:ChiruChiru.ogg;
#OFFSET:1.174399;
#SAMPLESTART:53.200596;
#SAMPLELENGTH:15.000004;
#LASTBEATHINT:0.354985;
#SELECTABLE:YES;
#DISPLAYBPM:128.000000;
#BPMS:0.000000=128.000000
;
#STOPS:
;
#BGCHANGES:0.000=ChiruChiru-bg.png=1.000=0=0=1====#000000=#000000,
2.500=ChiruChiru.avi=1.000=0=0=0=StretchNoLoop====,
99999=-nosongbg-=1.000=0=0=0 // don't automatically add -songbackground-
;
#KEYSOUNDS:;
#ATTACKS:;

//---------------dance-single - ----------------
#NOTES:
     dance-single:
     :
     Beginner:
     3:
     0.123632,0.184090,0.022382,0.000000,0.000000,116.000000,113.000000,3.000000,0.000000,0.000000,0.000000,0.123632,0.184090,0.022382,0.000000,0.000000,116.000000,113.000000,3.000000,0.000000,0.000000,0.000000:
0000
0000
0000
0000
,
0000
0000
0000
0000
,
0000
0000
0000
0000
,
0000
0000
0000
0000
,
0000
0000
0000
0000
,
0001
0000
0010
0000
,
0001
0000
0001
0000
,
1000
0000
0100
0000
,
1000
0000
1000
0000
,
0001
0000
0100
0000
,
0001
0000
0001
0000
,
1000
0000
0010
0000
,
1000
0000
1000
0000
,
0001
0000
0100
0000
,
0010
0000
0100
0000
,
0001
0000
0001
0000
,
0010
0000
0010
0000
,
1000
0000
0100
0000
,
0010
0000
0100
0000
,
1000
0000
1000
0000
,
0010
0000
0010
0000
,
0001
0000
0000
0000
,
1000
0000
0000
0000
,
0001
0000
0000
0000
,
1000
0000
0000
0000
,
0010
0000
0010
0000
,
0100
0000
0100
0000
,
0010
0000
0100
0000
,
0010
0010
0010
0000
,
1000
0000
0100
0000
,
1000
0000
0100
0000
,
0010
0000
0001
0000
,
0010
0000
0010
0000
,
0001
0000
0100
0000
,
0001
0000
0100
0000
,
0010
0000
1000
0000
,
0010
0000
0010
0000
,
0110
0000
0000
0000
,
0000
0000
0000
0000
,
0000
0000
0000
0000
,
0000
0000
0000
0000
,
0100
0000
0000
0000
,
0010
0000
0000
0000
,
0100
0000
0000
0000
,
0010
0000
0000
0000
,
1000
0000
1000
0000
,
0001
0000
0001
0000
,
0100
0000
0100
0000
,
0010
0000
0010
0000
,
1000
0000
1000
0000
,
0001
0000
0001
0000
,
0010
0000
0010
0000
,
0100
0000
0100
0000
,
1001
0000
0000
0000
,
0000
0000
0000
0000
,
1001
0000
0000
0000
,
0000
0000
0000
0000
,
0001
0000
1000
0000
,
0001
0000
1000
0000
,
0010
0000
0100
0000
,
0010
0000
0000
0000
,
1000
0000
0010
0000
,
0100
0000
0010
0000
,
1000
0000
0100
0000
,
0001
0000
0010
0000
,
1000
0000
0100
0000
,
0010
0000
0100
0000
,
1000
0000
0010
0000
,
0001
0000
0100
0100
,
0100
0000
1000
0000
,
1000
1000
1000
0000
;

//---------------dance-single - ----------------
#NOTES:
     dance-single:
     :
     Easy:
     5:
     0.177988,0.237526,0.059685,0.052224,0.000000,167.000000,159.000000,8.000000,7.000000,0.000000,0.000000,0.177988,0.237526,0.059685,0.052224,0.000000,167.000000,159.000000,8.000000,7.000000,0.000000,0.000000:
0000
0000
0000
0000
,
0000
0000
0000
0000
,
0000
0000
0000
0000
,
0000
0000
0000
0000
,
0000
0000
0000
0000
,
1000
0000
0001
0000
,
1000
0000
0010
0000
,
0001
0000
1000
0000
,
0001
0000
0100
0000
,
1000
0000
0001
0000
,
1000
0000
0010
0000
,
0100
0000
0010
0000
,
1000
0000
0001
0001
,
0001
0000
0010
0000
,
0001
0000
0100
0000
,
1000
0000
0010
0000
,
1000
0000
0100
0000
,
0001
0000
1000
0000
,
0001
0000
0100
0000
,
0010
0000
0100
0000
,
0001
0000
1000
1000
,
1000
0000
0100
0000
,
0010
0000
0001
0000
,
1000
0000
0100
0000
,
0010
0010
0100
0100
,
0010
0000
0001
0000
,
1000
0000
0100
0000
,
0010
0000
0001
0001
,
1000
1000
1001
0000
,
0001
0100
0001
0000
,
0100
1000
0100
0000
,
0001
0100
0001
0000
,
0100
1000
0100
0010
,
1000
0100
1000
0000
,
0100
0001
0100
0000
,
1000
0100
1000
0000
,
0100
0001
0100
0010
,
0002
0000
0003
0000
,
2000
0000
3000
0000
,
0020
0000
0030
0000
,
0200
0000
0300
0000
,
0001
0000
1000
0000
,
0010
0000
0100
0000
,
0001
0000
1000
0000
,
0020
0130
0010
0110
,
1000
0000
0010
0000
,
0001
0000
0100
0000
,
0001
0000
0010
0000
,
1000
0000
0100
0100
,
0001
0000
0010
0000
,
0001
0000
0100
0000
,
1000
0000
0010
0000
,
1000
1000
0100
0100
,
0110
0000
0000
0000
,
0110
0000
0000
0000
,
0110
0000
0000
0000
,
0110
0000
0000
0000
,
0001
0000
0001
0000
,
1000
0000
1000
0000
,
0001
0001
1000
1000
,
0001
1000
2002
3003
,
0001
0010
0001
0000
,
0010
1000
0010
0000
,
0001
0010
0001
0000
,
0010
1000
0010
0100
,
1000
0010
1000
0000
,
0010
0001
0010
0000
,
1000
0010
1000
0000
,
0010
0001
0010
0100
,
0001
0000
0010
0000
,
1000
0000
0100
0110
;

//---------------dance-single - ----------------
#NOTES:
     dance-single:
     :
     Medium:
     8:
     0.332528,0.369485,0.164133,0.104448,0.000000,312.000000,290.000000,22.000000,14.000000,0.000000,0.000000,0.332528,0.369485,0.164133,0.104448,0.000000,312.000000,290.000000,22.000000,14.000000,0.000000,0.000000:
0000
0000
0000
0000
,
0000
0000
0000
0000
,
0000
0000
0000
0000
,
0000
0000
0000
0000
,
0000
0000
0000
1001
,
1000
0010
0100
0001
,
0100
0000
0010
0000
1000
1000
0000
0000
,
0001
0100
0010
1000
,
0010
0000
0100
0000
0001
0001
0000
0000
,
1000
0100
0010
0001
,
0010
0100
1000
1001
,
0001
0010
0100
1000
,
0100
0000
0010
0000
0001
1000
0001
0000
,
1000
0010
0100
0001
,
1000
0000
0010
0100
0010
0100
0000
0000
,
0001
0100
0010
1000
,
0001
0000
0100
0010
0100
0010
0000
0000
,
1000
0100
0010
0001
,
1000
0000
0010
0100
0000
0010
0100
0000
,
0010
1000
0001
0100
,
0010
1000
0010
0000
0100
0001
0100
0000
,
0010
0000
1000
0000
0100
0010
0000
0100
,
0000
0010
0000
0001
1000
0001
1000
0000
,
0010
0000
0100
0000
0001
1000
0000
0001
,
0000
1000
0000
0001
0000
0100
0010
0100
,
0010
1010
1000
1001
,
0001
0101
0100
0110
,
0010
0000
1000
0000
0100
0000
0010
0100
,
0000
0010
0000
0001
2000
0000
3001
0000
,
0001
0000
0100
0000
0001
0010
0000
0010
,
0000
0001
0000
0100
0010
1000
0010
0000
,
1000
0000
0100
0000
1000
0010
0000
0010
,
0000
0100
0000
0001
0000
0010
0100
0010
,
0001
0000
1000
0000
0010
1000
0000
0100
,
0000
1000
0100
1000
0010
0000
0100
0001
,
0010
0000
0001
0000
0100
0010
0100
0001
,
0000
1000
0000
0001
0100
0000
0110
0000
,
2000
3000
0200
0300
,
0020
0030
0002
0003
,
0200
0300
0020
0030
,
2000
3000
0002
0103
,
0100
0010
0100
0001
,
1000
0001
0100
0010
,
1000
0001
0010
0100
,
2002
0000
3003
0000
0001
1000
0001
0000
,
1000
0010
0001
0010
,
1000
0000
0100
0010
0000
0000
0110
0000
,
0001
0100
1000
0100
,
0001
0011
1000
1100
,
0001
0100
1000
0100
,
0001
0000
0010
0100
0000
0000
1001
0000
,
1000
0010
0001
0010
,
1000
0100
1000
0000
0001
0010
0001
0000
,
0101
0000
1010
0000
0000
1100
0000
0011
,
0000
0000
1001
0000
0000
0010
0010
0000
,
0100
0000
0110
0000
0000
1010
0000
0202
,
0000
0000
0000
0303
0000
0001
0010
0100
,
1000
0010
0001
0010
,
1000
0100
0001
0100
,
1000
0100
0010
0000
0001
0010
0100
0010
,
0000
0001
0000
1000
0200
0000
0000
0000
,
0310
0000
0001
0000
0100
0010
1000
0000
,
0100
0000
1000
0000
0010
0100
0001
0000
,
1000
0000
0001
0000
0100
0010
1000
0001
,
0000
0010
0000
0100
0000
1000
0001
0000
,
0100
0000
0010
0000
1000
0100
0010
0000
,
0100
0000
0010
0000
0001
0010
0100
0000
,
1000
0000
0001
0000
0100
0010
1000
0001
,
0000
0010
0000
0100
1000
0000
1001
0000
,
0001
0000
1000
0000
0010
0100
0001
1000
,
0000
0100
0000
0010
0001
0000
1001
0000
;

//---------------dance-single - ----------------
#NOTES:
     dance-single:
     :
     Hard:
     13:
     0.548885,0.635641,0.537161,0.268581,0.123099,515.000000,443.000000,72.000000,36.000000,0.000000,0.000000,0.548885,0.635641,0.537161,0.268581,0.123099,515.000000,443.000000,72.000000,36.000000,0.000000,0.000000:
0000
0000
0000
0000
,
0000
0000
0000
0000
,
0000
0000
0000
0000
,
0000
0000
0000
0000
,
0000
0000
0000
0000
0000
0000
1001
0001
,
0100
0010
1000
0001
0010
0100
1000
0001
,
0100
0000
0010
0000
1000
0000
0001
0000
0010
0000
0100
0000
0000
0000
0100
1000
,
0100
0010
0001
1000
0010
0100
0001
1000
,
0100
0000
0010
0000
0001
0000
1000
0000
0010
0000
0100
0010
0100
0000
0100
0000
,
0001
0010
0100
1000
0001
0100
0010
1000
,
0001
0000
0010
0000
0100
0000
1000
0000
0000
0000
1001
0000
0000
0000
0001
0100
,
0001
0010
0100
0010
0000
0010
1000
0010
,
0000
0000
0010
0000
0001
0000
0010
0000
0100
0000
1000
0001
1000
0000
0000
0000
,
0001
0100
1000
0100
0001
0010
1000
0010
,
0001
0000
0100
0000
1000
0000
0100
0000
0001
0000
0010
0000
0000
0000
0010
0100
,
0010
0100
1000
0010
0001
0010
1000
0100
,
0001
0000
0100
0000
1000
0000
0010
0000
0001
0000
0010
1000
0010
0000
0010
0000
,
1000
0100
0001
0100
1000
0010
0001
0010
,
1000
0000
0100
0000
0010
0000
0001
0000
0000
0000
1001
0000
0000
0000
1000
0010
,
1000
0100
0001
0100
0000
1100
0000
0011
,
0000
0000
0001
0000
0100
0000
1000
0000
0100
0000
0001
0010
0001
0000
0000
0000
,
0101
0000
1010
0000
1000
0100
0000
0110
,
0000
0011
0000
1100
0200
0010
0310
0000
,
0011
0000
1100
0000
1000
0010
0000
0101
,
0000
1010
0000
1100
0000
0020
0001
0031
,
0101
0000
1010
0000
1000
0002
1000
1003
,
0000
0110
0010
1000
0001
0010
0100
1000
,
0002
0000
0103
0100
0010
0010
1000
1100
,
0000
0011
0000
1001
0200
0010
0310
0000
,
0110
0000
0000
0010
1000
0000
0000
0100
0001
0000
0010
0000
0100
0000
0010
0000
,
0000
0010
0001
0100
1000
0100
0101
0000
,
0110
0000
0000
0100
0001
0000
0000
0010
1000
0000
0100
0000
0010
0000
0100
0000
,
0000
0100
1000
0010
0001
0020
0100
0130
,
1001
0000
0000
1000
0010
0000
0000
0001
0100
0000
1000
0000
0001
0000
1000
0000
,
0000
1000
0100
0001
1000
0010
0001
0100
,
0110
0000
0000
0000
1001
0000
0001
0100
0001
0000
0010
0000
1000
0000
0001
0000
,
0100
0000
0100
0000
1000
0000
1000
0000
0010
0100
0010
0100
0010
0000
0000
0000
,
2000
3100
0002
0103
,
2000
3100
0002
0103
,
2000
3010
0002
0013
,
2000
0000
3010
0000
0001
0020
0000
1030
,
0200
1000
0010
1300
,
0020
0001
0100
0031
,
0200
1000
0001
1300
,
2002
0000
0000
0000
3003
0000
0000
0000
0001
1000
0001
1000
0001
0000
1000
0000
,
1000
0010
0001
1000
0100
0001
1000
0010
,
0001
0000
1000
0000
0100
0000
0002
0000
0000
0000
0013
0000
0110
0000
1000
0001
,
1000
0010
0100
1000
0001
0010
0100
0001
,
0000
0000
0011
0000
0000
0000
1100
0000
0000
0000
0010
0100
0010
0000
0010
0000
,
0001
0100
1000
0001
0010
1000
0001
0100
,
1000
0000
0001
0000
0010
0000
2000
0000
0000
0000
3100
0000
0110
0000
0001
1000
,
0001
0100
0010
0001
1000
0100
0010
1000
,
0000
0000
0001
0000
0100
0000
1000
0000
0001
0000
0010
0100
0010
0000
0000
0000
,
1001
0000
0220
0330
0000
1010
0000
0202
,
0303
0000
2002
3003
0000
0110
0110
0000
,
0101
0000
2020
3030
0000
1100
0000
0022
,
0000
0000
0000
0000
0033
0000
0000
0000
0001
1000
0020
0000
0100
0000
0130
0000
,
0001
1000
0010
0000
1000
0001
0100
0000
,
0001
0010
0100
0000
1000
0100
0010
0000
,
0001
0100
0001
1000
0010
1000
0100
0010
,
0220
0000
0330
1001
,
0110
0000
0000
0010
0001
0000
0000
0100
1000
0000
0010
0000
0100
0000
0101
0000
,
0001
0011
0100
1100
1000
0010
0110
0000
,
1001
0000
0000
0001
0010
0000
0000
1000
0100
0000
0010
0000
0100
0000
1100
0000
,
1000
1010
0001
0011
0001
0101
0100
0010
,
0110
0000
0000
0100
0001
0000
0000
0010
1000
0000
0100
0000
0010
0000
0110
0000
,
0100
1100
0001
0011
0010
0110
1000
0001
,
1001
0000
0000
0000
0110
0000
0010
0100
0001
0000
1000
0000
0100
0000
0011
0000
,
0001
0101
0010
1010
1000
1100
0001
0010
,
0110
0000
0000
0000
1001
0000
1000
0010
0100
0000
0001
0000
0010
0000
1010
0000
,
0000
0000
0101
0000
0000
0000
1100
0000
0100
0010
0001
0000
2002
0000
0000
0000
,
3003
0000
0000
0000
;

//---------------dance-double - ----------------
#NOTES:
     dance-double:
     :
     Hard:
     13:
     0.544622,0.635641,0.499858,0.246199,0.123099,511.000000,444.000000,67.000000,33.000000,0.000000,0.000000,0.544622,0.635641,0.499858,0.246199,0.123099,511.000000,444.000000,67.000000,33.000000,0.000000,0.000000:
00000000
00000000
00000000
00000000
,
00000000
00000000
00000000
00000000
,
00000000
00000000
00000000
00000000
,
00000000
00000000
00000000
00000000
,
00000000
00000000
00000000
00000000
00000000
00000000
00011000
00010000
,
00000100
00001000
00000010
00010000
00001000
00000100
00000010
00001000
,
00000100
00000000
00010000
00000000
00000010
00000000
00000100
00000000
00001000
00000000
00010000
00000000
00000000
00000000
00010000
00001000
,
00010000
00100000
01000000
00010000
00100000
00001000
01000000
00100000
,
00010000
00000000
00001000
00000000
00100000
00000000
00010000
00000000
01000000
00000000
00001000
00010000
00001000
00000000
00010000
00000000
,
00000100
00001000
00000010
00010000
00001000
00100000
00010000
01000000
,
00001000
00000000
00010000
00000000
00000100
00000000
00001000
00000000
00000000
00000000
00001001
00000000
00000000
00000000
00000001
00000010
,
00000001
00000100
00000010
00001000
00000000
00001000
00010000
01000000
,
00000000
00000000
01000000
00000000
00100000
00000000
10000000
00000000
00010000
00000000
00100000
01000000
00100000
00000000
00000000
00000000
,
01000000
10000000
00100000
00010000
00001000
00000010
00000001
00000100
,
00001000
00000000
00010000
00000000
00100000
00000000
10000000
00000000
01000000
00000000
00010000
00000000
00000000
00000000
00001000
00010000
,
00001000
00000010
00000001
00000100
00001000
00010000
00100000
10000000
,
01000000
00000000
00010000
00000000
00001000
00000000
00000010
00000000
00000001
00000000
00000100
00000010
00000100
00000000
00000010
00000000
,
00001000
00000100
00000010
00000001
00000100
00001000
00010000
00100000
,
10000000
00000000
01000000
00000000
00100000
00000000
00010000
00000000
00000000
00000000
00011000
00000000
00000000
00000000
00001000
00000010
,
00001000
00000100
00000010
00000001
00000000
00000101
00000000
00001010
,
00000000
00000000
00001000
00000000
00000100
00000000
00000010
00000000
00001000
00000000
00010000
00001000
00010000
00000000
00100000
00000000
,
10100000
00000000
11000000
00000000
01000000
00010000
00000000
00011000
,
00000000
00001010
00000000
00000011
00000001
00000100
00000010
00000000
,
00001010
00000000
00000101
00000000
00000001
00000010
00000000
00001010
,
00000000
00011000
00000000
01010000
00000000
01000000
10000000
00100000
,
01100000
00000000
10010000
00000000
10000000
01000000
00010000
00001000
,
00000000
00010000
00001000
00000100
00000001
00000010
00000100
00001000
,
00000020
00000000
00010030
00001000
00100000
01000000
10000000
10100000
,
00000000
01010000
00000000
00011000
00001000
00000100
00000002
00000000
,
00000013
00000000
00000000
00000010
00000100
00000000
00000000
00000010
00000001
00000000
00000100
00000000
00001000
00000000
00010000
00000000
,
00000000
00100000
10000000
01000000
00100000
01000000
01100000
00000000
,
10010000
00000000
00000000
01000000
00100000
00000000
00000000
01000000
10000000
00000000
00100000
00000000
00010000
00000000
00001000
00000000
,
00000000
00000100
00000001
00000010
00000100
00000010
00000001
00001000
,
00001001
00000000
00000000
00000001
00000100
00000000
00000000
00001000
00000100
00000000
00000001
00000000
00000010
00000000
00001000
00000000
,
00000000
00010000
00001000
00000100
00001000
00010000
01000000
10000000
,
10100000
00000000
00000000
00000000
01010000
00000000
01000000
00100000
01000000
00000000
00001000
00000000
00010000
00000000
00000100
00000000
,
00000010
00000000
00000001
00000000
00000100
00000000
00001000
00000000
00010000
00001000
00010000
00001000
00010000
00000000
00000000
00000000
,
00002000
01003000
00020000
00030100
,
00002000
00103000
00020000
00030010
,
00002000
00103000
00020000
00030100
,
00002000
00000000
01003000
00000000
00001000
00020000
00000000
00030010
,
00002010
00003100
00000120
00000031
,
00000201
00001300
00021000
01030000
,
21000000
30100000
02100000
03001000
,
00022000
00000000
00000000
00000000
00033000
00000000
00000000
00000000
00010000
00001000
00010000
00001000
00010000
00000000
00000100
00000000
,
00001000
00000010
00010000
00001000
00000100
00001000
00010000
00000010
,
00001000
00000000
00000100
00000000
00000010
00000000
00000002
00000000
00000000
00000000
00000103
00000000
00000110
00000000
00000010
00001000
,
00000010
00010000
00001000
00000100
00010000
01000000
00001000
00010000
,
00000000
00000000
00110000
00000000
00000000
00000000
10100000
00000000
00000000
00000000
10000000
01000000
10000000
00000000
00100000
00000000
,
00010000
00001000
00100000
01000000
00010000
00001000
00010000
01000000
,
00100000
00000000
00001000
00000000
00010000
00000000
00000200
00000000
00000000
00000000
00001300
00000000
00001001
00000000
00000001
00001000
,
00000001
00000010
00000100
00001000
00010000
01000000
00100000
10000000
,
00000000
00000000
01000000
00000000
00100000
00000000
00010000
00000000
00001000
00000000
00000010
00000100
00000010
00000000
00000000
00000000
,
00001001
00000000
00000220
00000330
00000000
00011000
00000000
02200000
,
03300000
00000000
20020000
30030000
00000000
10100000
10100000
00000000
,
01010000
00000000
00002200
00003300
00000000
00000011
00000000
00002002
,
00000000
00000000
00000000
00000000
00003003
00000000
00000000
00000000
00000010
00000100
00000010
00000000
00001000
00000000
00000001
00000000
,
00000100
00001000
00010000
00000000
01000000
00010000
00001000
00000000
,
00000010
00001000
00010000
00000000
00100000
00010000
00001000
00000000
,
00000100
00001000
00010000
01000000
00010000
00001000
00000010
00001000
,
00022000
00000000
00033000
01001000
,
00010010
00000000
00000000
00001000
00000100
00000000
00000000
00000010
00000001
00000000
00000100
00000000
00001000
00000000
00010000
00000000
,
00001000
00000010
00001000
00010000
00100000
00010000
00010010
00000000
,
01001000
00000000
00000000
00010000
00100000
00000000
00000000
01000000
10000000
00000000
00100000
00000000
00010000
00000000
00001000
00000000
,
00010000
01000000
00010000
00001000
00000100
00001000
00010000
01000000
,
11000000
00000000
00000000
00100000
00010000
00000000
00000000
00001000
00000100
00000000
00000010
00000000
00000001
00000000
00000101
00000000
,
00001000
00001100
00010000
00011000
00100000
00110000
10000000
00100000
,
10100000
00000000
00000000
00000000
01010000
00000000
00010000
00100000
00010000
00000000
10000000
00000000
01000000
00000000
11000000
00000000
,
00010000
01010000
00001000
00011000
00000100
00001100
00000001
00000100
,
00000101
00000000
00000000
00000000
00000011
00000000
00000010
00000100
00000010
00000000
00001000
00000000
00010000
00000000
01000000
00000000
,
00000000
00000000
10100000
00000000
00000000
00000000
00110000
00000000
00010000
00001000
00000010
00000000
00000002
00000000
00000000
00000000
,
00000003
00000000
00000000
00000000
;

//---------------dance-double - ----------------
#NOTES:
     dance-double:
     :
     Easy:
     5:
     0.170527,0.237526,0.059685,0.052224,0.000000,160.000000,152.000000,8.000000,7.000000,0.000000,0.000000,0.170527,0.237526,0.059685,0.052224,0.000000,160.000000,152.000000,8.000000,7.000000,0.000000,0.000000:
00000000
00000000
00000000
00000000
,
00000000
00000000
00000000
00000000
,
00000000
00000000
00000000
00000000
,
00000000
00000000
00000000
00000000
,
00000000
00000000
00000000
00000000
,
00001000
00000000
00010000
00000000
,
00001000
00000000
01000000
00000000
,
00001000
00000000
00010000
00000000
,
00001000
00000000
00100000
00000000
,
00001000
00000000
00010000
00000000
,
00001000
00000000
01000000
00000000
,
00001000
00000000
00010000
00000000
,
00001000
00000000
00100000
00001000
,
00010000
00000000
00001000
00000000
,
00010000
00000000
00000010
00000000
,
00010000
00000000
00001000
00000000
,
00010000
00000000
00000100
00000000
,
00010000
00000000
00001000
00000000
,
00010000
00000000
00000010
00000000
,
00010000
00000000
00001000
00000000
,
00010000
00000000
00000100
00010000
,
00001000
00000000
01000000
00000000
,
00100000
00000000
00010000
00000000
,
00001000
00000000
00000100
00000000
,
00000010
00000000
00010000
00000000
,
00001000
00000000
00100000
00000000
,
01000000
00000000
00010000
00000000
,
00001000
00000000
00000010
00000000
,
00000100
00000000
00001001
00000000
,
00000001
00000010
00000001
00000000
,
00001000
00000100
00001000
00000000
,
00000001
00000010
00000001
00000000
,
00001000
00000100
00010000
00001000
,
00100000
00010000
00100000
00000000
,
01000000
10000000
01000000
00000000
,
00100000
00010000
00100000
00000000
,
01000000
10000000
01000000
00100000
,
00020000
00000000
00030000
00000000
,
02000000
00000000
03000000
00000000
,
00002000
00000000
00003000
00000000
,
00020000
00000000
00030000
00000000
,
00000100
00000000
00001000
00000000
,
00000010
00000000
00010000
00000000
,
00001000
00000000
00100000
00000000
,
00020000
10030000
00010000
10010000
,
10000000
00000000
01000000
00000000
,
00010000
00000000
00001000
00000000
,
00000010
00000000
00000001
00000000
,
00000100
00000000
00001000
00000000
,
00010000
00000000
00100000
00000000
,
10000000
00000000
01000000
00000000
,
00010000
00000000
00001000
00000000
,
00000100
00000000
00000001
00000000
,
00001001
00000000
00000000
00000000
,
00011000
00000000
00000000
00000000
,
10010000
00000000
00000000
00000000
,
00011000
00000000
00000000
00000000
,
00001000
00000000
00001000
00000000
,
00010000
00000000
00010000
00000000
,
00001000
00001000
00010000
00010000
,
00001000
00010000
00022000
00033000
,
00001000
01000000
00001000
00000000
,
00010000
00000010
00010000
00000000
,
00001000
00100000
00001000
00000000
,
00010000
00000100
00010000
00001000
,
00100000
00001000
00010000
00000000
,
00000010
00010000
00001000
00000000
,
01000000
00001000
00010000
00000000
,
00000100
00010000
00001000
00100000
,
01000000
00000000
10000000
00000000
,
00100000
00000000
00010000
00011000
;

//---------------dance-double - ----------------
#NOTES:
     dance-double:
     :
     Medium:
     8:
     0.317607,0.343093,0.096987,0.089527,0.000000,298.000000,285.000000,13.000000,12.000000,0.000000,0.000000,0.317607,0.343093,0.096987,0.089527,0.000000,298.000000,285.000000,13.000000,12.000000,0.000000,0.000000:
// measure 0
00000000
00000000
00000000
00000000
,  // measure 1
00000000
00000000
00000000
00000000
,  // measure 2
00000000
00000000
00000000
00000000
,  // measure 3
00000000
00000000
00000000
00000000
,  // measure 4
00000000
00000000
00000000
00011000
,  // measure 5
00001000
00100000
00001000
00010000
,  // measure 6
00000010
00000000
00010000
00000000
00001000
00001000
00000000
00000000
,  // measure 7
00010000
00000100
00010000
00001000
,  // measure 8
01000000
00000000
00001000
00000000
00010000
00010000
00000000
00000000
,  // measure 9
00001000
00100000
00010000
01000000
,  // measure 10
00100000
00010000
00001000
00011000
,  // measure 11
00010000
00000100
00001000
00000010
,  // measure 12
00000100
00000000
00001000
00000000
00010000
00001000
00010000
00000000
,  // measure 13
01000000
10000000
00100000
00010000
,  // measure 14
00001000
00000000
00010000
00001000
00010000
00001000
00000000
00000000
,  // measure 15
00010000
00001000
00000100
00000001
,  // measure 16
00000010
00000000
00001000
00010000
00001000
00010000
00000000
00000000
,  // measure 17
00001000
00010000
00100000
10000000
,  // measure 18
01000000
00000000
00010000
00001000
00000000
00010000
00001000
00000000
,  // measure 19
00010000
00001000
00000100
00000001
,  // measure 20
00000010
00000100
00000010
00000000
00000100
00000010
00000100
00000000
,  // measure 21
00001000
00000000
00000001
00000000
00000100
00001000
00000000
00010000
,  // measure 22
00000000
00100000
00000000
10000000
01000000
10000000
01000000
00000000
,  // measure 23
00010000
00000000
00001000
00000000
00000010
00000001
00000000
00000100
,  // measure 24
00000000
00001000
00000000
00010000
00000000
00100000
10000000
00100000
,  // measure 25
10000000
01000000
00100000
00001000
,  // measure 26
00010000
00000100
00000010
00000001
,  // measure 27
00000100
00000000
00001000
00000000
00010000
00000000
00100000
10000000
,  // measure 28
00000000
01000000
00000000
00100000
00002000
00000000
00013000
00000000
,  // measure 29
00010000
00000000
00001000
00000000
00000100
00000001
00000000
00000010
,  // measure 30
00000000
00000001
00000000
00000100
00001000
00010000
00001000
00000000
,  // measure 31
00010000
00000000
00100000
00000000
10000000
01000000
00000000
00100000
,  // measure 32
00000000
01000000
00000000
10000000
00000000
00100000
00010000
00001000
,  // measure 33
00010000
00000000
00001000
00000000
00000010
00000001
00000000
00000100
,  // measure 34
00000000
00000001
00000010
00000100
00000010
00000000
00001000
00000000
,  // measure 35
00010000
00000000
01000000
00000000
10000000
00100000
01000000
00100000
,  // measure 36
00000000
00010000
00000000
00001000
00010000
00000000
00011000
00000000
,  // measure 37
02000000
00000000
00000000
03000000
,  // measure 38
00002000
00000000
00000000
00003000
,  // measure 39
00020000
00000000
00000000
00030000
,  // measure 40
00000020
00000000
00000000
00001030
,  // measure 41
00001000
00000100
00000010
00000001
,  // measure 42
00000100
00001000
00010000
00100000
,  // measure 43
10000000
01000000
00100000
00010000
,  // measure 44
20020000
00000000
30030000
00000000
10000000
00010000
10000000
00000000
,  // measure 45
00100000
00010000
00001000
00000100
,  // measure 46
00000001
00000000
00000010
00000100
00000000
00000000
00000110
00000000
,  // measure 47
00000001
00000100
00001000
00010000
,  // measure 48
00200000
10300000
02000000
03010000
,  // measure 49
00010000
00100000
01000000
00010000
,  // measure 50
00001000
00000000
00000010
00000100
00000000
00000000
00001001
00000000
,  // measure 51
00000001
00001000
00000100
00000010
,  // measure 52
00000001
00000100
00001000
00000000
00010000
00100000
10000000
00000000
,  // measure 53
11000000
00000000
01000000
00000000
00000000
01010000
00000000
00010000
,  // measure 54
00000000
00000000
00011000
00000000
00000000
00001000
00000010
00000000
,  // measure 55
00000001
00000000
00000101
00000000
00000000
00001000
00000000
00002020
,  // measure 56
00000000
00000000
00000000
00003030
00000000
00000010
00010000
00001000
,  // measure 57
00100000
01000000
10000000
00100000
,  // measure 58
00010000
00001000
00000100
00000001
,  // measure 59
00000010
00000100
00001000
00000000
00000100
00010000
00001000
00010000
,  // measure 60
00000000
01000000
00000000
10000000
00200000
00000000
00000000
00000000
,  // measure 61
01300000
00000000
00010000
00000000
10000000
00100000
01000000
00000000
,  // measure 62
00100000
00000000
00010000
00000000
00001000
00010000
00000100
00000000
,  // measure 63
00001000
00000000
00000001
00000000
00001000
00000100
00000010
00000001
,  // measure 64
00000000
00000100
00000000
00000010
00000000
00001000
00000001
00000000
,  // measure 65
00000100
00000000
00001000
00000000
00010000
00100000
01000000
00000000
,  // measure 66
00100000
00000000
10000000
00000000
01000000
00010000
00001000
00000000
,  // measure 67
00000100
00000000
00000001
00000000
00000010
00000100
00001000
00000001
,  // measure 68
00000000
00000100
00000000
00001000
00010000
00000000
00011000
00000000
,  // measure 69
00001000
00000000
00100000
00000000
01000000
10000000
00100000
00010000
,  // measure 70
00000000
00001000
00000000
00000100
00000001
00000000
00001001
00000000
;
