#TITLE:Celebrity;
#SUBTITLE:;
#ARTIST:IU;
#TITLETRANSLIT:;
#SUBTITLETRANSLIT:;
#ARTISTTRANSLIT:;
#GENRE:K-POP;
#CREDIT:MUINELIM;
#BANNER:Celebrity.png;
#BACKGROUND:Celebrity-bg.png;
#LYRICSPATH:;
#CDTITLE:;
#MUSIC:Celebrity.ogg;
#OFFSET:0.900000;
#SAMPLESTART:37.807999;
#SAMPLELENGTH:14.380001;
#SELECTABLE:YES;
#BPMS:0.000000=100.000000
;
#STOPS:
;
#BGCHANGES:0.000=Celebrity-bg.png=1.000=0=0=1====#000000=#000000,
2.000=Celebrity.avi=1.000=1=0=0=StretchNoLoop==CrossFade==,
99999=-nosongbg-=1.000=0=0=0 // don't automatically add -songbackground-
;
#KEYSOUNDS:;
#ATTACKS:;

//---------------dance-single - ----------------
#NOTES:
     dance-single:
     :
     Beginner:
     1:
     0.054128,0.080831,0.042100,0.000000,0.000000,45.000000,40.000000,5.000000,0.000000,0.000000,0.000000,0.054128,0.080831,0.042100,0.000000,0.000000,45.000000,40.000000,5.000000,0.000000,0.000000,0.000000:
0000
0000
0000
0000
,
1000
0000
0000
0000
,
1000
0000
0000
0000
,
1000
0000
0000
0000
,
0000
0000
0000
0000
,
0001
0000
0000
0000
,
0001
0000
0000
0000
,
0001
0000
0000
0000
,
0000
0000
0000
0000
,
1000
0000
0000
0000
,
0001
0000
0000
0000
,
1000
0000
0000
0000
,
0000
0000
0000
0000
,
0001
0000
0000
0000
,
1000
0000
0000
0000
,
0001
0000
0000
0000
,
1001
0000
0000
0000
,
1000
0000
0000
0000
,
0100
0000
0000
0000
,
0010
0000
0000
0000
,
0001
0000
0000
0000
,
0001
0000
0000
0000
,
0010
0000
0000
0000
,
0100
0000
0000
0000
,
1000
0000
0000
0000
,
1001
0000
0000
0000
,
0000
0000
0000
0000
,
0001
0000
0000
0000
,
0000
0000
0000
0000
,
1001
0000
0000
0000
,
0000
0000
0000
0000
,
1000
0000
0000
0000
,
0000
0000
0000
0000
,
1001
0000
0000
0000
,
0000
0000
0000
0000
,
0001
0000
0000
0000
,
0100
0000
0000
0000
,
0010
0000
0000
0000
,
1000
0000
0000
0000
,
0001
0000
0000
0000
,
1001
0000
0000
0000
,
1000
0000
0000
0000
,
0010
0000
0000
0000
,
0001
0000
0000
0000
,
0100
0000
0000
0000
,
1000
0000
0000
0000
,
0010
0000
0000
0000
,
0001
0000
0000
0000
,
0100
0000
0000
0000
;

//---------------dance-single - ----------------
#NOTES:
     dance-single:
     :
     Easy:
     3:
     0.122690,0.143665,0.109459,0.000000,0.000000,102.000000,89.000000,13.000000,0.000000,0.000000,0.000000,0.122690,0.143665,0.109459,0.000000,0.000000,102.000000,89.000000,13.000000,0.000000,0.000000,0.000000:
0000
0000
0000
0000
,
1000
0000
1000
0000
,
1000
0000
1000
0000
,
0001
0000
1000
0000
,
1001
0000
0000
0000
,
0001
0000
0001
0000
,
0001
0000
0001
0000
,
1000
0000
0001
0000
,
1001
0000
0000
0000
,
0100
0000
0010
0000
,
0100
0000
0010
0000
,
0100
0000
0010
0000
,
0110
0000
0110
0000
,
0001
0000
1000
0000
,
0001
0000
1000
0000
,
0001
0000
1000
0000
,
0001
0001
0001
0000
,
1000
0000
0100
0000
,
0010
0000
0001
0000
,
1000
0000
0100
0000
,
0010
0000
0001
1000
,
0001
0000
0010
0000
,
0100
0000
1000
0000
,
0001
0000
1000
0000
,
1001
0000
0000
0000
,
0110
0000
0000
0000
,
1000
0000
0000
0000
,
0110
0000
0000
0000
,
0001
0000
0000
0000
,
1001
0000
0000
0000
,
0010
0000
0000
0000
,
1001
0000
0000
0000
,
0100
0000
0100
0000
,
0110
0000
0000
0000
,
0110
0000
0000
0000
,
1000
0000
0010
0000
,
0100
0000
0001
1000
,
0001
0000
0100
0000
,
0010
0000
1000
0000
,
0001
0000
1000
0000
,
1001
0000
0000
0000
,
0001
0000
0010
0000
,
1000
0000
0100
0000
,
0001
0000
0010
0000
,
1000
0000
0100
0010
,
0100
0000
1000
0000
,
0010
0000
0001
0000
,
0100
0000
1000
0000
,
0010
0100
0010
0110
;

//---------------dance-single - ----------------
#NOTES:
     dance-single:
     :
     Medium:
     6:
     0.255003,0.287330,0.244178,0.159978,0.000000,212.000000,183.000000,29.000000,19.000000,0.000000,0.000000,0.255003,0.287330,0.244178,0.159978,0.000000,212.000000,183.000000,29.000000,19.000000,0.000000,0.000000:
0000
0000
0000
0000
,
1000
0001
1000
0001
,
0100
0010
0100
0010
,
1000
0001
1000
2002
,
0000
3003
1001
1001
,
0010
0100
0010
0100
,
0001
1000
0001
1000
,
0010
0100
0010
0220
,
0000
0000
0330
0000
,
1000
0000
0001
1000
0001
0000
0000
0000
,
1000
0000
0001
1000
0001
0000
2000
0000
,
3001
0000
1000
0001
1000
0000
0002
0000
,
1003
0000
0001
1000
0001
0000
1000
0000
,
0010
0000
0100
0010
0100
0000
0010
0100
,
0010
0000
0100
0010
0200
0000
0310
0000
,
0100
0000
0010
0100
0020
0000
0130
0000
,
2002
0000
3003
0000
,
1001
0000
1000
0010
1000
0000
0001
0000
,
1000
0100
0000
0100
1000
0000
0100
0000
,
1001
0000
0001
0010
0001
0000
0100
0000
,
0001
0100
0000
0100
0001
0000
0010
0000
,
0110
0000
1000
0001
1000
0000
0010
0100
,
0010
0100
0000
0010
0000
0100
0010
0000
,
0110
0000
0001
1000
0001
0000
0100
0010
,
0200
0000
0000
0300
,
0110
0000
1000
0000
,
0110
0000
0001
0000
,
0110
0000
1000
0000
,
1001
0000
0000
0110
0000
0000
1001
0000
,
1010
0000
0001
0000
,
0101
0000
1000
0000
,
1100
0000
0001
0000
,
0011
0000
1000
0000
,
2002
0000
0000
3003
,
0220
0000
0000
0330
,
0110
0000
0010
1000
0100
0000
0010
0000
,
0001
0100
0000
0100
0001
0000
1000
0000
,
0110
0000
0100
0001
0010
0000
0100
1000
,
0010
0100
0000
0001
1000
0000
0010
0000
,
1001
0000
1000
0001
0100
0000
0001
1000
,
0020
0000
0000
0030
,
0100
0001
0100
0101
,
0010
1000
0010
1010
,
0001
1000
0001
1001
,
0220
0000
0330
0000
0010
0100
0010
0000
,
1000
0100
0010
0000
0001
0000
1000
0000
,
0001
0010
0100
0000
1000
0000
0001
0000
,
1000
0010
0100
0000
0001
0100
0010
2000
,
0000
0000
3000
0000
0010
0100
0110
0000
;

//---------------dance-single - ----------------
#NOTES:
     dance-single:
     :
     Hard:
     10:
     0.365665,0.350690,0.176818,0.286277,0.063149,304.000000,283.000000,21.000000,34.000000,0.000000,0.000000,0.365665,0.350690,0.176818,0.286277,0.063149,304.000000,283.000000,21.000000,34.000000,0.000000,0.000000:
0000
0000
0000
0000
,
1000
0000
0001
0100
0000
0000
0000
0000
0001
0000
1000
0010
0000
0000
0000
0100
,
0001
0010
0100
1000
0001
0010
0100
0000
,
1000
1000
0010
0100
0002
0000
2000
0000
,
0000
0000
0000
0000
3003
0000
0000
0000
0101
0000
0000
0000
1010
0000
0000
1000
,
0100
0000
0010
0001
0000
0000
0000
0000
0100
0000
0010
1000
0000
0000
0000
0001
,
0100
0010
1000
0100
0020
0000
0130
0010
,
0001
0001
0100
0010
2000
0000
0002
0000
,
0000
0000
3003
0000
,
0110
0000
0000
0000
0010
1000
0000
0000
0002
0000
0000
0000
0000
0000
0100
0000
,
0103
0000
0000
0000
0100
0001
0000
0000
2000
0000
0000
0000
3010
0000
0100
0000
,
0002
0000
0000
0000
0103
0010
0000
0000
2000
0000
0000
0000
3010
0100
0010
0000
,
0200
0000
0000
0000
0301
1000
0000
0000
0002
0000
0000
0000
1003
0010
0000
0000
,
0110
0000
0101
0000
1010
0000
0010
0100
,
0002
0000
0000
0000
0013
0100
0000
0000
2000
0000
0000
0000
0000
0000
0010
0000
,
3010
0000
0000
0000
0010
0100
0000
0000
2002
0000
0000
0000
3003
0000
0000
0000
,
0000
1000
0100
0010
0001
0001
0001
0000
,
1100
0000
1000
0010
0100
0000
0101
0000
,
0001
0020
0000
0230
0000
1300
0010
0200
,
0000
0000
0301
1000
0100
0000
0110
0000
,
0010
0002
0000
0203
0000
0310
0010
0010
,
1000
0001
0010
0100
1000
0010
0100
0001
,
1000
0100
0000
0101
0000
0001
1000
0020
,
0000
0000
0130
0001
0010
0000
0100
2000
,
0000
3010
0100
0001
1000
0010
0110
0000
,
0002
0000
0013
0100
1000
0000
0010
0100
,
0001
0100
0010
1000
0100
0010
0000
0010
,
0001
0100
0010
0100
0001
2000
0000
0000
,
3001
0100
0010
0100
0000
0100
0010
1000
,
1010
0000
0010
0100
0002
0000
0013
0100
,
1000
0100
0010
0001
0010
0100
0000
0100
,
0010
0001
1000
0010
0200
0000
0000
0301
,
1000
0100
0010
0002
0000
0000
2000
0000
,
3003
0000
1000
0010
0100
0000
0101
0000
,
0001
0010
0000
1100
0000
1000
1000
1000
,
0001
0100
1000
0100
0001
0000
0011
0000
,
1000
0010
0000
0101
0000
0100
1000
0010
,
0110
0100
0001
0010
1000
0010
0001
0100
,
0010
2000
0000
3002
0000
0103
0100
0100
,
0010
1000
0100
0001
0100
1000
0010
0100
,
2002
0000
0000
3003
,
0001
0100
0010
1000
0001
0100
0010
0010
,
0000
1000
0100
0010
0001
1000
0100
0100
,
0000
0001
0010
0100
1000
0001
0010
0100
,
0100
0000
0000
1000
0010
0100
1001
0000
,
0001
0100
1000
0100
0001
0010
0100
0100
,
0000
1000
0010
0001
0010
1000
0100
0100
,
0000
0001
0100
1000
0010
0001
0100
0100
,
0000
1000
0010
0100
0001
1000
2002
0000
,
3003
0000
0000
0000
;

//---------------dance-double - ----------------
#NOTES:
     dance-double:
     :
     Easy:
     4:
     0.123893,0.143665,0.117879,0.000000,0.000000,103.000000,89.000000,14.000000,0.000000,0.000000,0.000000,0.123893,0.143665,0.117879,0.000000,0.000000,103.000000,89.000000,14.000000,0.000000,0.000000,0.000000:
00000000
00000000
00000000
00000000
,
00001000
00000000
00010000
00000000
,
01000000
00000000
10000000
00000000
,
00100000
00000000
00010000
00000000
,
00011000
00000000
00000000
00000000
,
00010000
00000000
00001000
00000000
,
00000100
00000000
00000001
00000000
,
00000010
00000000
00001000
00000000
,
00011000
00000000
00000000
00000000
,
00010000
00000000
00001000
00000000
,
00010000
00000000
00000010
00000000
,
00010000
00000000
00001000
00000000
,
00011000
00000000
00011000
00000000
,
00001000
00000000
00010000
00000000
,
00001000
00000000
01000000
00000000
,
00001000
00000000
00010000
00000000
,
00001000
00010000
00011000
00000000
,
00001000
00000000
00100000
00000000
,
01000000
00000000
00010000
00000000
,
00001000
00000000
00100000
00000000
,
01000000
00000000
00010000
00001000
,
00010000
00000000
00000100
00000000
,
00000010
00000000
00001000
00000000
,
00010000
00000000
00000100
00000000
,
00000110
00000000
00000000
00000000
,
00001001
00000000
00000000
00000000
,
00001000
00000000
00000000
00000000
,
00011000
00000000
00000000
00000000
,
00010000
00000000
00000000
00000000
,
10010000
00000000
00000000
00000000
,
01000000
00000000
00000000
00000000
,
01100000
00000000
00000000
00000000
,
00000010
00000000
00000010
00000000
,
00000110
00000000
00000000
00000000
,
00001001
00000000
00000000
00000000
,
00000001
00000000
00000100
00000000
,
00001000
00000000
00010000
00001000
,
00010000
00000000
00100000
00000000
,
10000000
00000000
01000000
00000000
,
00010000
00000000
00001000
00000000
,
00011000
00000000
00000000
00000000
,
00010000
00000000
00000100
00000000
,
00000010
00000000
00001000
00000000
,
00010000
00000000
01000000
00000000
,
00100000
00000000
00001000
00010000
,
00001000
00000000
00000010
00000000
,
00000001
00000000
00000100
00000000
,
00001000
00000000
01000000
00000000
,
00100000
10000000
00010000
10010000
;

//---------------dance-double - ----------------
#NOTES:
     dance-double:
     :
     Medium:
     6:
     0.255003,0.287330,0.227338,0.159978,0.000000,212.000000,185.000000,27.000000,19.000000,0.000000,0.000000,0.255003,0.287330,0.227338,0.159978,0.000000,212.000000,185.000000,27.000000,19.000000,0.000000,0.000000:
// measure 0
00000000
00000000
00000000
00000000
,  // measure 1
00001000
00100000
00001000
00100000
,  // measure 2
00010000
01000000
00010000
01000000
,  // measure 3
00100000
00010000
00001000
00022000
,  // measure 4
00000000
00033000
00011000
00011000
,  // measure 5
00010000
00000010
00010000
00000010
,  // measure 6
00001000
00000100
00001000
00000100
,  // measure 7
00000010
00001000
00010000
00022000
,  // measure 8
00000000
00033000
00011000
00011000
,  // measure 9
00001000
00000000
01000000
00100000
01000000
00000000
00000000
00000000
,  // measure 10
00001000
00000000
01000000
00100000
01000000
00000000
00002000
00000000
,  // measure 11
01003000
00000000
01000000
00100000
01000000
00000000
00002000
00000000
,  // measure 12
01003000
00000000
01000000
00100000
01000000
00000000
00001000
00000000
,  // measure 13
00010000
00000000
00000010
00000100
00000010
00000000
00010000
00001000
,  // measure 14
00010000
00000000
00000010
00000100
00000020
00000000
00010030
00000000
,  // measure 15
00010000
00000000
00000010
00000100
00000020
00000000
00010030
00000000
,  // measure 16
00022000
00000000
00033000
00000000
,  // measure 17
00011000
00000000
00010000
01000000
10000000
00000000
00100000
00000000
,  // measure 18
00010000
00001000
00000000
00001000
00010000
00000000
00001000
00000000
,  // measure 19
00011000
00000000
00001000
00000010
00000001
00000000
00000100
00000000
,  // measure 20
00001000
00010000
00000000
00010000
00001000
00000000
00010000
00000000
,  // measure 21
00011000
00000000
00010000
00000100
00010000
00000000
00001000
01000000
,  // measure 22
00001000
00010000
00000000
00001000
00000000
00010000
00000010
00000000
,  // measure 23
00000110
00000000
00000100
00000001
00000010
00000000
00001000
00010000
,  // measure 24
02000000
00000000
00000000
03000000
,  // measure 25
11000000
00000000
10000000
00000000
,  // measure 26
10100000
00000000
00100000
00000000
,  // measure 27
00110000
00000000
00010000
00000000
,  // measure 28
00011000
00000000
00000000
00001000
00000000
00000000
00000100
00000000
,  // measure 29
00000101
00000000
00000001
00000000
,  // measure 30
00000011
00000000
00000010
00000000
,  // measure 31
00001010
00000000
00001000
00000000
,  // measure 32
00011000
00000000
00010000
00000000
,  // measure 33
00020200
00000000
00000000
00030300
,  // measure 34
02002000
00000000
00000000
03003000
,  // measure 35
00011000
00000000
00010000
00001000
00000010
00000000
00000001
00000000
,  // measure 36
00000100
00001000
00000000
00010000
00001000
00000000
00010000
00000000
,  // measure 37
00011000
00000000
00001000
00010000
00100000
00000000
10000000
01000000
,  // measure 38
00100000
01000000
00000000
00010000
00001000
00000000
00010000
00000000
,  // measure 39
00011000
00000000
00001000
00010000
01000000
00000000
00010000
00001000
,  // measure 40
00000200
00000000
00000000
00000300
,  // measure 41
00000001
00000010
00000100
00001000
,  // measure 42
00010000
00100000
01000000
10000000
,  // measure 43
00100000
00010000
00001000
00101000
,  // measure 44
00020020
00000000
00030030
00000000
00000010
00001000
00000100
00000000
,  // measure 45
00000010
00000001
00000100
00000000
00001000
00000000
00010000
00000000
,  // measure 46
01000000
10000000
00100000
00000000
00010000
00000000
00001000
00000000
,  // measure 47
00000100
00000001
00000010
00000000
00000010
00001000
00010000
02000000
,  // measure 48
00000000
00000000
03000000
00000000
10000000
00010000
10010000
00000000
;

//---------------dance-double - ----------------
#NOTES:
     dance-double:
     :
     Hard:
     12:
     0.400548,0.495091,0.564135,0.016840,0.113669,333.000000,266.000000,67.000000,2.000000,0.000000,0.000000,0.400548,0.495091,0.564135,0.016840,0.113669,333.000000,266.000000,67.000000,2.000000,0.000000,0.000000:
00000000
00000000
00000000
00000000
,
00011000
00000000
00001000
01000000
00000000
00000000
01010000
00000000
,
00010000
00000000
00010000
00000000
10000000
00000000
10000000
00000000
00000000
00000000
00000000
00000000
00100000
01000000
00100000
01000000
,
00100000
00000000
00010000
00001000
00000000
00000000
00101000
00000000
,
00100000
00000000
00100000
00000000
01000000
00000000
01000000
00000000
00000000
00000000
00000000
00000000
00010000
00001000
00010000
00001000
,
00010000
00000000
00000010
00000010
00000000
00000000
00001010
00000000
,
00001000
00001000
00000100
00000100
00000000
00000000
00000011
00000000
,
00000101
00000000
00000100
00001000
00000000
00000000
00011000
00000000
,
00001000
00001000
00100000
00100000
00000000
01000000
10000000
00100000
,
00010000
00000000
00001000
00011000
00000000
00000000
00010100
00000000
,
00000100
00000100
00000010
00000010
00000000
00000000
00000011
00000000
,
00001100
00000000
00000100
00010100
00000000
00000000
00011000
00000000
,
00001000
00001000
01000000
01000000
00000000
00000000
01100000
00000000
,
10100000
00000000
10000000
11000000
00000000
00000000
01010000
00000000
,
00010000
00010000
00000100
00000100
00000000
00000000
00000110
00000000
,
00000011
00000000
00000100
00010100
00000000
00000000
00011000
00000000
,
00001000
00010000
01000000
10000000
00000000
00000000
00000000
00000000
,
10010000
10010000
01000000
00100000
00010000
00001000
00000100
00000010
,
00001001
00000000
00001001
00000000
00000010
00000000
00000100
00000000
00001000
00000000
00010000
00000000
00100000
01000000
00100000
00000000
,
10100000
10100000
10000000
01000000
00010000
00001000
00000010
00000001
,
00000101
00000000
00000101
00000000
00000100
00000000
00001000
00000000
00010000
00000000
00001000
00010000
00001000
00000000
00011000
00000000
,
00010100
00010100
00000100
00000010
00000001
00000100
00001000
00001000
,
01001000
00000000
01001000
00000000
01000000
00000000
00100000
00000000
10000000
00000000
01000000
00000000
00010000
00001000
00010000
00000000
,
00011000
00011000
00001000
00000100
00000001
00000010
00001000
00010000
,
00100000
00000000
00000000
00000000
,
01100000
00000000
00000000
00000000
,
10010000
00000000
00000000
00000000
,
00011000
00000000
00000000
00000000
,
00001001
00000000
00000000
00000000
,
00000110
00000000
00000000
00000000
,
00011000
00000000
00000000
00000000
,
01001000
00000000
00000000
00010100
00000000
00000000
00101000
00000000
,
00010100
00000000
00000000
00001010
00000000
00000000
00110000
00000000
,
10010000
10010000
00000000
00000000
00000000
00000000
00000000
00000000
,
00001001
00001001
00000000
00000000
00000000
00000000
00000000
00000000
,
00011000
00011000
00010000
01000000
10000000
00100000
00010000
00001000
,
00011000
00000000
00011000
00000000
00010000
00000000
00001000
00000000
00000100
00000000
00000001
00000010
00000001
00000000
00000101
00000000
,
00000110
00000110
00001000
00010000
00100000
10000000
01000000
00100000
,
01100000
00000000
01100000
00000000
00010000
00000000
00001000
00000000
00000100
00000000
00000001
00000000
00000010
00000100
00000010
00000000
,
00001001
00001001
00000010
00000100
00001000
00010000
00100000
01000000
,
10000000
00000000
00000000
00000000
,
10010000
00000000
00000000
00010000
01000000
00000000
00001000
00000000
00010000
00000000
00000000
00010000
00001000
00000000
00100000
00000000
,
00010000
00000000
00000000
00010000
01000000
00000000
00001000
00000000
00010000
00000000
00000000
00000100
00001000
00000100
00001000
00000100
,
00001000
00000000
00000000
00001000
00000010
00000000
00010000
00000000
00001000
00000000
00000000
00001000
00010000
00000000
00000100
00000000
,
00001100
00000000
00000000
00001000
00000001
00000000
00000100
00000000
00001000
00000000
00010000
00001000
00010000
00000000
00011000
00000000
,
00001000
00000000
00010000
00100000
00010000
00000000
00100000
00000000
10000000
00000000
01000000
00010000
01000000
00000000
00010000
00000000
,
00001000
00000000
00000010
00000001
00000010
00000000
00000001
00000000
00000100
00000000
00001000
00010000
00001000
00010000
00001000
00010000
,
00100000
00000000
10000000
01000000
10000000
00000000
01000000
00000000
00010000
00000000
00001000
00010000
00001000
00000000
00000010
00000000
,
00000022
00000000
00000000
00000000
,
00000033
00000000
00000000
00000000
;
