#VERSION:0.83;
#TITLE:Case No. L5VE;
#SUBTITLE:;
#ARTIST:Oh My Girl!;
#TITLETRANSLIT:;
#SUBTITLETRANSLIT:;
#ARTISTTRANSLIT:;
#GENRE:K-POP;
#ORIGIN:;
#CREDIT:MUINELIM;
#BANNER:Case No. L5VE.png;
#BACKGROUND:Case No. L5VE-bg.png;
#PREVIEWVID:;
#JACKET:Case No. L5VE-jacket.png;
#CDIMAGE:;
#DISCIMAGE:;
#LYRICSPATH:;
#CDTITLE:;
#MUSIC:Case No. L5VE.ogg;
#OFFSET:0.244000;
#SAMPLESTART:31.959122;
#SAMPLELENGTH:13.638538;
#SELECTABLE:YES;
#DISPLAYBPM:123.000000;
#BPMS:0.000=123.000;
#STOPS:;
#DELAYS:;
#WARPS:;
#TIMESIGNATURES:0.000=4=4;
#TICKCOUNTS:0.000=4;
#COMBOS:0.000=1;
#SPEEDS:0.000=1.000=0.000=0;
#SCROLLS:0.000=1.000;
#FAKES:;
#LABELS:0.000=Song Start;
#BGCHANGES:;
#KEYSOUNDS:;
#ATTACKS:
;

//---------------dance-single - ----------------
#NOTEDATA:;
#CHARTNAME:;
#STEPSTYPE:dance-single;
#DESCRIPTION:;
#CHARTSTYLE:;
#DIFFICULTY:Beginner;
#METER:3;
#RADARVALUES:0.120523,0.149861,0.022202,0.000000,0.000000,114.000000,111.000000,3.000000,0.000000,0.000000,0.000000,0.000000,0.000000,0.000000,0.120523,0.149861,0.022202,0.000000,0.000000,114.000000,111.000000,3.000000,0.000000,0.000000,0.000000,0.000000,0.000000,0.000000;
#CREDIT:MILEN;
#DISPLAYBPM:123.000000;
#NOTES:
0000
0000
0000
0000
,
0000
0000
0000
0000
,
0000
0000
0000
0000
,
0000
0000
0000
0000
,
0000
0000
0100
0000
,
0100
0000
0100
0000
,
0000
0000
0010
0000
,
0010
0000
0010
0000
,
0000
0000
1000
0000
,
1000
0000
0001
0000
,
0001
0000
1000
0000
,
0001
0000
1001
0000
,
0000
0000
1000
0000
,
0000
0000
0010
0000
,
0000
0000
0001
0000
,
0000
0000
0100
0000
,
0000
0000
1000
0000
,
1000
0000
1000
0000
,
1000
0000
0001
0000
,
0001
0000
0001
0000
,
0001
0000
1000
0000
,
1000
0000
0001
0000
,
0001
0000
1000
0000
,
0001
0000
1000
0000
,
0001
0000
0100
0000
,
0100
0000
0100
0000
,
0100
0000
0010
0000
,
0010
0000
0010
0000
,
0010
0000
0100
0000
,
0100
0000
0010
0000
,
0010
0000
0100
0000
,
0010
0000
0100
0000
,
0010
0000
1000
0000
,
0000
0000
0100
0000
,
0000
0000
0010
0000
,
0000
0000
0001
0000
,
0000
0000
0001
0000
,
0000
0000
0010
0000
,
0000
0000
0100
0000
,
0000
0000
1000
0000
,
0000
0000
0001
0000
,
0001
0000
0100
0000
,
0100
0000
0010
0000
,
0010
0000
1000
0000
,
1000
0000
0001
0000
,
0100
0000
0010
0000
,
1000
0000
0001
0000
,
0100
0000
0110
0000
,
0000
0000
0010
0000
,
0010
0000
0010
0000
,
0010
0000
1000
0000
,
1000
0000
1000
0000
,
1000
0000
0010
0000
,
0010
0000
1000
0000
,
1000
0000
0010
0000
,
1000
0000
0010
0000
,
1000
0000
0001
0000
,
0001
0000
0001
0000
,
0001
0000
0100
0000
,
0100
0000
0100
0000
,
0100
0000
0001
0000
,
0001
0000
0100
0000
,
0100
0000
0001
0000
,
0100
0000
0001
0000
,
0100
0000
0010
0010
,
0000
0000
0100
0100
,
0000
0000
0010
0010
,
0000
0000
1001
0000
;

//---------------dance-single - ----------------
#NOTEDATA:;
#CHARTNAME:;
#STEPSTYPE:dance-single;
#DESCRIPTION:;
#CHARTSTYLE:;
#DIFFICULTY:Easy;
#METER:5;
#RADARVALUES:0.174442,0.251619,0.059204,0.088807,0.000000,165.000000,157.000000,8.000000,12.000000,0.000000,0.000000,0.000000,0.000000,0.000000,0.174442,0.251619,0.059204,0.088807,0.000000,165.000000,157.000000,8.000000,12.000000,0.000000,0.000000,0.000000,0.000000,0.000000;
#CREDIT:MILEN;
#DISPLAYBPM:123.000000;
#NOTES:
0000
0000
0000
0000
,
0000
0000
0000
0000
,
0000
0000
0000
0000
,
0000
0000
0000
0000
,
0000
0000
1000
0000
,
0001
0000
1000
0000
,
0001
0000
0100
0000
,
0010
0000
0100
0000
,
0010
0000
1000
0000
,
0001
0000
0100
0000
,
0010
0000
1000
0000
,
0001
0000
1001
0000
,
0000
0000
1000
1000
,
1000
1000
0001
0001
,
0001
0001
1000
1000
,
0001
0001
1000
0001
,
1000
1001
0001
0000
,
0100
0000
1000
0000
,
0010
0000
0001
0000
,
0100
0000
1000
0000
,
0010
0000
0001
0100
,
0001
0000
1000
0100
,
1000
0000
0001
0100
,
0001
1000
0100
1000
,
0001
1001
1000
0000
,
0010
0000
0001
0000
,
0100
0000
1000
0000
,
0010
0000
0001
0000
,
0100
0000
1000
0010
,
1000
0000
0001
0010
,
0001
0000
1000
0010
,
1000
0001
0010
0001
,
1000
1001
0020
0000
,
0030
0000
0200
0000
,
0300
0000
0020
0000
,
0030
0000
0200
0000
,
0300
0000
0002
0000
,
0003
0000
2000
0000
,
3000
0000
0002
0000
,
0003
0000
2000
0000
,
3000
0000
0001
0000
,
0010
0000
0100
0000
,
1000
0000
0001
0010
,
0100
1000
0001
0010
,
0100
1000
0010
0010
,
0020
0030
0100
0100
,
0200
0300
0010
0000
,
0100
0000
1001
0000
,
0000
0000
1000
0000
,
0100
0000
0001
0000
,
0010
0000
1000
0000
,
0100
0000
0001
0000
,
0010
0000
1000
0100
,
1000
0000
0010
0100
,
0010
0000
1000
0100
,
1000
0010
0100
0010
,
0100
0110
0001
0000
,
0010
0000
1000
0000
,
0100
0000
0001
0000
,
0010
0000
1000
0000
,
0100
0000
0001
0010
,
0001
0000
0100
0010
,
0100
0000
0001
0010
,
0001
0100
0010
0100
,
0010
0110
1000
1000
,
0000
0000
0001
0001
,
0000
0000
1000
1000
,
0001
0001
2002
0000
,
3003
0000
0000
0000
;

//---------------dance-single - ----------------
#NOTEDATA:;
#CHARTNAME:;
#STEPSTYPE:dance-single;
#DESCRIPTION:;
#CHARTSTYLE:;
#DIFFICULTY:Medium;
#METER:9;
#RADARVALUES:0.364742,0.427752,0.259019,0.244218,0.414431,345.000000,310.000000,35.000000,33.000000,0.000000,0.000000,0.000000,0.000000,0.000000,0.364742,0.427752,0.259019,0.244218,0.414431,345.000000,310.000000,35.000000,33.000000,0.000000,0.000000,0.000000,0.000000,0.000000;
#CREDIT:MILEN;
#DISPLAYBPM:123.000000;
#NOTES:
0000
0000
0000
0000
,
0000
0000
0000
0000
,
0000
0000
0000
0000
,
0000
0000
0000
0000
,
0000
0000
1000
1000
,
0001
0001
0100
0220
,
0330
0000
0001
0001
,
1000
1000
0010
0100
,
0220
0330
0001
0001
,
1000
1000
0100
0100
,
0010
0010
2002
3003
,
0001
1000
0020
0200
,
0000
0330
0010
1000
,
0010
0000
0100
0010
0000
0000
0100
0000
0000
0001
0000
0000
,
0100
0000
0010
0100
0000
0000
0001
0000
1000
0001
0000
0100
,
0010
0000
1000
0001
0000
0000
2002
0000
0000
0000
0000
0000
,
0000
0000
0000
3003
0000
0000
1000
0000
0010
0000
1000
0000
,
0001
0000
0010
0000
0001
0000
1000
0000
0000
1100
0000
0000
,
0001
0000
0000
0101
0000
0000
0001
0000
0100
0000
0001
0000
,
1000
0000
0100
0000
1000
0000
0001
0000
0000
0011
0000
0000
,
1000
0000
0000
1010
0000
0000
0001
0000
0010
0001
0000
0010
,
0000
0000
0000
0110
0000
0000
1000
0000
0100
1000
0000
0100
,
0000
0000
0000
0110
0000
0000
0001
0000
0001
0000
0001
0000
,
1000
0000
1000
0000
1000
0000
0010
0000
0000
0110
0000
0000
,
1001
0000
0001
0100
0000
0010
1000
0000
0100
0000
1000
0000
,
0010
0000
0100
0000
0010
0000
1000
0000
0000
1100
0000
0000
,
0010
0000
0000
0011
0000
0000
0001
0000
0100
0000
0001
0000
,
0010
0000
0100
0000
0010
0000
0001
0000
0000
0101
0000
0000
,
1000
0000
0000
1010
0000
0000
0010
0000
0100
0001
0000
0100
,
0000
0000
0000
0110
0000
0000
0100
0000
0010
1000
0000
0010
,
0000
0000
0000
0110
0000
0000
0100
0000
0100
0000
0100
0000
,
0010
0000
0010
0000
0010
0000
2002
0000
0000
3003
0000
0000
,
1000
0000
0001
0100
0000
0010
2000
0000
0000
0100
0000
0000
,
3100
0000
0002
0010
,
0013
0000
2000
3010
,
0002
0000
0000
0103
0000
0000
1001
0000
0000
0000
0000
0220
,
0000
0330
2000
0100
,
0001
3010
0002
0100
,
1000
0013
0200
0301
,
0020
0000
0000
1030
0000
0000
0110
0000
0000
0000
0000
2002
,
0000
3003
0000
1001
0000
0000
0001
0000
0100
0010
0000
0000
,
1000
0000
0010
0100
0000
0000
0001
0000
0010
0100
0000
0000
,
1000
0000
0100
0010
0000
0000
0001
0000
0100
0010
0000
1000
,
0010
0000
0100
0001
0000
0000
1000
0000
0010
0100
0000
0001
,
0100
0000
0010
1000
0000
0000
1100
0000
0000
0011
0000
0000
,
0001
0010
0100
1000
0000
0000
1010
0000
0000
0101
0000
0000
,
0001
0100
0010
1000
0000
0000
0020
0000
0130
0000
0000
2000
,
0002
0000
0000
3003
0000
0100
0010
0000
0000
1010
0000
0000
,
0202
0000
0000
0303
0000
0000
0001
0000
0010
0000
0100
0000
,
1000
0000
0001
0000
0010
0000
0100
0000
0000
1000
0000
0010
,
0100
0000
0010
1000
0000
0000
1000
0000
0100
0000
0010
0000
,
0001
0000
1000
0000
0100
0000
0010
0000
0000
0001
0000
0100
,
0010
0000
0100
0001
0000
0000
0010
0000
0100
1000
0000
0100
,
0000
0000
0000
1100
0000
0000
0100
0000
0010
0001
0000
0010
,
0000
0000
0000
1001
0000
0000
1000
0000
1000
0000
0010
0000
,
0010
0000
0001
0000
0001
0000
0100
0000
0000
1000
0000
0010
,
0100
0000
0001
0100
0000
0010
1000
0000
0010
0000
0100
0000
,
0001
0000
1000
0000
0010
0000
0100
0000
0000
0001
0000
0010
,
0100
0000
0010
0001
0000
0000
0001
0000
0100
0000
0010
0000
,
1000
0000
0001
0000
0100
0000
0010
0000
0000
1000
0000
0100
,
0010
0000
0100
1000
0000
0000
0010
0000
0100
0001
0000
0100
,
0000
0000
0000
0101
0000
0000
0100
0000
0010
1000
0000
0010
,
0000
0000
0000
1001
0000
0000
0001
0000
0001
0000
0010
0000
,
0010
0000
1000
0000
1000
0000
0100
0000
0000
0001
0000
0010
,
0100
0000
1000
0100
0000
0010
0002
0000
0000
0103
0000
0000
,
0000
0000
0000
0100
0000
0100
2000
0000
0000
3010
0000
0000
,
0000
0000
0000
0010
0000
0010
0001
0000
0001
0100
0000
0100
,
0010
0000
0010
1000
0000
2002
0000
0000
0000
0000
0000
0000
,
3003
0000
0000
0000
;

//---------------dance-single - ----------------
#NOTEDATA:;
#CHARTNAME:;
#STEPSTYPE:dance-single;
#DESCRIPTION:;
#CHARTSTYLE:;
#DIFFICULTY:Hard;
#METER:12;
#RADARVALUES:0.471521,0.629047,0.377428,0.333025,0.673451,446.000000,395.000000,51.000000,45.000000,0.000000,0.000000,0.000000,0.000000,0.000000,0.471521,0.629047,0.377428,0.333025,0.673451,446.000000,395.000000,51.000000,45.000000,0.000000,0.000000,0.000000,0.000000,0.000000;
#CREDIT:MILEN;
#DISPLAYBPM:123.000000;
#NOTES:
0000
0000
0000
0000
,
0000
0000
0000
0000
,
0000
0000
0000
0000
,
0000
0000
0000
0000
,
0000
0010
1000
0110
,
0000
0110
0000
0220
,
0330
0100
0001
0110
,
0000
0110
0000
0110
,
2002
3003
0010
1000
,
0100
0001
1000
0010
,
0001
0100
1001
1000
,
0010
0001
0100
2002
,
0000
0000
0000
3003
0000
0000
1000
0010
1000
0001
0010
0001
,
1000
0100
1000
0001
0000
0000
0001
0010
0001
1000
0010
1000
,
0001
0100
0001
1000
0000
0000
1000
0100
1000
0001
0100
0001
,
1000
0010
1000
0001
0010
0001
2002
0000
0000
0000
0000
0000
,
0000
0000
0000
3003
0000
0000
1001
0000
0010
0100
0000
0000
,
0010
0000
1000
0100
0000
0000
1000
0000
0010
0100
0000
0010
,
1000
0000
0010
0100
0000
0000
1001
0000
0100
0010
0000
0000
,
0100
0000
0001
0010
0000
0000
0001
0000
0100
0010
0000
0100
,
0001
0000
0100
0010
0000
1000
0100
0000
0010
0001
0000
0101
,
0000
0000
1000
0010
0000
0100
0001
0000
0010
0100
0000
1100
,
0000
0000
0000
1001
0000
0000
0001
0000
0100
0000
0010
0000
,
1000
0000
0100
0000
0010
0000
0002
0000
0000
1003
0000
0000
,
1001
0000
1000
0010
0100
0010
0110
0000
1000
0001
0000
0000
,
0010
0000
0001
1000
0000
0000
0100
0000
1000
0001
0000
0100
,
0001
0000
0010
0001
0000
0000
0110
0000
0001
1000
0000
0000
,
0100
0000
1000
0001
0000
0000
0100
0000
0001
1000
0000
0100
,
1000
0000
0010
1000
0000
0100
0010
0000
0001
1000
0000
1100
,
0000
0000
0001
0010
0000
0100
1000
0000
0010
0100
0000
0101
,
0000
0000
0000
1001
0000
0000
1000
0000
0100
0000
0010
0000
,
0001
0000
0100
0000
0010
0000
2000
0000
0000
3001
0000
0000
,
0001
0100
0010
1000
0100
0010
0012
0000
0000
0100
0000
0000
,
0103
0000
2010
0100
,
3100
0000
0102
0013
,
2100
0000
0000
3010
0000
0000
0202
0000
0000
0303
0000
2020
,
0000
3030
0210
0001
,
1000
0301
0120
1000
,
0001
1030
1200
0310
,
0021
0000
0000
0130
0000
0000
2200
0000
0000
3300
0000
0022
,
0000
0033
0000
1001
0000
0000
0001
0010
0100
1000
0000
1000
,
0001
0010
0100
1000
0000
1000
0001
0100
0010
1000
0000
1000
,
0001
0100
0010
1000
0100
0010
0001
1000
0010
0100
0001
0100
,
0010
1000
0010
0100
0001
0010
0000
0010
0100
1000
0100
0010
,
0001
0100
1000
0100
0001
0010
0110
0000
0000
0110
0000
0000
,
1000
0010
0001
0100
0000
0000
0110
0000
0000
0110
0000
0000
,
0001
0010
1000
0100
0000
0010
0200
0000
2300
0000
0000
3001
,
0020
0000
0000
0000
0000
0031
0100
0000
0000
1010
0000
0000
,
0110
0000
0202
0000
0303
0000
1001
0000
1000
0010
0000
0100
,
0001
0000
0010
0100
0000
0010
0001
0000
1000
0100
0000
0001
,
0100
0000
1000
0010
0000
0100
0110
0000
0010
1000
0000
0100
,
0010
0000
0001
0100
0000
1000
0100
0000
0001
0010
0000
0100
,
0010
0001
1000
0100
0010
0001
0011
0000
0100
2000
0000
3010
,
0000
0000
0010
0100
0000
1000
0100
0000
0001
0020
0000
0130
,
0000
0000
0100
0010
0000
0001
0010
0000
1000
0000
0010
0000
,
0001
0000
0100
0000
1000
0000
0200
0000
0000
0310
0000
0000
,
1001
0000
0001
0010
0100
1000
1001
0000
0001
0010
0000
0100
,
1000
0000
0010
0100
0000
0010
1000
0000
0001
0100
0000
1000
,
0100
0000
0001
0010
0000
0100
0110
0000
0010
0001
0000
0100
,
0010
0000
1000
0100
0000
0001
0100
0000
1000
0010
0000
0100
,
0010
1000
0001
0100
0010
1000
1010
0000
0100
0002
0000
0013
,
0000
0000
0010
0100
0000
0001
0100
0000
1000
0020
0000
0130
,
0000
0000
0100
0010
0000
1000
0010
0000
0001
0000
0010
0000
,
1000
0000
0100
0000
0001
0000
0200
0000
0000
0310
0000
0000
,
0001
0100
1000
0001
0010
1000
0200
0000
0000
0310
0000
0000
,
0000
0000
0000
0110
0000
0001
2000
0000
0000
3001
0000
0000
,
0000
0000
0000
1001
0000
0002
0103
0000
2000
3010
0000
0002
,
0013
0000
2000
3100
0000
0220
0000
0000
0000
0000
0000
0000
,
0330
0000
0000
0000
;

//---------------dance-double - ----------------
#NOTEDATA:;
#CHARTNAME:;
#STEPSTYPE:dance-double;
#DESCRIPTION:;
#CHARTSTYLE:;
#DIFFICULTY:Easy;
#METER:6;
#RADARVALUES:0.180785,0.251619,0.088807,0.081406,0.000000,171.000000,159.000000,12.000000,11.000000,0.000000,0.000000,0.000000,0.000000,0.000000,0.180785,0.251619,0.088807,0.081406,0.000000,171.000000,159.000000,12.000000,11.000000,0.000000,0.000000,0.000000,0.000000,0.000000;
#CREDIT:MILEN;
#DISPLAYBPM:123.000000;
#NOTES:
00000000
00000000
00000000
00000000
,
00000000
00000000
00000000
00000000
,
00000000
00000000
00000000
00000000
,
00000000
00000000
00000000
00000000
,
00000000
00000000
01000000
00000000
,
00001000
00000000
01000000
00000000
,
00001000
00000000
00010000
00000000
,
00000010
00000000
00010000
00000000
,
00000010
00000000
00001000
00000000
,
00000100
00000000
00010000
00000000
,
00001000
00000000
00100000
00000000
,
00010000
00000000
10010000
00000000
,
00000000
00000000
10000000
10000000
,
00100000
00100000
00010000
00010000
,
00001000
00001000
00000100
00000100
,
00000001
00000001
00000010
00001000
,
00010000
00011000
00001000
00000000
,
00010000
00000000
00100000
00000000
,
01000000
00000000
10000000
00000000
,
01000000
00000000
00100000
00000000
,
00010000
00000000
00001000
01000000
,
00001000
00000000
00010000
00000010
,
00010000
00000000
00001000
00100000
,
00001000
00010000
00000100
00010000
,
00001000
00011000
00010000
00000000
,
00001000
00000000
00000100
00000000
,
00000010
00000000
00000001
00000000
,
00000010
00000000
00000100
00000000
,
00001000
00000000
00010000
00000010
,
00010000
00000000
00001000
01000000
,
00001000
00000000
00010000
00000100
,
00010000
00001000
00100000
00001000
,
00010000
00011000
00200000
00000000
,
00300000
00000000
02000000
00000000
,
03000000
00000000
00020000
00000000
,
00030000
00000000
00002000
00000000
,
00003000
00000000
00000020
00000000
,
00000030
00000000
00000200
00000000
,
00000300
00000000
00020000
00000000
,
00030000
00000000
00002000
00000000
,
00003000
00000000
01001000
00000000
,
00010100
00000000
00101000
00000000
,
00010010
00000000
00010000
00001000
,
00000100
00000001
00000010
00001000
,
00010000
01000000
10000000
00100000
,
00010000
00001000
00100000
01000000
,
00010000
00001000
00000020
00000000
,
00000130
00000000
00001001
00000000
,
00000000
00000000
00000001
00000000
,
00000010
00000000
00000100
00000000
,
00001000
00000000
00010000
00000000
,
00100000
00000000
01000000
00000000
,
10000000
00000000
00010000
01000000
,
00010000
00000000
10000000
00100000
,
10000000
00000000
00010000
00100000
,
00010000
10000000
01000000
10000000
,
00010000
10010000
10000000
00000000
,
00100000
00000000
01000000
00000000
,
00010000
00000000
00001000
00000000
,
00000010
00000000
00000100
00000000
,
00000001
00000000
00001000
00000100
,
00001000
00000000
00000001
00000010
,
00000001
00000000
00001000
00000010
,
00001000
00000001
00000100
00000001
,
00001000
00001001
00000001
00000001
,
00000000
00000000
00001000
00001000
,
00000000
00000000
00010000
00010000
,
10000000
10000000
02200000
00000000
,
03300000
00000000
00000000
00000000
;

//---------------dance-double - ----------------
#NOTEDATA:;
#CHARTNAME:;
#STEPSTYPE:dance-double;
#DESCRIPTION:;
#CHARTSTYLE:;
#DIFFICULTY:Hard;
#METER:12;
#RADARVALUES:0.473636,0.629047,0.377428,0.288622,0.710453,448.000000,397.000000,51.000000,39.000000,0.000000,0.000000,0.000000,0.000000,0.000000,0.473636,0.629047,0.377428,0.288622,0.710453,448.000000,397.000000,51.000000,39.000000,0.000000,0.000000,0.000000,0.000000,0.000000;
#CREDIT:MILEN;
#DISPLAYBPM:123.000000;
#NOTES:
// measure 0
00000000
00000000
00000000
00000000
,  // measure 1
00000000
00000000
00000000
00000000
,  // measure 2
00000000
00000000
00000000
00000000
,  // measure 3
00000000
00000000
00000000
00000000
,  // measure 4
00000000
01000000
00001000
00011000
,  // measure 5
00000000
00011000
00000000
00022000
,  // measure 6
00033000
00000010
00010000
00011000
,  // measure 7
00000000
00011000
00000000
00011000
,  // measure 8
00022000
00033000
00010000
00100000
,  // measure 9
10000000
01000000
00010000
00001000
,  // measure 10
00000010
00000001
00000110
00001000
,  // measure 11
00010000
00100000
10000000
20020000
,  // measure 12
00000000
00000000
00000000
30030000
00000000
00000000
00010000
01000000
00001000
00010000
00000100
00001000
,  // measure 13
00000010
00000100
00000001
00001000
00000000
00000000
00001000
00000100
00010000
00001000
01000000
00010000
,  // measure 14
00100000
01000000
10000000
00010000
00000000
00000000
00010000
00100000
00001000
00010000
00000100
00001000
,  // measure 15
00000010
00000100
00000001
00001000
00000100
00010000
00022000
00000000
00000000
00000000
00000000
00000000
,  // measure 16
00000000
00000000
00000000
00033000
00000000
00000000
00011000
00000000
00010000
00000000
01000000
00000000
,  // measure 17
10000000
00000000
00100000
00000000
00010000
00000000
00001000
00000000
00010000
00000010
00000000
00010000
,  // measure 18
00001000
00000000
00010000
00000100
00000000
00000000
00011000
00000000
00001000
00000000
00000010
00000000
,  // measure 19
00000001
00000000
00000100
00000000
00001000
00000000
00010000
00000000
00001000
01000000
00000000
00001000
,  // measure 20
00010000
00000000
00001000
00100000
00000000
00100000
01000000
00000000
01000000
10000000
00000000
10100000
,  // measure 21
00000000
00000000
00100000
00010000
00000000
00010000
00001000
00000000
00001000
00000010
00000000
00000011
,  // measure 22
00000000
00000000
00000000
00001001
00000000
00000000
00001000
00000000
00000010
00000000
00010000
00000000
,  // measure 23
00001000
00000000
00100000
00000000
01000000
00000000
20000000
00000000
00000000
30010000
00000000
00000000
,  // measure 24
01100000
00000000
00100000
00010000
00001000
00010000
00011000
00000000
00001000
00000000
00000100
00000000
,  // measure 25
00000010
00000000
00000001
00000000
00000010
00000000
00000100
00000000
00001000
00100000
00000000
00001000
,  // measure 26
00010000
00000000
00001000
01000000
00000000
00000000
00011000
00000000
00010000
00000000
00100000
00000000
,  // measure 27
01000000
00000000
10000000
00000000
01000000
00000000
00100000
00000000
00010000
00000100
00000000
00010000
,  // measure 28
00001000
00000000
00010000
00000010
00000000
00000010
00000100
00000000
00000100
00000001
00000000
00000011
,  // measure 29
00000000
00000000
00000010
00001000
00000000
00001000
00010000
00000000
00010000
00100000
00000000
10100000
,  // measure 30
00000000
00000000
00000000
10010000
00000000
00000000
00010000
00000000
00100000
00000000
00001000
00000000
,  // measure 31
00010000
00000000
00000010
00000000
00000100
00000000
00000002
00000000
00000000
00001003
00000000
00001000
,  // measure 32
00000100
00000010
00000001
00001000
00000100
00000010
00000110
00000000
00000000
00001000
00000000
00000000
,  // measure 33
00020000
00030000
01100000
00010000
,  // measure 34
00002000
00003000
00011000
00000010
,  // measure 35
00011000
00000000
00000000
01000000
00000000
00000000
02002000
00000000
00000000
03003000
00000000
00020020
,  // measure 36
00000000
00030030
00012000
00000010
,  // measure 37
00000001
00003100
00021000
00100000
,  // measure 38
10000000
01030000
00012000
00003010
,  // measure 39
00021000
00000000
00000000
00130000
00000000
00000000
00020200
00000000
00000000
00030300
00000000
00202000
,  // measure 40
00000000
00303000
00000000
00011000
00000000
00000000
00001000
00010000
00100000
01000000
00000000
01000000
,  // measure 41
00001000
00010000
00100000
01000000
00000000
01000000
00001000
00100000
00010000
01000000
00000000
01000000
,  // measure 42
00001000
00100000
00010000
01000000
00001000
00010000
00000100
00001000
00000010
00010000
00001000
00000100
,  // measure 43
00000010
00001000
00000100
00000010
00000001
00000100
00000000
00000100
00001000
00000100
00000010
00001000
,  // measure 44
00000100
00010000
00001000
00100000
00010000
01000000
10100000
00000000
00000000
10100000
00000000
00000000
,  // measure 45
00100000
00010000
00001000
00000010
00000000
00000000
00000011
00000000
00000000
00000011
00000000
00000000
,  // measure 46
00000010
00001000
00010000
00100000
00000000
00100000
20000000
00000000
32000000
00000000
00000000
03010000
,  // measure 47
00002000
00000000
00000000
00000000
00000000
00003010
00000100
00000000
00000000
00010100
00000000
00000000
,  // measure 48
01001000
00000000
00020020
00000000
00030030
00000000
00011000
00000000
00001000
00100000
00000000
00100000
,  // measure 49
01000000
00000000
01000000
10000000
00000000
10000000
00100000
00000000
00100000
00010000
00000000
00010000
,  // measure 50
00001000
00000000
00001000
00000100
00000000
00000100
00000001
00000000
00000001
00001000
00000000
00001000
,  // measure 51
00000010
00000000
00000010
00010000
00000000
00010000
00001000
00000000
00001000
00100000
00000000
00100000
,  // measure 52
01000000
10000000
00100000
00010000
00001000
00100000
01000000
00000000
01000000
21000000
00000000
30100000
,  // measure 53
00000000
00000000
00100000
00010000
00000000
00010000
00001000
00000000
00001000
00001200
00000000
00000301
,  // measure 54
00000000
00000000
00000001
00001000
00000000
00001000
00000010
00000000
00010000
00000000
00100000
00000000
,  // measure 55
00001000
00000000
00000100
00000000
00010000
00000000
02000000
00000000
00000000
13000000
00000000
00000000
,  // measure 56
10010000
00000000
00010000
01000000
00001000
00010000
00011000
00000000
00010000
00000010
00000000
00000010
,  // measure 57
00000100
00000000
00000100
00000001
00000000
00000001
00000010
00000000
00000010
00001000
00000000
00001000
,  // measure 58
00010000
00000000
00010000
01000000
00000000
01000000
10000000
00000000
10000000
00010000
00000000
00010000
,  // measure 59
00100000
00000000
00100000
00001000
00000000
00001000
00010000
00000000
00010000
00000010
00000000
00000010
,  // measure 60
00000100
00000001
00000010
00001000
00010000
00000010
00000100
00000000
00000100
00000102
00000000
00000013
,  // measure 61
00000000
00000000
00000010
00001000
00000000
00001000
00010000
00000000
00010000
02010000
00000000
13000000
,  // measure 62
00000000
00000000
10000000
00010000
00000000
00010000
00100000
00000000
00001000
00000000
00000010
00000000
,  // measure 63
00010000
00000000
01000000
00000000
00001000
00000000
00000200
00000000
00000000
00000301
00000000
00000001
,  // measure 64
00000010
00000100
00001000
00010000
00100000
01000000
20000000
00000000
00000000
30100000
00000000
00000000
,  // measure 65
00000000
00000000
00000000
00110000
00000000
00010000
00002000
00000000
00000000
00003010
00000000
00000000
,  // measure 66
00000000
00000000
00000000
00000011
00000000
00000010
00001000
00000000
00001000
00010000
00000000
00010000
,  // measure 67
10000000
00000000
10000000
00100000
00000000
00022000
00000000
00000000
00000000
00000000
00000000
00000000
,  // measure 68
00033000
00000000
00000000
00000000
;

//---------------dance-double - ----------------
#NOTEDATA:;
#CHARTNAME:;
#STEPSTYPE:dance-double;
#DESCRIPTION:;
#CHARTSTYLE:;
#DIFFICULTY:Medium;
#METER:9;
#RADARVALUES:0.362627,0.427752,0.273821,0.229417,0.395930,343.000000,306.000000,37.000000,31.000000,0.000000,0.000000,0.000000,0.000000,0.000000,0.362627,0.427752,0.273821,0.229417,0.395930,343.000000,306.000000,37.000000,31.000000,0.000000,0.000000,0.000000,0.000000,0.000000;
#CREDIT:MILEN;
#DISPLAYBPM:123.000000;
#NOTES:
00000000
00000000
00000000
00000000
,
00000000
00000000
00000000
00000000
,
00000000
00000000
00000000
00000000
,
00000000
00000000
00000000
00000000
,
00000000
00000000
00010000
00001000
,
01000000
00001000
00010000
00022000
,
00033000
00000000
00000010
00010000
,
00001000
00010000
00000010
00010000
,
00022000
00033000
00100000
00001000
,
00010000
00001000
00100000
00001000
,
00010000
00001000
00022000
00033000
,
00000100
00010000
00001000
00022000
,
00000000
00033000
00010000
01000000
,
10000000
10100000
00100000
00010000
,
00001000
00011000
00010000
00001000
,
00000100
00000001
00002002
00000000
,
00000000
00000000
00000000
00003003
00000000
00000000
00001000
00000000
00001000
00000000
00001000
00000000
,
00000010
00000000
00000010
00000000
00000010
00000000
00010000
00000000
00000000
00011000
00000000
00000000
,
01000000
00000000
00000000
01010000
00000000
00000000
00010000
00000000
00010000
00000000
00010000
00000000
,
00100000
00000000
00100000
00000000
00100000
00000000
00001000
00000000
00000000
00011000
00000000
00000000
,
00000100
00000000
00000000
00001100
00000000
00000000
00001000
00000000
00000010
00010000
00000000
00001000
,
00000000
00000000
00000000
00011000
00000000
00000000
00010000
00000000
00001000
01000000
00000000
00010000
,
00000000
00000000
00000000
10010000
00000000
00000000
10000000
00000000
01000000
00000000
00100000
00000000
,
00010000
00000000
01000000
00000000
00100000
00000000
00010000
00000000
00000000
00001000
00000000
00000000
,
00011000
00000000
00010000
00001000
00000000
00100000
00010000
00000000
00010000
00000000
00010000
00000000
,
01000000
00000000
01000000
00000000
01000000
00000000
00001000
00000000
00000000
00011000
00000000
00000000
,
00000010
00000000
00000000
00001010
00000000
00000000
00001000
00000000
00001000
00000000
00001000
00000000
,
00000100
00000000
00000100
00000000
00000100
00000000
00010000
00000000
00000000
00011000
00000000
00000000
,
00100000
00000000
00000000
00110000
00000000
00000000
00010000
00000000
01000000
00001000
00000000
00010000
,
00000000
00000000
00000000
00011000
00000000
00000000
00001000
00000000
00010000
00000010
00000000
00001000
,
00000000
00000000
00000000
00001001
00000000
00000000
00000001
00000000
00000010
00000000
00000100
00000000
,
00001000
00000000
00000010
00000000
00000100
00000000
00001000
00000000
00000000
00010000
00000000
00000000
,
00011000
00000000
00001000
00010000
00000000
00000010
00002000
00000000
00000000
00000100
00000000
00000000
,
00003100
00000000
00020000
00001000
,
00031000
00000000
00200000
00310000
,
02000000
00000000
00000000
03001000
00000000
00000000
00011000
00000000
00000000
00000000
00000000
00022000
,
00000000
00033000
00002000
01000000
,
00100000
00013000
00020000
00000010
,
00000100
00031000
00002000
00103000
,
00020000
00000000
00000000
00030100
00000000
00000000
00011000
00000000
00000000
00000000
00000000
00022000
,
00000000
00033000
00000000
00011000
00000000
00000000
00100000
00000000
00010000
01000000
00000000
00000000
,
00100000
00000000
10000000
00010000
00000000
00000000
01000000
00000000
00001000
00010000
00000000
00000000
,
00000100
00000000
00001000
00000010
00000000
00000000
00000100
00000000
00000001
00001000
00000000
00001000
,
00000010
00000000
00000010
00010000
00000000
00000000
00001000
00000000
00100000
00010000
00000000
00010000
,
01000000
00000000
01000000
00100000
00000000
00000000
10100000
00000000
00000000
01010000
00000000
00000000
,
00010000
00100000
00001000
00010000
00000000
00000000
00010010
00000000
00000000
01001000
00000000
00000000
,
00001000
00010000
00000100
00001000
00000000
00000000
00000020
00000000
00000130
00000000
00000000
00000002
,
00002000
00000000
00000000
00003003
00000000
00001000
00000010
00000000
00000000
00010010
00000000
00000000
,
02002000
00000000
00000000
03003000
00000000
00000000
00001000
00000000
00010000
00000000
00100000
00000000
,
01000000
00000000
00001000
00000000
00010000
00000000
00100000
00000000
00000000
10000000
00000000
10000000
,
01000000
00000000
00100000
01000000
00000000
00000000
00010000
00000000
00001000
00000000
00000100
00000000
,
00000010
00000000
00010000
00000000
00001000
00000000
00000100
00000000
00000000
00000001
00000000
00000001
,
00000010
00000000
00000100
00000010
00000000
00000000
00001000
00000000
00010000
00000010
00000000
00010000
,
00000000
00000000
00000000
00011000
00000000
00000000
00001000
00000000
01000000
00001000
00000000
00010000
,
00000000
00000000
00000000
00011000
00000000
00000000
00001000
00000000
00100000
00000000
01000000
00000000
,
00010000
00000000
00001000
00000000
00100000
00000000
01000000
00000000
00000000
10000000
00000000
10000000
,
00100000
00000000
00100000
00010000
00000000
00001000
00010000
00000000
00001000
00000000
00000010
00000000
,
00000100
00000000
00010000
00000000
00001000
00000000
00000010
00000000
00000000
00000001
00000000
00000001
,
00000100
00000000
00000010
00000100
00000000
00000000
00001000
00000000
00010000
00000000
01000000
00000000
,
00100000
00000000
00001000
00000000
00010000
00000000
01000000
00000000
00000000
10000000
00000000
10000000
,
00100000
00000000
01000000
00100000
00000000
00000000
00010000
00000000
00001000
00100000
00000000
00001000
,
00000000
00000000
00000000
00011000
00000000
00000000
00010000
00000000
00000100
00010000
00000000
00001000
,
00000000
00000000
00000000
00011000
00000000
00000000
00010000
00000000
00000010
00000000
00000100
00000000
,
00001000
00000000
00010000
00000000
00000010
00000000
00000100
00000000
00000000
00000001
00000000
00000001
,
00000010
00000000
00000010
00001000
00000000
00010000
00002000
00000000
00000000
01003000
00000000
00000000
,
00000000
00000000
00000000
00001000
00000000
00001000
00020000
00000000
00000000
00030010
00000000
00000000
,
00000000
00000000
00000000
00010000
00000000
00010000
00100000
00000000
00100000
10000000
00000000
10000000
,
01000000
00000000
01000000
00010000
00000000
00022000
00000000
00000000
00000000
00000000
00000000
00000000
,
00033000
00000000
00000000
00000000
;
