#TITLE:Can't Slow Me Down;
#SUBTITLE:;
#ARTIST:Mirani, lIlBOI, GroovyRoom, VALORANT;
#TITLETRANSLIT:;
#SUBTITLETRANSLIT:;
#ARTISTTRANSLIT:;
#GENRE:VARIETY;
#CREDIT:MUINELIM;
#BANNER:Can't Slow Me Down.png;
#BACKGROUND:Can't Slow Me Down-bg.png;
#LYRICSPATH:;
#CDTITLE:;
#MUSIC:Can't Slow Me Down.ogg;
#OFFSET:0.000000;
#SAMPLESTART:58.040787;
#SAMPLELENGTH:15.737709;
#SELECTABLE:YES;
#DISPLAYBPM:122.000000;
#BPMS:0.000000=122.000000
;
#STOPS:
;
#BGCHANGES:0.000=Can't Slow Me Down.avi=1.000=1=0=0=StretchNoLoop==CrossFade==,
99999=-nosongbg-=1.000=0=0=0 // don't automatically add -songbackground-
;
#KEYSOUNDS:;
#ATTACKS:;

//---------------dance-single - ----------------
#NOTES:
     dance-single:
     :
     Beginner:
     3:
     0.124221,0.152171,0.021739,0.021739,0.000000,120.000000,117.000000,3.000000,3.000000,0.000000,0.000000,0.124221,0.152171,0.021739,0.021739,0.000000,120.000000,117.000000,3.000000,3.000000,0.000000,0.000000:
0000
0000
0000
0000
,
0000
0000
0000
0000
,
0000
0000
0000
0000
,
0000
0000
0000
0000
,
0001
0000
0001
0000
,
1000
0000
1000
0000
,
0001
0000
1000
0000
,
0001
0000
1000
0000
,
0010
0000
0010
0000
,
0010
0000
0010
0000
,
0100
0000
0100
0000
,
0100
0000
0100
0000
,
0010
0000
1000
0000
,
0100
0000
0010
0000
,
0001
0000
0100
0000
,
0010
0000
0100
0000
,
0001
0000
0010
0000
,
0100
0000
1000
0000
,
0010
0000
0100
0000
,
0010
0000
0110
0000
,
1000
0000
1000
0000
,
1000
0000
1000
0000
,
0001
0000
0001
0000
,
0001
0000
0001
0000
,
0100
0000
0100
0000
,
0010
0000
0010
0000
,
0100
0000
0010
0000
,
0100
0000
0010
0010
,
0020
0000
0000
0000
,
0000
0000
0030
0000
,
1000
0000
0001
0000
,
1000
0000
1000
0000
,
0001
0000
1000
0000
,
0001
0000
0001
0000
,
1000
0000
0001
0000
,
1000
0000
0001
0000
,
1001
0000
0000
0000
,
1000
0000
0000
0000
,
0010
0000
0000
0000
,
0001
0000
0000
0000
,
0100
0000
0000
0000
,
1000
0000
0000
0000
,
0010
0000
0000
0000
,
0100
0000
0000
0000
,
0001
0000
0001
0000
,
0010
0000
0100
0000
,
1000
0000
1000
0000
,
0100
0000
0010
0000
,
0001
0000
0100
0000
,
0010
0000
1000
0000
,
0001
0000
0010
0000
,
1000
0000
0100
0000
,
0001
0000
0000
0000
,
1000
0000
0000
0000
,
0001
0000
0000
0000
,
1000
0000
0000
0000
,
0001
0000
0001
0000
,
1000
0000
1000
0000
,
0001
0000
1000
0000
,
0001
0000
0100
0100
,
0200
0000
0000
0000
,
0000
0000
0300
0000
,
0001
0000
1000
0000
,
0100
0000
0010
0000
,
0001
0000
1000
0000
,
0010
0000
0100
0000
,
0001
0000
0010
0000
,
0100
0000
1000
0000
,
1001
0000
0000
0000
,
0010
0010
0010
0020
,
0030
0000
0000
0000
;

//---------------dance-single - ----------------
#NOTES:
     dance-single:
     :
     Easy:
     6:
     0.208070,0.253618,0.086955,0.101447,0.000000,201.000000,189.000000,12.000000,14.000000,0.000000,0.000000,0.208070,0.253618,0.086955,0.101447,0.000000,201.000000,189.000000,12.000000,14.000000,0.000000,0.000000:
0000
0000
0000
0000
,
0000
0000
0000
0000
,
0000
0000
0000
0000
,
0000
0000
0000
0000
,
1000
0001
1000
0000
,
0001
1000
0001
0000
,
1000
0001
0100
0010
,
1000
0001
0100
0000
,
0001
1000
0010
0100
,
0001
1000
0010
0000
,
1000
0001
1000
0010
,
0100
0010
0200
0300
,
0001
0000
1000
0000
,
0001
0010
0001
0100
,
1000
0000
0001
0000
,
1000
0100
1000
0010
,
0001
0000
1000
0000
,
0010
0100
0010
0001
,
1000
0000
0001
0000
,
0100
0010
0100
1000
,
0001
0000
0010
0000
,
0001
0000
0101
0000
,
1000
0000
0100
0000
,
1000
0000
1010
0000
,
0001
1000
0010
0000
,
1000
0001
0100
0000
,
0001
1000
0001
0100
,
0010
0100
0001
1000
,
2002
0000
0000
0000
,
0000
0000
3003
0000
,
0001
0001
0010
0000
,
1000
1000
0010
0000
,
0001
0001
0100
0000
,
1000
1000
0100
0000
,
0001
0001
0010
0010
,
1000
1000
0100
0100
,
0020
0000
0030
0000
,
1001
0000
0000
0000
,
1000
0001
0010
0000
,
0001
1000
0100
0000
,
1000
0010
0100
0002
,
1003
0100
0010
0010
,
0001
0010
0100
0100
,
1000
0010
0001
0100
,
1000
0010
0100
0010
,
0001
0000
1000
0000
,
0001
0100
0010
0100
,
1000
0000
0001
0000
,
1000
0010
1000
0100
,
0001
0000
1000
0000
,
0001
0100
0001
0010
,
1000
0000
0001
0000
,
2002
0000
3003
0000
,
0100
0100
0100
0000
,
0010
1000
0001
0100
,
0010
0110
1000
0001
,
2000
0000
3000
0000
,
0002
0000
0003
0000
,
2000
3000
0002
0003
,
1000
0001
1000
1001
,
0220
0000
0000
0000
,
0000
0000
0330
0000
,
0001
0100
0001
0010
,
0001
0100
1100
0000
,
1000
0010
1000
0100
,
1000
0010
0011
0000
,
0001
0100
1000
0010
,
0001
0100
0110
0000
,
1001
0000
0000
0000
,
0100
0100
0100
0200
,
0300
0000
0000
0000
;

//---------------dance-double - ----------------
#NOTES:
     dance-double:
     :
     Easy:
     6:
     0.202894,0.253618,0.072462,0.108693,0.000000,196.000000,186.000000,10.000000,15.000000,0.000000,0.000000,0.202894,0.253618,0.072462,0.108693,0.000000,196.000000,186.000000,10.000000,15.000000,0.000000,0.000000:
00000000
00000000
00000000
00000000
,
00000000
00000000
00000000
00000000
,
00000000
00000000
00000000
00000000
,
00000000
00000000
00000000
00000000
,
00010000
00001000
00010000
00000000
,
00001000
00010000
00001000
00000000
,
00100000
00010000
01000000
00001000
,
00010000
00000100
00001000
00000000
,
00000100
00001000
00000010
00010000
,
00001000
00100000
00010000
00000000
,
01000000
00001000
00010000
00000010
,
00001000
00000100
00000020
00000030
,
00000001
00000000
00000100
00000000
,
00001000
00000100
00000001
00000100
,
00001000
00000000
00010000
00000000
,
01000000
00010000
00001000
00010000
,
01000000
00000000
10000000
00000000
,
00100000
10000000
01000000
10000000
,
00100000
00000000
00010000
00000000
,
00001000
00010000
00100000
00010000
,
00001000
00000000
00000010
00000000
,
00000001
00000000
00000100
00000000
,
00001000
00000000
00010000
00000000
,
00100000
00000000
10000000
00000000
,
01000000
00010000
00001000
00000000
,
00010000
00001000
00000100
00000000
,
00000001
00000010
00000100
00010000
,
00001000
00100000
01000000
10000000
,
20020000
00000000
00000000
00000000
,
00000000
00000000
30030000
00000000
,
10000000
00100000
10000000
00000000
,
00010000
00100000
00010000
00000000
,
00001000
00000010
00001000
00000000
,
00000001
00000010
00000001
00000000
,
00001000
00000100
00001000
00010000
,
01000000
00010000
10000000
01000000
,
20000000
00000000
30000000
00000000
,
10010000
00000000
00000000
00000000
,
00010000
00000000
00100000
00000000
,
01000000
00000000
00010000
00000000
,
00001000
00000010
00000001
00002002
,
00003003
00001000
00000100
00000010
,
00001000
00010000
01000000
00100000
,
00010000
01000000
10000000
01000000
,
00100000
00010000
00001000
00000010
,
00000001
00000000
00000100
00000000
,
00001000
00010000
00100000
10000000
,
01000000
00000000
00010000
00000000
,
00001000
00000100
00000001
00000010
,
00001000
00000000
00010000
00000000
,
01000000
10000000
00100000
00010000
,
00001000
00000000
00010000
00000000
,
00022000
00000000
00033000
00000000
,
00000100
00000100
00000100
00000000
,
00001000
00000010
00010000
00001000
,
00010000
00011000
00100000
00010000
,
20000000
00000000
30000000
00000000
,
02000000
00000000
03000000
00000000
,
00020000
00030000
00002000
00003000
,
00000100
00000001
00001000
00000001
,
00002002
00000000
00000000
00000000
,
00000000
00000000
00003003
00000000
,
00000001
00000100
00001000
00010000
,
00100000
10000000
11000000
00000000
,
10000000
01000000
00010000
00001000
,
00000010
00000001
00000101
00000000
,
00000001
00000010
00000100
00001000
,
00010000
01000000
01100000
00000000
,
10010000
00000000
00000000
00000000
,
10000000
01000000
00010000
00002000
,
00003000
00000000
00000000
00000000
;

//---------------dance-single - ----------------
#NOTES:
     dance-single:
     :
     Hard:
     14:
     0.600401,0.634044,0.333326,0.224633,0.427527,580.000000,534.000000,46.000000,31.000000,0.000000,0.000000,0.600401,0.634044,0.333326,0.224633,0.427527,580.000000,534.000000,46.000000,31.000000,0.000000,0.000000:
0000
0000
0000
0000
,
0000
0000
0000
0000
,
0000
0000
0000
0000
,
0000
0000
0000
0000
0000
0000
0000
1000
,
1001
0000
0001
0000
0100
0010
0100
0000
1000
0000
0000
0000
0100
0010
0000
0000
,
0100
0010
0100
0000
1000
0000
0100
0000
0010
0000
0000
0000
0100
0001
0000
0000
,
0100
0001
0100
0000
0010
0000
1000
0100
1000
0100
0010
0000
0100
0000
1000
0010
,
1000
0000
0001
0010
0001
0000
0100
0010
0100
0000
0000
0000
0010
1000
0000
0000
,
1100
0000
0100
0010
0000
0100
0001
0000
0100
0000
0010
1000
0000
0010
0100
0000
,
0010
0001
0010
0000
0100
0010
0100
0000
1000
0000
0010
0100
0000
0001
0100
0000
,
1000
0100
1000
0000
0100
0001
0100
0000
0001
0000
0021
0000
0000
0000
0130
0000
,
0100
1000
0100
0000
0010
0100
0010
0000
0001
0000
0000
0000
1000
0010
1000
0010
,
0100
0000
0001
0000
0010
0001
0010
0000
0011
0000
0000
0101
0000
0000
1100
0000
,
1000
0010
0000
0100
0000
0000
0001
0000
0021
0000
0000
0100
0000
0130
0000
0000
,
1000
0010
0100
0000
0010
0000
1000
0100
0010
0000
0100
1000
0000
0001
0000
0000
,
0010
0001
0100
0000
0010
0000
0001
0010
0100
0000
0010
1000
0000
0100
0000
0000
,
1000
0100
0010
0000
0100
1000
0001
0000
0010
0000
0001
0100
0000
1000
0000
0000
,
0100
0001
0010
0000
0100
0010
0001
0000
0201
0000
0000
0010
0000
0310
0000
0000
,
0010
1000
0010
0000
0100
0000
0001
0010
0001
0000
1000
0100
0000
0001
0000
0000
,
0100
1000
0010
0000
0100
0000
0001
0010
0200
0000
0000
0000
0310
0000
0001
0000
,
1001
1000
0010
0001
0010
1000
0100
0001
,
0100
1000
0010
0200
0001
0300
0001
0010
,
1000
0010
0001
0100
1000
0100
0001
0010
,
0100
0001
0100
2000
0010
3000
0100
0001
,
0100
1000
0010
0001
0010
1000
0100
0010
,
1000
0010
0001
0200
1000
0300
0001
0010
,
0100
0001
0100
1000
0001
0010
1000
0010
,
0100
1000
0010
0100
0002
0000
1003
0000
,
0220
0000
0000
0000
,
0000
0000
0000
0000
0330
0000
0000
0000
0110
0000
0000
0100
0010
0000
0100
0000
,
1001
0000
0000
0001
0010
0000
0001
0000
0100
0000
0000
1000
0100
0000
1000
0000
,
0010
0000
0000
0001
0010
0000
0001
0000
0100
0000
0010
0000
1000
0000
0001
0000
,
1001
0000
0000
1000
0100
0000
1000
0000
0010
0000
0000
0001
0010
0000
0001
0000
,
0100
0000
0000
1000
0100
0000
1000
0000
0010
0000
0100
0000
0001
0000
1000
0000
,
1001
0000
0000
0001
0100
0000
0001
0000
0010
0000
0000
1000
0010
0000
1000
0000
,
0100
0000
0000
0001
0100
0000
0001
0000
0010
0000
0100
0000
1000
0000
0001
0000
,
2002
0000
0000
0000
3003
0000
0000
0000
1010
0000
0000
0101
0000
0000
0000
0000
,
0011
0000
0011
0000
0010
0100
0010
0100
1000
0000
0100
0001
0000
0100
0010
0000
,
0200
0000
0000
0000
1300
0010
0100
0000
0000
0000
0010
0100
0001
0100
0010
0000
,
1000
0100
0010
0000
0011
0000
1000
0010
0100
0000
0001
0010
0000
1000
0010
0000
,
0001
0000
0000
0000
0101
0000
0100
0010
0100
0010
1000
0000
0002
0000
0000
0000
,
0013
0000
0000
0000
0010
0100
0010
0100
1000
0000
0010
0000
0001
0000
0010
0100
,
0010
0000
1000
0100
0010
0000
0001
0010
0100
0000
1000
0010
0000
0000
0001
0010
,
0100
0000
0010
1000
0100
0000
0010
0100
1000
0000
0100
0020
0000
0000
0031
0000
,
1001
0000
0000
0000
2000
0000
0000
3010
0000
0010
0100
0001
0100
0000
0010
1000
,
0020
0000
0000
0000
0001
0000
0000
0000
1030
0000
1000
0100
1000
0000
0001
0010
,
0002
0000
0100
0000
0013
0010
0001
0100
,
1000
0000
0100
0000
0001
0000
0010
0100
0010
0100
0010
0000
0001
0010
0100
0000
,
1000
0010
0100
0000
1000
0000
0100
0010
1000
0000
0100
0000
0010
0001
0010
0002
,
0000
0000
0103
0000
0110
0000
0010
1000
0010
0000
0100
0000
0001
0010
0001
0010
,
0100
0010
0011
1000
0100
1100
0010
0200
,
0000
0000
0310
1000
0010
0000
0100
0000
0001
0010
0001
0000
0000
0000
1000
0000
,
1020
0000
0100
0100
0230
0001
0301
0010
,
0100
1000
0100
0001
0100
1000
0010
0100
,
0001
0010
1000
0010
0001
0010
0100
1000
,
0010
0001
1000
0100
0001
0010
0100
1000
,
1010
0011
1100
0101
,
0011
1010
0101
1100
,
1001
0001
0100
0010
1010
1000
0010
0100
,
0101
0001
0010
0100
2200
3300
0022
0033
,
2002
0000
0000
0000
,
0000
0000
0000
0000
3003
0000
0000
0000
1001
0000
0000
0001
1000
0000
0010
0000
,
1010
0000
1000
0000
0100
0010
0100
0000
1000
0000
0010
0000
0100
0001
0100
0000
,
0010
0000
1000
0000
0100
0010
0100
0000
0001
0000
0000
0100
1000
0000
0010
0000
,
0110
0000
0100
0000
0010
1000
0010
0000
0100
0000
0001
0000
0010
0100
0010
0000
,
0001
0000
1000
0000
0100
0010
0100
0000
1000
0000
0000
0100
0001
0000
0100
0000
,
1100
0000
1000
0000
0010
0100
0010
0000
0001
0000
1000
0000
0100
0010
0100
0000
,
0001
0000
0010
0000
0100
0010
0100
0000
1000
0000
0000
0010
0001
0000
0010
0000
,
0210
1000
0001
1000
,
0001
0000
1000
0000
0301
0010
0100
0220
,
0330
0000
0000
0000
;

//---------------dance-double - ----------------
#NOTES:
     dance-double:
     :
     Hard:
     14:
     0.591084,0.608682,0.282603,0.239125,0.373180,571.000000,532.000000,39.000000,33.000000,0.000000,0.000000,0.591084,0.608682,0.282603,0.239125,0.373180,571.000000,532.000000,39.000000,33.000000,0.000000,0.000000:
00000000
00000000
00000000
00000000
,
00000000
00000000
00000000
00000000
,
00000000
00000000
00000000
00000000
,
00000000
00000000
00000000
00000000
00000000
00000000
00000000
00001000
,
00011000
00000000
00010000
00000000
01000000
00100000
01000000
00000000
10000000
00000000
00000000
00000000
00100000
01000000
00000000
00000000
,
00100000
00010000
00100000
00000000
00010000
00000000
00001000
00000000
00000100
00000000
00000000
00000000
00000001
00000010
00000000
00000000
,
00000100
00001000
00000100
00000000
00000010
00000000
00001000
00010000
00001000
00000000
00010000
00000000
01000000
00000000
10000000
00100000
,
10000000
00000000
00100000
00010000
00100000
00000000
00010000
00001000
00010000
00000000
00000000
00000000
00001000
00000100
00000000
00000000
,
00000101
00000000
00000001
00000010
00000001
00000000
00000100
00000000
00001000
00000000
00010000
00001000
00010000
00000000
01000000
00000000
,
10000000
00100000
10000000
00000000
00100000
01000000
00100000
00000000
00010000
00000000
00001000
00010000
00001000
00000000
00000100
00000000
,
00000001
00000010
00000100
00000000
00000010
00000100
00001000
00000000
00000100
00000000
00020100
00000000
00000000
00000000
00031000
00000000
,
00001000
00100000
00001000
00000000
00010000
00000010
00010000
00000000
00001000
00000000
00000000
00000000
00100000
00010000
00100000
00000000
,
01000000
00000000
10000000
00000000
00100000
01000000
00100000
00000000
00110000
00000000
00000000
00011000
00000000
00000000
00001010
00000000
,
00000010
00000100
00000000
00000010
00000000
00000000
00000001
00000000
00000201
00000000
00000000
00001000
00000000
00001300
00000000
00000000
,
00001000
00010000
00001000
00000000
00100000
00000000
01000000
00100000
01000000
00000000
10000000
00100000
00000000
00010000
00000000
00000000
,
00100000
01000000
00100000
00000000
00010000
00000000
00001000
00010000
00001000
00000000
00000100
00000001
00000000
00000010
00000000
00000000
,
00001000
00000010
00001000
00000000
00010000
00001000
00010000
00000000
00100000
00000000
10000000
01000000
00000000
00100000
00000000
00000000
,
01000000
10000000
01000000
00000000
00010000
00001000
00010000
00000000
00010200
00000000
00000000
00000010
00000000
00000310
00000000
00000000
,
00000010
00000001
00000010
00000000
00001000
00000000
00010000
00001000
00010000
00000000
00100000
10000000
00000000
01000000
00000000
00000000
,
00100000
01000000
00100000
00000000
00001000
00000000
00010000
00001000
00000200
00000000
00000000
00000000
00000301
00000000
00001000
00000000
,
00001001
00000001
00000010
00000100
00000010
00001000
00010000
01000000
,
00100000
01000000
10000000
00200000
01300000
00000000
10010000
10000000
,
01000000
00100000
01000000
00010000
00001000
00000010
00000100
00000010
,
00000001
00000100
00000010
00002000
00003001
00000000
00000110
00000010
,
00000100
00001000
00010000
00100000
10000000
01000000
00010000
00001000
,
00000010
00000001
00000100
00002000
00013000
00000000
00011000
00010000
,
00100000
10000000
01000000
00010000
00001000
00000010
00000001
00000100
,
00001000
00010000
00100000
10000000
01000000
00010000
00001000
00000000
,
00022000
00000000
00000000
00000000
,
00000000
00000000
00000000
00000000
00033000
00000000
00000000
00000000
00011000
00000000
00000000
00001000
00010000
00000000
00001000
00000000
,
01000000
00010000
00100000
01000000
00010000
00000100
00001000
00000010
,
00010000
00000000
00100000
00000000
01000000
00000000
00001000
00000000
00011000
00000000
00000000
00010000
00001000
00000000
00010000
00000000
,
00000100
00001000
00000010
00000100
00001000
01000000
00010000
00100000
,
00001000
00000000
00000010
00000000
00000100
00000000
00010000
00000000
00011000
00000000
00000000
00001000
00010000
00000000
00001000
00000000
,
00100000
00010000
01000000
00001000
00000100
00010000
00100000
00001000
,
00000010
00000000
00010000
00000000
00100000
00000000
00001000
00000000
00011000
00000000
00000000
00010000
00001000
00000000
00000010
00000000
,
00000022
00000000
00000000
00000000
00000033
00000000
00000000
00000000
00000101
00000000
00000000
00001100
00000000
00000000
00000000
00000000
,
00011000
00000000
00001000
00000000
00010000
00001000
00010000
00001000
00100000
00000000
00010000
01000000
00000000
00100000
01000000
00000000
,
00200000
00000000
00000000
00000000
10300000
01000000
00100000
00000000
00000000
00000000
01000000
00010000
00001000
00010000
00001000
00000000
,
00010000
00001000
00000100
00000000
00000001
00000000
00001000
00000100
00000010
00000000
00000001
00000100
00000000
00001000
00000100
00000000
,
00000010
00000000
00000000
00000000
00001010
00000000
00001000
00000100
00001000
00000100
00010000
00000000
00002000
00000000
00000000
00000000
,
01003000
00000000
00000000
00000000
01000000
00010000
00100000
00000000
01000000
00000000
10000000
00000000
01000000
00000000
00010000
00001000
,
00010000
00000000
00000100
00001000
00000100
00000000
00000010
00000001
00000010
00000000
00000100
00010000
00000000
00000000
00001000
00010000
,
00001000
00000000
00100000
00010000
00100000
00000000
01000000
10000000
01000000
00000000
00100000
00002000
00000000
00000000
00013000
00000000
,
00011000
00000000
00000000
00000000
00020000
00000000
00000000
00030010
00000000
00000010
00001000
00000100
00001000
00000000
00000100
00000000
,
00000020
00000000
00000000
00000000
00000001
00000000
00000000
00000000
00001030
00000000
00001000
00010000
00001000
00000000
00010000
00000000
,
02000000
00000000
10000000
00000000
03010000
00010000
00001000
00100000
,
00010000
00000000
00001000
00000000
00000010
00000000
00000100
00000001
00000010
00000000
00000001
00000000
00000100
00001000
00010000
00000000
,
00001000
00010000
00001000
00000000
00100000
00000000
01000000
00100000
01000000
00000000
10000000
00000000
00100000
00010000
00100000
00020000
,
00000000
00000000
00031000
00000000
00010000
00000000
00001000
00000100
00001000
00000000
00010000
00000000
00001000
00000100
00001000
00000100
,
00000001
00000010
00001000
00010000
00000010
00001000
00010000
02000000
,
00000000
00000000
03100000
10000000
00100000
00000000
01000000
00000000
00010000
00100000
00001000
00000000
00000000
00000000
00010000
00000000
,
00012000
00000000
00000010
00000010
00003020
00000001
00000031
00001000
,
00000100
00010000
00000100
00001000
00000100
00010000
00001000
00100000
,
00010000
01000000
00001000
01000000
00010000
01000000
00001000
00010000
,
00100000
10000000
01000000
00010000
00001000
00000010
00000001
00001000
,
00001100
00011000
01010000
00011000
,
00001010
00011000
00110000
00011000
,
00001000
00010000
00100000
01000000
10000000
01000000
00100000
00010000
,
00001000
00000100
00000010
00000001
00000020
00000030
00002000
00003000
,
00022000
00000000
00000000
00000000
,
00000000
00000000
00000000
00000000
00033000
00000000
00000000
00000000
00011000
00000000
00000000
00010000
00001000
00000000
00100000
00000000
,
00110000
00000000
00010000
00000000
01000000
00100000
01000000
00000000
10000000
00000000
01000000
00000000
00100000
00010000
00100000
00000000
,
00010000
00000000
00001000
00000000
00000100
00000010
00000100
00000000
00001000
00000000
00010000
00001000
00010000
00000000
00000010
00000000
,
00001010
00000000
00001000
00000000
00000100
00000010
00000100
00000000
00000001
00000000
00000100
00000000
00000010
00001000
00000010
00000000
,
00001000
00000000
00010000
00000000
01000000
00100000
01000000
00000000
00010000
00000000
00001000
00010000
00001000
00000000
00100000
00000000
,
01100000
00000000
01000000
00000000
10000000
00100000
10000000
00000000
00100000
00000000
00010000
00000000
00001000
00010000
00001000
00000000
,
00000100
00000000
00000001
00000000
00000010
00001000
00000010
00000000
00001000
00000000
00010000
00001000
00010000
00000000
01000000
00000000
,
21000000
30200000
00320000
00032000
,
00003200
00000000
00000302
00000000
00000013
00001000
00010000
00022000
,
00033000
00000000
00000000
00000000
;

//---------------dance-single - ----------------
#NOTES:
     dance-single:
     :
     Medium:
     10:
     0.407859,0.456512,0.253618,0.166663,0.083332,394.000000,359.000000,35.000000,23.000000,0.000000,0.000000,0.407859,0.456512,0.253618,0.166663,0.083332,394.000000,359.000000,35.000000,23.000000,0.000000,0.000000:
0000
0000
0000
0000
,
0000
0000
0000
0000
,
0000
0000
0000
0000
,
0000
0000
0000
0000
0000
0000
0000
1000
,
1000
0001
0100
0010
1000
0000
0001
0000
,
1000
0010
0100
0001
1000
0000
0001
0000
,
1000
0100
1000
0000
0001
0010
0001
0000
,
0100
0010
0100
0010
0100
0000
0110
0000
,
0010
1000
0000
0010
0100
0010
0000
0100
,
0001
0010
0100
0010
0001
0010
0100
0000
,
1000
0100
0010
0000
0001
0100
0000
0010
,
0100
0010
1000
0010
0100
0000
0101
0000
,
0001
0000
0010
0000
0001
0000
0100
0000
0010
0000
0000
0010
0000
0000
0010
0000
,
1000
0000
0100
0000
0010
0000
0000
0000
0002
0000
0000
0100
0000
0103
0000
0000
,
0100
0001
0010
0000
0010
0100
1000
0000
,
1000
0000
0010
0000
0100
0000
0001
0000
2000
0000
0000
0100
0000
3100
0000
0000
,
0100
0000
0010
0000
0001
0000
0000
0000
0200
0000
0000
0010
0000
0310
0000
0000
,
0010
0000
1000
0000
0001
0000
0000
0000
0020
0000
0000
0100
0000
0130
0000
0000
,
0100
1000
0010
1000
0100
0000
0110
0000
,
0010
0001
0100
0001
0010
0000
0110
0000
,
1000
0010
0001
0100
,
1000
0010
0100
0010
2000
0000
3001
0000
,
0001
0010
1000
0100
,
0001
0010
0100
0010
0002
0000
1003
0000
,
1000
0100
0001
0010
,
1000
0100
0010
0100
2000
0000
3001
0000
,
0001
0010
1000
0100
,
0001
1000
0001
0100
0010
0100
0110
0000
,
2002
0000
0000
0000
,
0000
0000
3003
0110
,
1001
0000
0000
0000
1000
0000
0010
0000
0100
0000
0000
0100
0000
0000
0100
0000
,
0010
0000
0000
0010
0000
0000
0010
0000
1000
0000
0100
0000
0010
0000
0100
0000
,
0110
0000
0000
0000
0001
0000
0100
0000
0010
0000
0000
0010
0000
0000
0010
0000
,
0100
0000
0000
0100
0000
0000
0100
0000
0001
0000
0010
0000
0100
0000
0010
0000
,
0110
0000
0000
0000
0001
0000
0100
0000
1000
0000
0000
1000
0000
0000
1000
0000
,
0001
0000
0000
0001
0000
0000
0001
0000
0010
0000
1000
0000
0001
0000
1000
0000
,
2002
0000
0000
0000
3003
0000
0000
0000
1010
0000
0000
0101
0000
0000
0000
0000
,
0001
0022
0033
0000
0010
0100
1100
0000
,
1001
0000
0001
0100
0000
0100
1000
0100
,
0001
0000
0010
0000
0100
0000
0010
0000
0100
0000
0000
0100
0000
0000
0200
0000
,
0300
0000
1001
0000
1000
0010
0100
0000
,
0101
0000
0001
0010
0100
0010
1000
0000
,
0010
0000
0001
0000
0100
1000
0100
0000
,
0001
0000
0010
0000
0100
0001
0100
0000
,
1100
0000
1000
0000
0010
0100
0001
1000
,
0100
0000
1000
0001
0010
0000
0001
0100
,
0010
0000
1000
0010
0100
0000
0001
0010
,
0100
0010
0001
0010
1000
0010
0001
0000
,
1000
0100
0001
0100
0010
0001
0100
0000
,
0001
0010
1000
0010
0100
1000
0010
0010
,
0100
0001
0100
0010
1000
0100
0010
0011
,
0000
0001
0100
0010
1000
0001
1001
0000
,
0220
0000
0000
0000
0330
0000
0002
0100
,
0103
0000
0100
0000
0100
0000
2000
0010
,
3010
0000
0010
0000
0010
0000
0002
1000
,
1003
0000
1000
0000
1000
0010
0100
0001
,
0010
0110
0100
1100
,
1000
1001
0001
0101
,
0100
0110
0010
1010
,
1000
1100
0100
0110
,
2002
0000
0000
0000
,
0000
0000
3003
0110
,
1001
0000
0000
0000
1000
0000
0010
0000
0100
0000
0000
0100
0000
0000
1000
0000
,
0100
0000
0000
0100
0000
0000
0001
0000
0010
0000
0100
0000
1000
0000
0001
0000
,
1001
0000
0000
0000
0001
0000
0100
0000
0010
0000
0000
0010
0000
0000
0001
0000
,
0010
0000
0000
0010
0000
0000
1000
0000
0100
0000
0010
0000
0001
0000
1000
0000
,
1001
0000
0000
0000
0001
0000
0100
0000
0010
0000
0000
0001
0000
0000
0010
0000
,
1000
0000
0000
0100
0000
0000
1000
0000
0010
0000
0001
0000
1000
0000
0100
0000
,
0020
0001
0000
0100
,
0000
0000
1000
0000
0000
0000
0100
0200
,
0330
0000
0000
0000
;

//---------------dance-double - ----------------
#NOTES:
     dance-double:
     :
     Medium:
     11:
     0.395437,0.405788,0.202894,0.115940,0.039854,382.000000,354.000000,28.000000,16.000000,0.000000,0.000000,0.395437,0.405788,0.202894,0.115940,0.039854,382.000000,354.000000,28.000000,16.000000,0.000000,0.000000:
// measure 0
00000000
00000000
00000000
00000000
,  // measure 1
00000000
00000000
00000000
00000000
,  // measure 2
00000000
00000000
00000000
00000000
,  // measure 3
00000000
00000000
00000000
00000000
00000000
00000000
00000000
00001000
,  // measure 4
00001000
00010000
00000100
00001000
00000001
00000000
00001001
00000000
,  // measure 5
00001000
00000010
00010000
00001000
00100000
00000000
00110000
00000000
,  // measure 6
00010000
10000000
01000000
00000000
10000000
00010000
00100000
00000000
,  // measure 7
01000000
00010000
00001000
00000010
00000100
00000000
00001100
00000000
,  // measure 8
00001000
00000010
00000000
00000010
00000001
00000010
00000000
00000010
,  // measure 9
00001000
00000100
00000001
00000100
00001000
00000100
00000010
00000000
,  // measure 10
00000001
00000100
00001000
00000000
00010000
00001000
00000000
00001000
,  // measure 11
00100000
01000000
10000000
00100000
01000000
00000000
01010000
00000000
,  // measure 12
00010000
00000000
10000000
00000000
00100000
00000000
00010000
00000000
00001000
00000000
00000000
00001000
00000000
00000000
00001000
00000000
,  // measure 13
00010000
00000000
00001000
00000000
00000100
00000000
00000000
00000000
00000101
00000000
00000000
00000001
00000000
00000010
00000000
00000000
,  // measure 14
00000001
00000100
00001000
00000000
00010000
00100000
10000000
00000000
,  // measure 15
01000000
00000000
00100000
00000000
00010000
00000000
01000000
00000000
00100000
00000000
00000000
10000000
00000000
01000000
00000000
00000000
,  // measure 16
10000000
00000000
00100000
00000000
01000000
00000000
00000000
00000000
00010000
00000000
00000000
00100000
00000000
00001000
00000000
00000000
,  // measure 17
00010000
00000000
00001000
00000000
00000100
00000000
00000000
00000000
00000001
00000000
00000000
00001000
00000000
00000010
00000000
00000000
,  // measure 18
00001000
00000100
00000010
00001000
00010000
00000000
00011000
00000000
,  // measure 19
00001000
00010000
01000000
10000000
00100000
00000000
01100000
00000000
,  // measure 20
01000000
00001000
00010000
00000100
,  // measure 21
00001000
00000100
00000010
00000001
00001000
00000000
00001001
00000000
,  // measure 22
00000001
00000100
00000010
00001000
,  // measure 23
00000100
00010000
00001000
00100000
00010000
00000000
10010000
00000000
,  // measure 24
10000000
00100000
00010000
00001000
,  // measure 25
00000100
00000001
00000010
00000100
00000010
00000000
00000110
00000000
,  // measure 26
00000100
00010000
00001000
00100000
,  // measure 27
01000000
10000000
01000000
00100000
00010000
01000000
00001000
00000000
,  // measure 28
00022000
00000000
00000000
00000000
,  // measure 29
00000000
00000000
00033000
00000000
,  // measure 30
00011000
00000000
00010000
00001000
00000100
00000000
00001000
00000100
,  // measure 31
00000001
00000000
00000100
00000001
00000010
00001000
00010000
00001000
,  // measure 32
00010000
00000000
00001000
00010000
01000000
00000000
00010000
01000000
,  // measure 33
10000000
00000000
01000000
10000000
00100000
00010000
00001000
00010000
,  // measure 34
00001000
00000000
00010000
00001000
00000010
00000000
00001000
00010000
,  // measure 35
01000000
00000000
00010000
00001000
00000100
00001000
00010000
00001000
,  // measure 36
00022000
00000000
00000000
00000000
00033000
00000000
00000000
00000000
00010000
00000000
00000000
01000000
00000000
00000000
00000000
00000000
,  // measure 37
20000000
00020000
30030000
00000000
00010000
00100000
01000000
00000000
,  // measure 38
00010000
00000000
00001000
00010000
00000000
00010000
00001000
00000100
,  // measure 39
00000001
00000000
00000010
00000000
00000100
00000000
00000010
00000000
00000001
00000000
00000000
00000100
00000000
00000000
00002000
00000000
,  // measure 40
00003000
00000000
00011000
00000000
00010000
01000000
10000000
00000000
,  // measure 41
10100000
00000000
00100000
00010000
00001000
00010000
00000010
00000000
,  // measure 42
00001000
00000000
00000100
00000000
00000010
00000001
00000100
00000000
,  // measure 43
00001000
00000000
00010000
00000000
01000000
10000000
00100000
00000000
,  // measure 44
01100000
00000000
01000000
00000000
00100000
00010000
00001000
00000010
,  // measure 45
00000100
00000000
00000010
00000001
00000100
00000000
00001000
00010000
,  // measure 46
01000000
00000000
10000000
00100000
01000000
00000000
10000000
01000000
,  // measure 47
00010000
00100000
01000000
00100000
00001000
00010000
00000010
00000000
,  // measure 48
00001000
00000100
00000010
00001000
00000010
00000001
00000100
00000000
,  // measure 49
00001000
00010000
00100000
00010000
00001000
00100000
01000000
01000000
,  // measure 50
10000000
00100000
00010000
00001000
00000100
00000001
00000010
00000100
,  // measure 51
00000000
00000001
00000100
00010000
00001000
00010000
01000000
00000000
,  // measure 52
02200000
00000000
03300000
10000000
,  // measure 53
01000000
01000000
01000000
00010000
,  // measure 54
00001000
00001000
00001000
00000010
,  // measure 55
00000001
00000000
00000001
00000000
00000001
00000100
00001000
00010000
,  // measure 56
00001000
01001000
00010000
00010100
,  // measure 57
00001000
00101000
00010000
00010010
,  // measure 58
00000100
00001100
00010000
00011000
,  // measure 59
01000000
01010000
00001000
00011000
,  // measure 60
00022000
00000000
00000000
00000000
,  // measure 61
00000000
00000000
00033000
00000000
,  // measure 62
00011000
00000000
00010000
01000000
10000000
00000000
00100000
00010000
,  // measure 63
00001000
00000000
00010000
01000000
10000000
00100000
00010000
00001000
,  // measure 64
00010000
00000000
00001000
00000100
00000001
00000000
00000010
00001000
,  // measure 65
00010000
00000000
00001000
00000100
00000001
00000010
00001000
00010000
,  // measure 66
00001000
00000000
00010000
01000000
00010000
00000000
00001000
00000100
,  // measure 67
00001000
00000000
00010000
00100000
00010000
00001000
00000010
00001000
,  // measure 68
00021000
00230000
00000000
20300000
,  // measure 69
00000000
00000000
32000000
00000000
00000000
00000000
03010000
00002000
,  // measure 70
00003000
00000000
00000000
00000000
;
