#TITLE:CURSE;
#SUBTITLE:;
#ARTIST:bamm;
#TITLETRANSLIT:;
#SUBTITLETRANSLIT:;
#ARTISTTRANSLIT:;
#GENRE:POP CHARTS;
#CREDIT:MUINELIM;
#BANNER:CURSE.png;
#BACKGROUND:CURSE-bg.png;
#LYRICSPATH:;
#CDTITLE:;
#MUSIC:CURSE.ogg;
#OFFSET:-0.093000;
#SAMPLESTART:39.688625;
#SAMPLELENGTH:14.845364;
#SELECTABLE:YES;
#DISPLAYBPM:97.000000;
#BPMS:0.000000=97.000000
;
#STOPS:
;
#BGCHANGES:0.000=CURSE.avi=1.000=0=0=0=StretchNoLoop====,
99999=-nosongbg-=1.000=0=0=0 // don't automatically add -songbackground-
;
#KEYSOUNDS:;
#ATTACKS:;

//---------------dance-single - ----------------
#NOTES:
     dance-single:
     :
     Beginner:
     3:
     0.111698,0.136830,0.045109,0.022554,0.000000,104.000000,98.000000,6.000000,3.000000,0.000000,0.000000,0.111698,0.136830,0.045109,0.022554,0.000000,104.000000,98.000000,6.000000,3.000000,0.000000,0.000000:
0000
0000
0000
0000
,
0000
0000
0000
0000
,
0000
0000
0000
0000
,
0000
0000
0000
0000
,
0001
0000
0100
0000
,
0001
0000
0100
0000
,
0010
0000
1000
0000
,
0010
0000
1000
0000
,
0100
0000
0010
0000
,
0100
0000
0010
0000
,
0001
0000
1000
0000
,
0001
0000
1000
0000
,
1001
0000
0000
0000
,
1001
0000
0000
0000
,
0001
0000
1000
0000
,
0020
0000
0030
0000
,
0010
0010
0010
0000
,
1000
1000
1000
0000
,
0100
0100
0100
0000
,
0100
0000
0100
0000
,
0010
0010
0010
0000
,
0001
0001
0001
0000
,
0100
0100
0100
0000
,
0100
0000
0100
0000
,
0010
0000
1000
0000
,
0001
0000
0100
0000
,
0010
0000
1000
0000
,
1001
0000
0000
0000
,
0001
0000
0010
0000
,
0100
0000
1000
0000
,
1000
0000
0100
0000
,
0010
0000
0001
0000
,
0001
0000
0100
0000
,
0010
0000
1000
0000
,
1000
0000
0010
0000
,
0100
0000
0001
0000
,
1001
0000
0000
0000
,
1001
0000
0000
0000
,
1000
0000
0001
0000
,
0200
0000
0300
0000
,
0100
0000
0100
0000
,
0010
0000
0010
0000
,
0100
0000
0010
0000
,
0100
0100
0100
0000
,
0001
0000
0010
0000
,
0100
0000
1000
0000
,
0100
0000
0010
0000
,
0001
0001
0001
0000
,
1001
0000
1000
0000
,
0010
0000
0100
0000
,
0001
0000
0010
0000
,
0100
0000
1000
2000
,
3000
0000
0000
0000
;

//---------------dance-single - ----------------
#NOTES:
     dance-single:
     :
     Easy:
     5:
     0.201915,0.215018,0.120290,0.052627,0.000000,188.000000,172.000000,16.000000,7.000000,0.000000,0.000000,0.201915,0.215018,0.120290,0.052627,0.000000,188.000000,172.000000,16.000000,7.000000,0.000000,0.000000:
0000
0000
0000
0000
,
0000
0000
0000
0000
,
0000
0000
0000
0000
,
0000
0000
0000
0000
,
1000
0001
1000
1000
,
0001
1000
0001
0001
,
0100
0010
0100
0100
,
0010
0100
0010
0000
,
1000
0010
1000
0100
,
1000
0010
1000
1000
,
0001
0010
0001
0100
,
0001
0010
0001
0001
,
0000
1000
0001
2000
,
3000
0010
0100
0020
,
0030
1000
0001
1000
,
0010
0100
0020
0030
,
1000
0100
0010
0001
,
1000
0100
0010
0000
,
0001
0010
0100
1000
,
1001
0000
1001
0010
,
0001
0100
0010
1000
,
0001
0100
0010
0000
,
1000
0010
0100
0001
,
1001
0000
1001
0100
,
1000
0010
0100
0001
,
0100
0010
1000
0100
,
0010
0001
1000
0001
,
1001
0000
1001
0010
,
0001
0010
0100
1000
,
0010
0100
0020
0030
,
1000
0001
0100
1000
,
0100
0000
0001
0000
0010
0010
0010
0000
,
0001
1000
0100
1100
,
1000
0001
0010
0011
,
0002
0003
2000
3000
,
0010
0000
0100
0000
0010
0010
0010
0000
,
1000
0000
1010
0000
,
0001
0000
0101
0000
,
1000
0010
0100
0001
,
0010
0100
0020
0030
,
0001
0100
0000
0100
,
1000
0010
0000
0010
,
0001
0100
0000
0100
,
1001
0000
1001
0010
,
1000
0100
0010
0001
,
0100
1000
0100
0001
,
0010
0100
1000
0001
,
1001
0000
1001
0010
,
0001
0100
0010
1000
,
0001
0010
0100
1000
,
0010
0001
1000
0100
,
1001
0000
0000
0000
1001
0000
0010
0010
,
0010
0000
0000
0000
;

//---------------dance-single - ----------------
#NOTES:
     dance-single:
     :
     Medium:
     9:
     0.285689,0.312754,0.045109,0.233062,0.000000,266.000000,260.000000,6.000000,31.000000,0.000000,0.000000,0.285689,0.312754,0.045109,0.233062,0.000000,266.000000,260.000000,6.000000,31.000000,0.000000,0.000000:
0000
0000
0000
0000
,
0000
0000
0000
0000
,
0000
0000
0000
0000
,
0000
0000
0000
0000
,
1000
0000
0001
0000
0100
0100
0100
0000
,
0001
0000
1000
0000
0010
0010
0010
0000
,
0100
0000
0001
0000
1000
1000
1000
0000
,
0010
0000
1000
0000
0001
0001
0001
0000
,
0100
0001
0100
0000
0010
0100
0010
0000
,
1000
0010
1000
0000
0001
1000
0001
0000
,
0010
0001
0010
0000
0100
1000
0100
0000
,
1000
0001
1000
0000
0010
0100
0010
0000
,
1000
0100
0020
0031
,
0001
0100
0020
1030
,
1000
0001
0100
0000
0001
1000
0010
0000
,
2000
3200
0320
0031
,
0001
1000
0010
1000
0001
0000
1000
0000
,
0001
0100
0010
0100
0001
0000
0010
0000
,
0001
0010
0100
0010
0001
0000
0100
0000
,
0010
0010
0000
1000
1000
0000
0001
0001
,
1000
0001
0010
0001
1000
0000
0001
0000
,
1000
0100
0010
0100
1000
0000
0010
0000
,
1000
0010
0100
0010
1000
0000
0100
0000
,
0010
0010
0000
0001
0001
0000
1000
1000
,
0020
0230
0302
2003
,
3100
0010
0100
0010
0001
0000
1001
0000
,
2000
3020
0230
0302
,
1003
0010
0000
0010
0100
0000
0100
0001
,
0010
0100
1000
0000
1000
0010
0100
0000
,
0100
0001
0010
0000
0010
0100
0110
0000
,
0010
0001
0100
0000
0100
0010
1000
0000
,
1000
0001
0100
0000
0100
0010
0200
0000
,
0301
0010
0100
1000
0010
0100
0001
0000
,
1000
0100
0010
0001
0100
0010
1000
0000
,
0001
0100
1000
0000
1000
0100
0001
0000
,
0001
0010
0100
1000
0010
0100
0002
0000
,
2003
0000
0000
0000
3100
0010
0100
0000
,
0002
0000
0000
0000
0103
0010
0100
0000
,
1000
0010
0001
0000
0001
0010
1000
0000
,
0200
0320
0032
1003
,
2000
0010
0000
3010
,
0002
0100
0000
0103
,
2000
0001
0000
3001
,
0001
0001
0000
1000
1000
0000
0010
0010
,
0100
0001
0010
0100
1000
0000
1010
0000
,
0010
1000
0100
0010
0001
0000
0101
0000
,
0100
0010
1000
0001
0010
0000
0110
0000
,
0100
0100
0000
1000
1000
0000
0001
0001
,
0020
2030
3020
0032
,
0103
0010
1000
0001
0010
0100
1000
0000
,
0200
0302
0203
2300
,
3010
0010
0000
0001
0001
0000
0100
0100
,
1001
0000
0000
0000
;

//---------------dance-single - ----------------
#NOTES:
     dance-single:
     :
     Hard:
     12:
     0.434977,0.566866,0.218025,0.270652,0.240580,405.000000,376.000000,29.000000,36.000000,0.000000,0.000000,0.434977,0.566866,0.218025,0.270652,0.240580,405.000000,376.000000,29.000000,36.000000,0.000000,0.000000:
0000
0000
0000
0000
,
0000
0000
0000
0000
,
0000
0000
0000
0000
,
0000
0000
0000
0000
,
0000
0000
1000
0000
1000
0000
0010
0100
0010
0000
1000
0000
1000
0000
0100
0010
,
0100
1000
1000
0010
0100
0001
2000
3000
,
0000
0000
0001
0000
0001
0000
0100
0010
0100
0000
0001
0000
0001
0000
0010
0100
,
0010
0000
0001
0000
0001
0000
0100
0000
0010
0000
1000
0001
1000
0001
0200
0000
,
0300
0000
0001
0000
0010
0000
0100
1000
0100
0000
1000
0000
0010
0000
0100
0001
,
0100
0000
0001
0000
0010
0000
0100
0000
1000
0010
1000
0000
0002
0000
0003
0000
,
0000
0000
1000
0000
0100
0000
0010
0001
0010
0000
0001
0000
0100
0000
0020
0000
,
1030
0000
2000
0000
3001
0000
0002
0000
0103
0010
0200
0000
0310
0000
0000
0000
,
1010
1000
0100
0010
0001
1000
0200
0300
,
0101
0001
0010
0100
1000
0001
0020
0030
,
1010
1000
0100
0001
0100
1000
0010
0100
,
0101
1010
2002
3003
,
0001
0100
1000
0100
0001
0020
0100
0130
,
1000
0010
0001
0010
1001
0000
1000
0010
,
0100
0001
0100
0000
0010
0000
1000
0000
0100
0000
0001
0000
0100
0000
1000
0000
,
0020
0100
0030
2000
0001
3000
0010
0010
,
1000
0100
0001
0100
1000
0020
0100
0130
,
0001
0010
1000
0010
1001
0000
0001
0010
,
0100
1000
0100
0000
0010
0000
0001
0000
0100
0000
1000
0000
0100
0000
0001
0000
,
0020
0100
0030
0002
1000
0003
0100
0100
,
0110
0000
0000
0010
1000
0000
0000
1000
0100
0000
0000
0100
0001
0000
0000
0001
,
0010
0100
0010
0001
0101
0000
1010
0000
,
1001
0000
0000
0001
0010
0000
0000
0010
1000
0000
0000
1000
0100
0000
0000
0100
,
0002
0010
0003
2000
0100
3000
0010
0010
,
0100
0000
0000
0000
0000
0000
0001
0000
0000
0000
0000
0000
0010
0000
0000
0000
0000
0000
0100
0000
0000
0000
0000
0000
1000
0000
0000
0000
0010
0000
0000
0000
0100
0000
0000
0000
0001
0000
0000
1000
0000
0000
0001
0000
0000
1000
0000
0000
,
0100
0000
0000
0010
0000
0000
0001
0000
0000
0100
0000
0000
0010
0000
1000
0000
0001
0000
1001
0000
0000
0000
0000
0000
,
1000
0010
0100
0000
0100
0000
0001
0100
0010
0000
0010
0000
1000
0100
0010
0000
,
0001
0100
0001
0100
0010
1000
0010
0000
0100
0000
0001
0000
0020
0000
0000
0000
,
0130
1000
0100
0000
1000
0000
0010
0100
0001
0100
0001
1000
0000
1000
0000
0010
,
0100
0000
0100
0001
0100
0000
0010
0000
1000
0100
0010
0001
0000
0001
0000
0010
,
0001
0010
0001
0100
0000
0110
0000
0010
1000
0010
1000
0100
0000
0110
0000
0010
,
0001
0010
0100
1000
0010
1000
0010
0100
0001
0000
1000
0000
0020
0000
0030
0000
,
0110
0100
0001
0100
1000
0100
0020
0030
,
0110
0010
1000
0010
0001
0010
0200
0300
,
0110
0100
0001
0010
1000
0001
0100
1000
,
1010
0101
0220
0330
,
2000
0010
0000
0010
,
3002
0100
0000
0100
,
0023
1000
0000
1000
,
0032
0100
0003
2000
0010
3000
1001
1001
,
0001
0100
1000
0001
0010
2000
0001
3001
,
0010
0100
1000
0010
0101
0000
0011
0011
,
0100
1000
0100
0000
1000
0000
0010
0000
0001
0000
1000
0000
0100
0000
0001
0000
,
0020
1000
0030
0200
0001
0300
1000
0001
,
1001
0000
1000
0010
0100
0000
1000
0000
0100
0000
0010
1000
0100
0000
0010
0000
,
0100
0000
1000
0010
0100
0000
0100
0001
0010
0000
0010
0100
2000
0000
0000
0000
,
3001
0000
0001
0100
0010
0000
0001
0000
0010
0000
0100
0001
0010
0000
0100
0000
,
2000
0010
3001
0002
0100
1003
0010
0110
,
1001
0000
0000
0000
;

//---------------dance-double - ----------------
#NOTES:
     dance-double:
     :
     Hard:
     12:
     0.443569,0.527772,0.263134,0.263134,0.225544,413.000000,378.000000,35.000000,35.000000,0.000000,0.000000,0.443569,0.527772,0.263134,0.263134,0.225544,413.000000,378.000000,35.000000,35.000000,0.000000,0.000000:
00000000
00000000
00000000
00000000
,
00000000
00000000
00000000
00000000
,
00000000
00000000
00000000
00000000
,
00000000
00000000
00000000
00000000
,
00000000
00000000
00000100
00000000
00000100
00000000
00010000
00001000
00010000
00000000
00000010
00000000
00000010
00000000
00010000
00001000
,
00010000
00000100
00000100
00000010
00000001
00000100
00002000
00003000
,
00000000
00000000
01000000
00000000
01000000
00000000
00001000
00010000
00001000
00000000
00100000
00000000
00100000
00000000
00001000
00010000
,
00001000
00000000
01000000
00000000
01000000
00000000
00100000
00000000
10000000
00000000
01000000
00010000
01000000
00010000
00002000
00000000
,
00003000
00000000
00010000
00000000
00001000
00000000
00000100
00000010
00000100
00000000
00001000
00000000
00010000
00000000
00100000
01000000
,
00100000
00000000
00010000
00000000
00001000
00000000
00000100
00000000
00000001
00000010
00000001
00000000
00000020
00000000
00000030
00000000
,
00000000
00000000
00001000
00000000
00010000
00000000
00100000
10000000
00100000
00000000
10000000
00000000
01000000
00000000
00200000
00000000
,
00301000
00000000
00002000
00000000
00013000
00000000
00020000
00000000
00030010
00000100
00000020
00000000
00000130
00000000
00000000
00000000
,
00000101
00000001
00000010
00001000
00010000
01000000
20000000
30000000
,
10100000
10000000
01000000
00010000
00001000
00000010
00000002
00000003
,
00000101
00000001
00000100
00001000
00010000
00100000
10000000
01000000
,
01100000
00011000
00000220
00000330
,
00000001
00000100
00001000
00000100
00000001
00000010
00001000
00011000
,
00010000
00100000
10000000
02000000
00100000
03000000
10000000
00100000
,
00010000
00001000
00010000
00000000
00100000
00000000
10000000
00000000
01000000
00000000
00010000
00000000
00001000
00000000
00000010
00000000
,
00000001
00000201
00000000
00001300
00021000
00000000
00130000
00100000
,
10000000
01000000
00010000
01000000
10000000
00100000
00010000
00011000
,
00001000
00000010
00000001
00000200
00000010
00000300
00000001
00000010
,
00001000
00010000
00001000
00000000
00000010
00000000
00000001
00000000
00000100
00000000
00001000
00000000
00010000
00000000
00100000
00000000
,
10000000
12000000
00000000
03010000
00012000
00000000
00003100
00000100
,
00000101
00000000
00000001
00000010
00000100
00000000
00000010
00000000
00001000
00000000
00010000
00001000
00000100
00000000
00001000
00000000
,
00010000
01000000
10000000
00100000
01100000
00000000
01010000
00000000
,
10100000
00000000
10000000
01000000
00100000
00000000
01000000
00000000
00010000
00000000
00001000
00010000
00100000
00000000
00010000
00000000
,
00001000
00021000
00000000
00030010
00002010
00000000
00003001
00000001
,
00000100
00000000
00000000
00000000
00000000
00000000
00001000
00000000
00000000
00000000
00000000
00000000
00010000
00000000
00000000
00000000
00000000
00000000
00100000
00000000
00000000
00000000
00000000
00000000
10000000
00000000
00000000
00000000
01000000
00000000
00000000
00000000
00100000
00000000
00000000
00000000
00010000
00000000
00000000
01000000
00000000
00000000
00010000
00000000
00000000
01000000
00000000
00000000
,
00001000
00000000
00000000
00010000
00000000
00000000
00000100
00000000
00000000
00001000
00000000
00000000
00000001
00000000
00000100
00000000
00000010
00000000
00000110
00000000
00000000
00000000
00000000
00000000
,
00000100
00000001
00000010
00000000
00000010
00000000
00001000
00010000
00000100
00000000
00000100
00000000
00000010
00001000
00010000
00000000
,
00100000
10000000
00100000
10000000
01000000
00100000
01000000
00000000
00010000
00000000
00001000
00000000
00011000
00000000
00000000
00000000
,
00010000
00000100
00010000
00000000
00000010
00000000
00001000
00000100
00000010
00000100
00000010
00000001
00000000
00000001
00000000
00000100
,
00000010
00000000
00001000
00000010
00001000
00000000
00000100
00000000
00000010
00001000
00010000
00001000
00000000
00001000
00000000
00010000
,
00100000
01000000
00100000
10000000
00000000
01000000
00000000
00100000
00010000
00100000
00001000
00010000
00000000
00000100
00000000
00001000
,
00000010
00000100
00000001
00000010
00000100
00000010
00000100
00001000
00000001
00000000
00000100
00000000
00002000
00000000
00003000
00000000
,
00011000
00010000
01000000
10000000
00100000
00010000
00002000
00003000
,
00011000
00001000
00000100
00000001
00000010
00001000
00020000
00030000
,
00011000
00010000
00001000
00000010
00010000
01000000
00001000
00000100
,
00000110
00011000
02200000
03300000
,
20000000
00100000
00000000
00100000
,
30020000
00100000
00000000
00100000
,
00032000
00000100
00000000
00000100
,
00003001
00000201
00000000
00001300
00021000
00000000
00130000
10100000
,
10000000
01000000
00100000
00010000
00001000
00000010
00000100
00000101
,
00000001
00000010
00000100
00002000
00000001
00003000
00000100
00000010
,
00001000
00010000
00001000
00000000
00000010
00000000
00000001
00000000
00000100
00000000
00000010
00000000
00001000
00000000
00010000
00000000
,
01000000
01200000
00000000
10300000
12000000
00000000
03010000
00001000
,
00011000
00000000
00010000
00000100
00001000
00000000
00000100
00000000
00000010
00000000
00000001
00000100
00001000
00000000
00010000
00000000
,
00100000
00000000
10000000
01000000
00100000
00000000
00100000
00001000
00010000
00000000
00010000
00000100
00000020
00000000
00000000
00000000
,
00001030
00000000
00001000
01000000
00100000
00000000
10000000
00000000
01000000
00000000
00010000
00001000
00000010
00000000
00000001
00000000
,
00000100
00000120
00000000
00001030
00021000
00000000
01000000
00100000
,
10030000
00000000
00000000
00000000
;

//---------------dance-double - ----------------
#NOTES:
     dance-double:
     :
     Easy:
     5:
     0.200841,0.215018,0.135326,0.060145,0.000000,187.000000,169.000000,18.000000,8.000000,0.000000,0.000000,0.200841,0.215018,0.135326,0.060145,0.000000,187.000000,169.000000,18.000000,8.000000,0.000000,0.000000:
00000000
00000000
00000000
00000000
,
00000000
00000000
00000000
00000000
,
00000000
00000000
00000000
00000000
,
00000000
00000000
00000000
00000000
,
00001000
00010000
00000010
00000010
,
00010000
00001000
01000000
01000000
,
00001000
00010000
00000100
00000100
,
00010000
00001000
00100000
00000000
,
00010000
01000000
00001000
00010000
,
00000100
00001000
00000010
00000010
,
00001000
00000100
00010000
00001000
,
01000000
00010000
00100000
00100000
,
00000000
01000000
00010000
00002000
,
00003000
00010000
00001000
00000200
,
00000300
00000001
00000010
00000100
,
00000010
00001000
00022000
00033000
,
00010000
00001000
00000100
00000001
,
00000100
00001000
00010000
00000000
,
00001000
00010000
00100000
10000000
,
10010000
00000000
10010000
00100000
,
00001000
00010000
00100000
10000000
,
00100000
00010000
00001000
00000000
,
00010000
00001000
00000100
00000001
,
00001001
00000000
00001001
00000100
,
00010000
00001000
00000010
00001000
,
00010000
00100000
00010000
00001000
,
00000010
00001000
00010000
01000000
,
10010000
00000000
10010000
01000000
,
00100000
00010000
01000000
00100000
,
00010000
00001000
00020000
00030000
,
00001000
00010000
00001000
00000100
,
00000010
00001000
00000100
00000010
,
00000001
00000100
00001000
00011000
,
00010000
01000000
10000000
10010000
,
00020000
00030000
20000000
30000000
,
00100000
01000000
00010000
00100000
,
01000000
00000000
00011000
00000000
,
00000100
00000000
00011000
00000000
,
00100000
00001000
00010000
00000010
,
00001000
00000100
00020000
00030000
,
00001000
00000100
00000000
00000100
,
00000001
00000010
00000000
00000010
,
00001000
00010000
00000000
00010000
,
00011000
00000000
00011000
01000000
,
00010000
00100000
01000000
10000000
,
00100000
00010000
00001000
00000100
,
00000001
00000010
00000100
00010000
,
00011000
00000000
00011000
00000100
,
00000010
00000001
00001000
00000100
,
00000010
00001000
00010000
01000000
,
00100000
00010000
10000000
01000000
,
10010000
00000000
10010000
00001000
,
00011000
00000000
00000000
00000000
;

//---------------dance-double - ----------------
#NOTES:
     dance-double:
     :
     Medium:
     8:
     0.288911,0.293207,0.075181,0.112772,0.000000,269.000000,259.000000,10.000000,15.000000,0.000000,0.000000,0.288911,0.293207,0.075181,0.112772,0.000000,269.000000,259.000000,10.000000,15.000000,0.000000,0.000000:
// measure 0
00000000
00000000
00000000
00000000
,  // measure 1
00000000
00000000
00000000
00000000
,  // measure 2
00000000
00000000
00000000
00000000
,  // measure 3
00000000
00000000
00000000
00000000
,  // measure 4
00001000
00000000
00010000
00000000
00000010
00000010
00000010
00000000
,  // measure 5
00010000
00000000
00001000
00000000
01000000
01000000
01000000
00000000
,  // measure 6
00001000
00000000
00010000
00000000
00100000
00100000
00100000
00000000
,  // measure 7
00010000
00000000
00001000
00000000
00000100
00000100
00000100
00000000
,  // measure 8
00000001
00000010
00000001
00000000
00000100
00000010
00000100
00000000
,  // measure 9
00000010
00001000
00000010
00000000
00001000
00000100
00001000
00000000
,  // measure 10
00000100
00010000
00000100
00000000
00010000
00001000
00010000
00000000
,  // measure 11
00001000
01000000
00001000
00000000
01000000
00100000
01000000
00000000
,  // measure 12
00100000
00000000
10000000
00000000
01000000
00010000
00001000
00000000
,  // measure 13
00000100
00000000
00000001
00000000
00000010
00001000
00010000
00000000
,  // measure 14
00000100
00010000
00001000
00000000
00100000
00001000
00010000
00000000
,  // measure 15
00000020
00020030
00032000
01003000
,  // measure 16
01000000
00100000
10000000
00010000
01000000
00000000
00100000
00000000
,  // measure 17
01000000
00010000
10000000
00100000
01000000
00000000
00100000
00000000
,  // measure 18
01000000
00100000
10000000
00010000
01000000
00000000
00100000
00000000
,  // measure 19
01000000
00001000
00000000
00010000
00001000
00000000
00010000
00000010
,  // measure 20
00000100
00000001
00001000
00000010
00000100
00000000
00000010
00000000
,  // measure 21
00000100
00000010
00001000
00000001
00000100
00000000
00000010
00000000
,  // measure 22
00000100
00000001
00001000
00000010
00000100
00000000
00000010
00000000
,  // measure 23
00001000
00000010
00000000
00010000
00001000
00000000
01000000
00010000
,  // measure 24
00100000
01100000
10000000
10010000
,  // measure 25
00010000
01000000
00001000
00010000
00000200
00000000
00000310
00000000
,  // measure 26
00000001
00001001
00000010
00000110
,  // measure 27
00000100
00000001
00000000
00001000
00000010
00000000
00010000
00001000
,  // measure 28
01000000
00010000
00100000
00000000
00100000
01000000
10000000
00000000
,  // measure 29
10000000
00100000
00010000
00000000
00010000
00001000
00011000
00000000
,  // measure 30
00010000
00000100
00001000
00000000
00001000
00000001
00000010
00000000
,  // measure 31
00000010
00001000
00010000
00000000
00010000
00001000
00020000
00000000
,  // measure 32
00030100
00001000
00000010
00000000
00000100
00000001
00000010
00000000
,  // measure 33
00001000
00010000
00100000
00000000
10000000
01000000
00100000
00000000
,  // measure 34
00010000
00100000
01000000
00000000
00010000
00001000
00000100
00000000
,  // measure 35
00000001
00000010
00000100
00000000
00001000
00000010
00020000
00000000
,  // measure 36
00032000
00000000
00000000
00000000
01000000
01000000
01003000
00000000
,  // measure 37
00020000
00000000
00000000
00000000
00000100
00000100
00030100
00000000
,  // measure 38
00000100
00010000
00001000
00000000
00100000
00001000
00010000
00000000
,  // measure 39
02000000
03020000
00032000
00003200
,  // measure 40
00000302
00000010
00000000
00000013
,  // measure 41
00002000
00010000
00000000
00013000
,  // measure 42
00200000
10000000
00000000
10300000
,  // measure 43
10000000
01000000
00000000
00100000
00001000
00000000
00010000
00000010
,  // measure 44
00001000
00000100
00000010
00000001
00001000
00000000
00000100
00000000
,  // measure 45
00001000
00000010
00000100
00000001
00001000
00000000
00000100
00000000
,  // measure 46
00001000
00000100
00000010
00000001
00000100
00000000
00000010
00000000
,  // measure 47
00001000
00000100
00000000
00010000
00001000
00000000
00100000
00010000
,  // measure 48
10000000
10100000
00010000
00011000
,  // measure 49
00001000
00100000
00010000
01000000
00100000
00010000
00001000
00000000
,  // measure 50
00011000
00010000
00001010
00000010
,  // measure 51
00000100
00000001
00000000
00000010
00001000
00000000
00010000
00001000
,  // measure 52
00011000
00000000
00000000
00000000
;
