#VERSION:0.83;
#TITLE:Butterfly Twist;
#SUBTITLE:;
#ARTIST:Yooh;
#TITLETRANSLIT:;
#SUBTITLETRANSLIT:;
#ARTISTTRANSLIT:;
#GENRE:VARIETY;
#ORIGIN:;
#CREDIT:MUINELIM;
#BANNER:Butterfly Twist.png;
#BACKGROUND:Butterfly Twist-bg.png;
#PREVIEWVID:;
#JACKET:Butterfly Twist-jacket.png;
#CDIMAGE:;
#DISCIMAGE:;
#LYRICSPATH:;
#CDTITLE:;
#MUSIC:Butterfly Twist.ogg;
#OFFSET:-0.456000;
#SAMPLESTART:26.980997;
#SAMPLELENGTH:12.000000;
#SELECTABLE:YES;
#DISPLAYBPM:160.000000;
#BPMS:0.000=160.000;
#STOPS:67.000=1.125,
224.000=1.125;
#DELAYS:;
#WARPS:;
#TIMESIGNATURES:0.000=4=4;
#TICKCOUNTS:0.000=4;
#COMBOS:0.000=1;
#SPEEDS:0.000=1.000=0.000=0;
#SCROLLS:0.000=1.000;
#FAKES:;
#LABELS:0.000=Song Start;
#BGCHANGES:;
#KEYSOUNDS:;
#ATTACKS:
;

//---------------dance-single - ----------------
#NOTEDATA:;
#CHARTNAME:;
#STEPSTYPE:dance-single;
#DESCRIPTION:;
#CHARTSTYLE:;
#DIFFICULTY:Beginner;
#METER:3;
#RADARVALUES:0.136363,0.225300,0.016043,0.000000,0.000000,119.000000,117.000000,2.000000,0.000000,0.000000,0.000000,0.000000,0.000000,0.000000,0.136363,0.225300,0.016043,0.000000,0.000000,119.000000,117.000000,2.000000,0.000000,0.000000,0.000000,0.000000,0.000000,0.000000;
#CREDIT:;
#DISPLAYBPM:160.000000;
#NOTES:
0000
0000
0000
0000
,
0000
0000
0000
0000
,
0000
0000
0000
0000
,
0000
0000
0000
0000
,
0000
0000
0000
0000
,
0000
0000
0000
1000
,
0000
0000
0000
0001
,
0000
0000
0000
1000
,
0000
0000
0000
0001
,
0000
0000
0000
1000
,
0000
1000
0000
1000
,
0000
0000
0000
0001
,
0000
0001
0000
0001
,
0000
0000
0000
1000
,
0000
1000
0000
0001
,
0000
0001
0000
1000
,
0000
0001
0000
0100
,
0100
0000
0010
0000
,
0100
0000
0010
0000
,
1000
0000
0001
0000
,
1000
0000
0001
0000
,
0100
0000
0010
0000
,
0100
0000
0010
0000
,
1000
0000
0001
0000
,
1000
0000
0001
0000
,
0010
0000
0100
0000
,
1000
0000
0100
0000
,
0010
0000
0001
0000
,
0010
0000
0100
0000
,
1000
0000
0100
0000
,
0010
0000
0001
0000
,
0100
0000
0100
0000
,
0100
0000
0000
0000
,
1001
0000
0000
0000
,
0000
0000
0000
0000
,
0000
0000
0000
0000
,
0000
0000
0000
0000
,
0001
0000
0000
0000
,
0100
0000
0000
0000
,
0010
0000
0000
0000
,
1000
0000
0000
0000
,
0001
0000
0001
0000
,
0100
0000
0100
0000
,
0010
0000
0010
0000
,
1000
0000
1000
0000
,
0100
0000
0100
0000
,
0010
0000
0010
0000
,
0001
0000
0001
0000
,
1000
0000
1000
0000
,
0010
0000
0000
0000
,
0100
0000
0000
0000
,
0010
0000
0000
0000
,
0100
0000
0000
0000
,
0010
0000
0010
0000
,
0010
0000
0010
0000
,
0010
0010
0010
0010
,
0010
0100
0000
0000
,
0000
0001
0000
0000
,
0000
1000
0000
0000
,
0000
0010
0000
0000
,
0000
0100
0000
0000
,
0000
0010
0000
0000
,
0000
1000
0000
0000
,
0000
0001
0000
0000
,
0000
1000
0000
1000
,
0000
0100
0000
0100
,
0000
0001
0000
0001
,
0000
0010
0000
0010
,
0000
1000
0000
1000
,
0000
0001
0000
0001
,
0000
0100
0000
0010
,
0000
0100
0100
0100
,
0100
0100
0000
0000
,
0000
0001
0000
0000
,
0000
1000
0000
0000
,
0000
0010
0000
0000
,
0000
0100
0000
0000
,
0000
0010
0000
0000
,
0000
1000
0000
0000
,
0000
0001
0000
0000
,
0000
1001
0000
0000
;

//---------------dance-single - ----------------
#NOTEDATA:;
#CHARTNAME:;
#STEPSTYPE:dance-single;
#DESCRIPTION:;
#CHARTSTYLE:;
#DIFFICULTY:Easy;
#METER:8;
#RADARVALUES:0.270435,0.449899,0.128342,0.056150,0.000000,236.000000,220.000000,16.000000,7.000000,0.000000,0.000000,0.000000,0.000000,0.000000,0.270435,0.449899,0.128342,0.056150,0.000000,236.000000,220.000000,16.000000,7.000000,0.000000,0.000000,0.000000,0.000000,0.000000;
#CREDIT:;
#DISPLAYBPM:160.000000;
#NOTES:
0000
0000
0000
0000
,
0000
0000
0000
0000
,
0000
0000
0000
0000
,
0000
0000
0000
0000
,
0000
0000
0000
0000
,
0000
0000
0000
1000
,
0000
1000
0000
0001
,
0000
0001
0000
1000
,
0000
0001
0000
0100
,
0000
0010
0000
1000
,
0001
0000
0001
0000
,
1000
0000
1000
0001
,
1000
0000
1000
0000
,
0001
0000
0001
1000
,
1000
0010
0000
0001
,
0001
0100
0000
1000
,
0001
1000
0020
0130
,
1000
1000
0100
0100
,
0010
0010
0001
0000
,
0001
0001
0100
0100
,
0010
0010
1000
0000
,
0001
0001
0010
0010
,
0100
0100
1000
0000
,
1000
1000
0010
0010
,
0100
0100
0001
0001
,
1001
1000
0100
0010
,
0100
1000
0100
0000
,
1000
0001
0010
0100
,
0010
0001
0010
0000
,
0001
1000
0100
0000
,
1000
0001
0010
0000
,
0001
1000
0010
0100
,
0020
0000
0000
0030
,
1000
0000
0000
0000
,
0100
0000
0000
0000
,
0001
0000
0000
0000
,
0010
0000
0000
0000
,
1000
0000
1000
0000
,
0100
0000
0100
0000
,
0001
0000
0001
0000
,
0010
0000
0010
0000
,
1000
0001
1000
0001
,
0010
0100
0010
0100
,
1000
0001
1000
0001
,
0010
0100
0010
0100
,
1000
1000
0010
0010
,
0100
0100
0001
0001
,
1000
1000
0100
0100
,
0010
0010
0001
0001
,
1001
0000
0000
0000
,
1001
0000
0000
0000
,
1001
0000
0000
0000
,
1001
0000
0000
0110
,
1000
1000
0100
0100
,
0010
0010
0001
0001
,
0100
0000
0010
0000
0100
0010
0200
0000
,
0310
1001
0000
0001
,
0100
1000
0100
0001
,
0000
1001
0000
1000
,
0010
0001
0010
1000
,
0000
0110
0000
0001
,
0010
1000
0010
0001
,
0000
0110
0000
1000
,
0100
0001
0100
1000
,
0010
0000
0100
0010
0100
0000
0010
0000
,
1000
0100
0010
0100
,
1000
0110
0100
0001
,
0010
0100
0010
0001
,
0110
1000
1010
0001
,
0101
1000
1100
0001
,
0011
1000
0100
0001
,
0010
0000
1000
0000
0100
0000
0010
0100
,
0010
0002
0000
0000
,
0003
2000
0000
0000
,
3000
0020
0000
0000
,
0030
0200
0000
0000
,
0300
0001
0000
0001
,
0000
0010
0000
0010
,
0000
1000
0000
1000
,
0000
0000
0100
0000
0000
0000
0100
0010
,
0100
0100
0000
0000
0000
0000
0000
0000
;

//---------------dance-single - ----------------
#NOTEDATA:;
#CHARTNAME:;
#STEPSTYPE:dance-single;
#DESCRIPTION:;
#CHARTSTYLE:;
#DIFFICULTY:Medium;
#METER:11;
#RADARVALUES:0.444613,0.578441,0.320855,0.192513,0.024064,388.000000,348.000000,40.000000,24.000000,0.000000,0.000000,0.000000,0.000000,0.000000,0.444613,0.578441,0.320855,0.192513,0.024064,388.000000,348.000000,40.000000,24.000000,0.000000,0.000000,0.000000,0.000000,0.000000;
#CREDIT:;
#DISPLAYBPM:160.000000;
#NOTES:
0000
0000
0000
0000
,
0000
0000
0000
0000
,
0000
0000
0000
0000
,
0000
0000
0000
0000
,
0000
0000
0000
0000
,
0000
0000
0000
2000
,
0100
3100
0000
0002
,
0100
0103
0000
2000
,
0010
3010
0000
0002
,
0010
0013
1001
1000
,
0100
0010
0001
0010
,
0100
1000
1001
0001
,
0010
0100
1000
0100
,
0010
0000
0001
0000
1001
0000
1000
0100
,
1000
0000
0001
0000
1000
0000
0001
0010
,
0001
0000
1000
0000
0001
0000
0100
0010
,
0100
0010
1000
0001
1000
0001
0200
0300
,
0010
0000
0110
0000
0100
0001
0010
0001
,
0100
0001
0010
0000
0100
1000
0010
1000
,
0100
0000
0100
0010
0001
1000
0100
0010
,
0001
0100
0001
0100
0010
1000
0100
0010
,
0001
0000
0110
0000
0100
1000
0010
1000
,
0100
1000
0010
0000
0100
0001
0010
0001
,
0100
0000
0100
0000
0010
0000
0000
1000
0000
0000
0001
0000
0000
0010
0000
0000
,
0100
0010
0100
0000
1100
0000
0011
0000
,
0100
0000
0110
0000
0010
1000
0001
1000
,
0010
1000
0001
0000
0100
0001
1000
0001
,
0100
0000
0100
0010
1000
0001
0010
0100
,
1000
0010
1000
0010
0100
0001
1000
0100
,
0010
0000
0000
0000
0001
0000
0000
0001
0000
0000
0001
0000
0100
0000
0010
0000
,
0110
0000
0000
0000
1000
0000
0000
1000
0000
0000
1000
0000
0010
0000
0100
0000
,
0110
0001
1001
1000
,
0220
0000
0000
0330
,
1001
0000
0000
0000
,
0001
0000
0000
0000
,
0100
0000
0000
0000
,
1000
0000
0000
0000
,
0010
0011
0000
0101
,
0000
1010
0000
1100
,
0000
1001
0000
0110
,
2002
0000
0000
3003
,
0001
0100
1000
0000
1000
0000
0010
0000
,
0010
0001
0001
1000
,
1000
0100
0001
0000
0001
0000
0010
0000
,
0010
1000
1000
0001
,
0001
0010
1000
0000
1000
0000
0100
0000
,
0100
0001
0001
1000
,
1000
0010
0001
0000
0100
0000
1000
0000
,
2002
0000
0000
3003
,
0110
0010
1000
0010
,
0110
0100
0001
0100
,
0110
1000
0001
1000
,
1001
0000
0110
0000
0100
0010
0200
0000
,
0301
0010
0100
0000
1000
0010
0100
0000
,
0001
0100
0010
0000
1000
0100
0010
0000
,
0001
0100
0010
1000
0001
0010
0100
1000
,
0020
0030
0110
0000
1000
0100
0001
0100
,
1000
1000
0000
0100
0001
0001
0000
0100
,
1000
1000
1001
0000
0001
0010
1000
0010
,
0001
0001
0000
0010
1000
1000
0000
0010
,
0001
0001
1001
0000
1000
0100
0001
1000
,
0010
0010
0000
0001
0010
0010
0000
1000
,
0010
0000
0010
0000
0110
0000
0000
0000
0001
0000
0000
0100
0000
0000
1000
0000
,
0000
0010
0000
0000
0001
0000
0100
0000
0010
0000
0000
0000
1010
0000
0000
0000
,
0101
0000
2002
3003
1001
0000
1000
0010
,
0100
1000
0100
0010
1000
0100
0010
1000
,
0010
0001
1000
0000
0001
0100
0010
0001
,
0010
0100
0001
0010
0100
0001
0200
0000
,
1300
0000
1001
0000
0001
0100
1000
0000
,
0001
0010
1000
0000
1000
0100
0001
0000
,
1000
0010
0001
0100
0010
1000
0001
0010
,
0100
1000
1010
0000
0011
0000
1100
0000
,
0101
0002
0000
0000
,
0003
0020
0000
0000
,
0030
2000
0000
0000
,
3000
0200
0000
0000
,
0300
0002
0003
0020
,
0030
0200
0300
2000
,
3000
0010
0001
0100
,
1000
0000
0010
0100
0010
0100
0001
1000
,
0001
1001
0000
0000
0000
0000
0000
0000
;

//---------------dance-single - ----------------
#NOTEDATA:;
#CHARTNAME:;
#STEPSTYPE:dance-single;
#DESCRIPTION:;
#CHARTSTYLE:;
#DIFFICULTY:Hard;
#METER:16;
#RADARVALUES:0.671503,0.804017,0.465239,0.401068,0.493314,586.000000,528.000000,58.000000,50.000000,0.000000,0.000000,0.000000,0.000000,0.000000,0.671503,0.804017,0.465239,0.401068,0.493314,586.000000,528.000000,58.000000,50.000000,0.000000,0.000000,0.000000,0.000000,0.000000;
#CREDIT:;
#DISPLAYBPM:160.000000;
#NOTES:
0000
0000
0000
0000
,
0000
0000
0000
0000
,
0000
0000
0000
0000
,
0000
0000
0000
0000
,
0000
0000
0000
0000
,
0000
0000
0000
0000
0000
0000
1000
0001
,
0100
0000
0101
0001
1000
0100
0000
0100
,
1000
0001
0000
0001
1000
0100
0110
0010
,
0001
0000
0101
0001
1000
0010
2010
0000
,
3200
0000
0320
0000
0032
0000
1003
1000
,
0010
0001
0010
1000
0100
0010
0000
0010
,
0001
0100
0000
0100
0010
1000
0001
0001
,
0100
1000
0100
0001
0010
0100
0000
0100
,
1000
0010
0000
0010
0100
0001
1001
1000
,
0100
1000
0000
0000
0100
0000
0010
0000
0001
0010
0000
0000
0100
0000
1000
0000
,
0010
1000
0000
0000
0010
0000
0100
0000
0001
0100
0000
0000
0010
0000
0010
0000
,
0100
0000
0100
0000
0001
1000
0001
1000
0001
1000
0001
1000
0002
0000
0003
0000
,
0101
0000
0000
0000
2010
0000
0000
3100
0010
0100
0010
0000
0100
1000
0100
0000
,
0010
0000
0001
0000
0020
0000
0000
0031
0100
0001
0100
0000
0010
1000
0010
0000
,
0200
0000
0000
0000
0301
1000
0001
1000
0000
0010
0100
0010
0000
0100
0001
0100
,
0000
0010
1000
0010
1000
0000
0100
0000
0010
0000
0001
0000
1001
0000
0100
0000
,
1100
0000
0000
0000
0012
0000
0000
0103
0010
0100
0010
0000
1000
0010
1000
0000
,
0001
0000
0010
0000
0200
0000
0000
1300
0010
1000
0010
0000
0100
0001
0100
0000
,
0002
0000
0000
0000
1003
0000
0100
1000
0000
0100
0010
0000
0100
0001
0000
0100
,
0010
0000
0100
0000
1100
0000
0000
0000
0011
0000
0000
0000
1001
0000
0100
0010
,
0200
0000
0300
0000
0102
0000
0000
0013
0100
1000
0010
0000
0100
0001
0010
0000
,
0100
0000
1000
0000
0020
0000
0000
0130
0001
1000
0100
0000
1000
0001
0010
0000
,
0200
0000
0000
0000
1300
0010
0100
0001
0000
0001
1000
0100
0000
0100
0010
0001
,
0000
0001
0100
0010
1000
0000
0100
0000
0010
0000
0001
0000
1001
0000
0100
0000
,
0101
0000
0000
0000
2010
0000
0000
3100
0010
0001
0100
0000
0010
1000
0100
0000
,
0010
0000
0001
0000
0200
0000
0000
0310
1000
0001
0010
0000
0001
1000
0100
0000
,
0010
0001
0011
0000
1100
0000
0110
0010
,
0001
0000
0000
0101
0000
0000
1000
0000
0000
1010
0000
0000
0010
0000
0100
0000
,
2002
0000
0000
0000
,
0000
0000
0000
0000
,
3003
0000
0000
0000
,
0000
0000
0000
0000
,
0001
0100
1000
0000
0100
0001
0010
0000
,
0100
1000
0010
0000
0001
0010
1000
0000
,
0100
0010
0001
0000
1000
0100
0010
0000
,
0001
0100
1000
0001
0010
1000
0100
0100
,
0010
0001
0100
0000
1100
0000
0011
0000
,
1010
0101
1100
0011
,
0010
1000
0100
0000
0101
0000
1010
0000
,
0011
1100
0101
1010
,
0010
0001
0100
0000
1100
0000
0011
0000
,
0101
1100
1010
0101
,
0100
1000
0010
0000
0011
0000
1100
0000
,
1001
0000
0000
0000
0000
0000
0010
0000
0100
0000
0010
0000
2000
0000
0000
0000
0000
0000
3100
0000
0000
0010
0000
0000
,
0002
0100
1000
0013
,
2000
0100
0001
3010
,
0200
1000
0010
0301
,
0020
0000
0000
0000
0001
0000
0000
0000
0100
0000
1030
0100
0020
0000
0030
0000
,
0011
0000
0001
0100
0000
0001
0010
0000
0100
0000
1000
0010
0000
1000
0100
0000
,
0010
0000
0001
0100
0000
1000
0100
0000
0010
0000
1000
0010
0000
0001
0010
0000
,
0100
0001
0100
0000
0010
1000
0010
0000
1000
0001
1000
0001
1000
0001
1000
0002
,
2000
0000
3003
0000
1001
0000
0000
0000
0010
0000
0010
0000
0100
0001
0100
0000
,
0010
0000
0010
0000
0100
1000
0100
0000
0010
0000
0010
0000
0100
0001
0100
0000
,
0010
0000
1000
0000
1001
0000
0000
0000
0100
0000
0100
0000
0010
1000
0020
0000
,
0001
0031
0020
1000
1000
1030
0020
0100
,
0100
0000
0130
0000
1001
0000
0000
0000
0001
0000
0001
0000
1000
0010
1000
0000
,
0001
0000
0001
0000
0010
1000
0010
0000
0001
0000
0001
0000
0100
1000
0100
0000
,
0001
0010
0001
0010
0200
0000
0000
0000
1300
0000
1000
0010
0000
0100
0010
0000
,
0001
0010
0000
0100
0010
0000
1000
0000
1100
0000
0000
0000
0011
0000
0000
0000
,
1001
0000
0100
0010
0200
0000
0300
0000
0110
0000
0010
0000
1000
0100
0010
0000
,
0010
0001
0100
0000
0100
0010
1000
0000
1000
0001
0010
0000
0010
0100
1000
0000
,
1000
0010
0100
0001
2000
0000
0000
0000
3100
0010
0001
0100
0000
0100
0010
1000
,
0000
1000
0001
0010
0000
0010
0100
1000
0000
1000
0010
0100
0002
0000
0023
0000
,
0230
0000
2300
0000
3001
0000
0000
0000
1001
0000
0000
0000
0001
0100
1000
0000
,
0100
0001
1000
0000
0001
0000
1001
0000
1001
0000
0000
0000
1000
0010
0001
0000
,
0010
1000
0001
0000
0010
0100
1000
0100
0010
0000
0001
0000
1000
0010
0100
0010
,
1000
0000
0100
0000
0010
0001
0000
0000
0001
0100
0000
0000
0100
1000
0000
0000
,
1000
0010
0100
0000
0202
0000
0000
0000
0000
0000
0000
0000
0300
0000
0000
0000
,
0000
0020
0000
0003
,
0000
2000
0000
0030
,
0000
0200
0000
3000
,
0000
0302
0023
0230
,
2300
3020
0032
0203
,
2300
0000
3001
0010
1000
0010
0100
0001
,
0100
0000
1000
0000
0010
0100
0001
1000
0000
1100
0000
0101
0000
0001
0010
0100
,
1000
0001
0010
0100
0000
0000
0000
0000
0000
0000
0000
0000
0000
0000
0000
0000
;

//---------------dance-double - ----------------
#NOTEDATA:;
#CHARTNAME:;
#STEPSTYPE:dance-double;
#DESCRIPTION:;
#CHARTSTYLE:;
#DIFFICULTY:Easy;
#METER:8;
#RADARVALUES:0.261267,0.449899,0.152406,0.072192,0.000000,228.000000,209.000000,19.000000,9.000000,0.000000,0.000000,0.000000,0.000000,0.000000,0.261267,0.449899,0.152406,0.072192,0.000000,228.000000,209.000000,19.000000,9.000000,0.000000,0.000000,0.000000,0.000000,0.000000;
#CREDIT:;
#DISPLAYBPM:160.000000;
#NOTES:
00000000
00000000
00000000
00000000
,
00000000
00000000
00000000
00000000
,
00000000
00000000
00000000
00000000
,
00000000
00000000
00000000
00000000
,
00000000
00000000
00000000
00000000
,
00000000
00000000
00000000
00001000
,
00000000
00001000
00000000
00010000
,
00000000
00010000
00000000
00001000
,
00000000
00010000
00000000
00001000
,
00000000
00010000
00000000
00001000
,
00010000
00000000
00010000
00000000
,
00010000
00000000
00001000
00010000
,
00001000
00000000
00001000
00000000
,
00001000
00000000
00010000
00001000
,
00010000
00011000
00000000
00010000
,
00001000
00011000
00000000
00010000
,
00001000
00010000
00002000
00013000
,
00010000
00000010
00001000
00000100
,
00001000
00000010
00010000
00000000
,
00001000
01000000
00010000
00100000
,
00010000
01000000
00001000
00000000
,
00010000
00000100
00001000
00000010
,
00001000
00000100
00010000
00000000
,
00001000
00100000
00010000
01000000
,
00010000
00100000
00001000
00000000
,
00011000
00010000
00001000
00000100
,
00000010
00000100
00001000
00000000
,
00010000
00001000
00010000
00100000
,
01000000
00100000
00010000
00000000
,
00001000
00010000
01000000
00000000
,
00010000
00001000
00000010
00000000
,
00001000
00010000
00100000
10000000
,
20020000
00000000
00000000
30030000
,
00010000
00000000
00000000
00000000
,
01000000
00000000
00000000
00000000
,
00001000
00000000
00000000
00000000
,
00000100
00000000
00000000
00000000
,
00010000
00000000
00000000
00000000
,
00100000
00000000
00000000
00000000
,
00001000
00000000
00000000
00000000
,
00000010
00000000
00000000
00000000
,
00000001
00000100
00001000
00001000
,
00000100
00001000
00010000
00010000
,
00001000
00010000
01000000
01000000
,
00010000
01000000
10000000
10000000
,
00100000
00010000
00001000
00100000
,
01000000
00010000
00001000
00000010
,
00000100
00010000
00001000
00000100
,
00000001
00000010
00001000
00010000
,
00011000
00000000
00000000
00000000
,
00011000
00000000
00000000
00000000
,
00011000
00000000
00000000
00000000
,
00011000
00000000
00000000
00011000
,
00000100
00000000
00000010
00000000
,
00001000
00000000
00010000
00000000
,
01000000
00000000
01000000
00000000
01000000
00100000
02000000
00000000
,
03100000
10010000
00000000
10000000
,
00100000
00010000
00001000
00000100
,
00000000
00001001
00000000
00000001
,
00000010
00001000
00010000
00100000
,
00000000
01100000
00000000
10000000
,
00100000
00010000
00001000
00000010
,
00000000
00000110
00000000
00000001
,
00000100
00001000
00010000
00100000
,
10000000
00000000
01000000
00100000
01000000
00000000
00010000
00000000
,
00001000
00000010
00000001
00000100
,
00000010
00000110
00000100
00001000
,
00010000
00100000
10000000
01000000
,
01100000
00010000
01010000
00001000
,
00011000
00000010
00001010
00010000
,
00011000
00001000
00000100
00000001
,
00000010
00001000
00010000
01000000
,
10000000
00200000
00000000
00000000
,
00300000
00020000
00000000
00000000
,
00030000
00002000
00000000
00000000
,
00003000
00000200
00000000
00000000
,
00000300
00000001
00000000
00000010
,
00000000
00000100
00000000
00001000
,
00000000
00010000
00000000
00100000
,
00000000
01000000
00000000
20000000
,
00010000
30010000
00000000
00000000
00000000
00000000
00000000
00000000
;

//---------------dance-double - ----------------
#NOTEDATA:;
#CHARTNAME:;
#STEPSTYPE:dance-double;
#DESCRIPTION:;
#CHARTSTYLE:;
#DIFFICULTY:Medium;
#METER:11;
#RADARVALUES:0.436592,0.578441,0.328876,0.208556,0.024064,381.000000,340.000000,41.000000,26.000000,0.000000,0.000000,0.000000,0.000000,0.000000,0.436592,0.578441,0.328876,0.208556,0.024064,381.000000,340.000000,41.000000,26.000000,0.000000,0.000000,0.000000,0.000000,0.000000;
#CREDIT:;
#DISPLAYBPM:160.000000;
#NOTES:
00000000
00000000
00000000
00000000
,
00000000
00000000
00000000
00000000
,
00000000
00000000
00000000
00000000
,
00000000
00000000
00000000
00000000
,
00000000
00000000
00000000
00000000
,
00000000
00000000
00000000
00002000
,
01000000
01003000
00000000
00020000
,
00000100
00030100
00000000
00002000
,
00100000
00103000
00000000
00020000
,
00000010
00030010
00011000
00001000
,
01000000
00010000
10000000
00100000
,
00010000
00001000
00011000
00010000
,
00000010
00001000
00000001
00000100
,
00001000
00010000
00011000
00001000
,
00100000
01000000
00010000
00001000
,
00000010
00000000
00000100
00000000
00010000
00000000
00001000
01000000
,
00001000
00000000
00010000
00000010
00010000
00000000
00022000
00033000
,
01000000
00000000
01010000
00000000
00010000
00100000
00010000
00100000
,
01000000
10000000
01000000
00000000
10000000
00100000
01000000
00010000
,
10000000
00000000
01000000
00100000
00010000
01000000
00001000
00010000
,
00000100
00001000
00000100
00001000
00000100
00000010
00000001
00000100
,
00000010
00000000
00001010
00000000
00001000
00000100
00001000
00000100
,
00000010
00000001
00000010
00000000
00000001
00000100
00000010
00001000
,
00000001
00000000
00000100
00000000
00001000
00000000
00000000
00010000
00000000
00000000
00100000
00000000
00000000
10000000
00000000
00000000
,
01000000
00010000
00001000
00000000
01001000
00000000
00010010
00000000
,
00001000
00000000
00011000
00000000
00010000
00100000
01000000
00100000
,
00010000
00100000
01000000
00000000
00010000
10000000
01000000
00100000
,
00010000
00000000
01000000
00001000
00010000
00100000
00010000
00001000
,
00000100
00000001
00000100
00000001
00000010
00001000
00010000
01000000
,
10000000
00000000
00000000
00000000
00100000
00000000
00000000
00100000
00000000
00000000
00100000
00000000
00010000
00000000
00001000
00000000
,
00011000
00000000
00000000
00000000
00000010
00000000
00000000
00000010
00000000
00000000
00000010
00000000
00010000
00000000
00001000
00000000
,
00011000
01000000
00011000
00000100
,
00022000
00000000
00000000
00033000
,
00011000
00000000
00000000
00000000
,
00000000
00000000
00000000
00000000
,
00000000
00000000
00000000
00000000
,
00000000
00000000
00000000
00000000
,
00000000
01001000
00000000
00010100
,
00000000
00101000
00000000
00010010
,
00000000
00011000
00000000
00011000
,
00022000
00000000
00000000
00033000
,
00010000
01000000
10000000
00000000
10000000
00000000
00100000
00000000
,
00100000
00010000
00010000
00001000
,
00001000
00000010
00000001
00000000
00000001
00000000
00000100
00000000
,
00000100
00001000
00001000
00010000
,
00010000
00100000
10000000
00000000
10000000
00000000
01000000
00000000
,
01000000
00010000
00010000
00001000
,
00001000
00000100
00000001
00000000
00001000
00000000
00000001
00000000
,
00002002
00000000
00000000
00003003
,
00000110
00000100
00001000
00010000
,
00011000
00001000
00010000
00100000
,
01100000
10000000
01000000
00010000
,
00011000
00000000
00001000
00000000
00000010
00000100
00000020
00000000
,
00000031
00000100
00001000
00000000
00010000
00100000
10000000
00000000
,
10000000
01000000
00010000
00000000
00001000
00000010
00000001
00000000
,
00000001
00000100
00000010
00010000
00001000
01000000
00100000
10000000
,
20020000
30030000
10010000
00000000
00010000
00100000
01000000
00010000
,
00001000
00001000
00000000
00000100
00001000
00001000
00000000
00010000
,
00001000
00001000
00011000
00000000
00010000
00001000
00000100
00000010
,
00000100
00000100
00000000
00000010
00000001
00000001
00000000
00000010
,
00001000
00001000
00001001
00000000
00000001
00000100
00001000
00010000
,
00100000
00100000
00000000
10000000
00100000
00100000
00000000
00010000
,
00100000
00000000
00100000
00000000
01100000
00000000
00000000
00000000
10000000
00000000
00000000
01000000
00000000
00000000
00010000
00000000
,
00000000
00001000
00000000
00000000
00000010
00000000
00000001
00000000
00000100
00000000
00000000
00000000
00001010
00000000
00000000
00000000
,
00000101
00000000
00002002
00003003
00001001
00000000
00001000
00000100
,
00000010
00000001
00001000
00000010
00010000
00001000
01000000
00010000
,
00100000
01000000
10000000
00000000
00010000
01000000
00100000
10000000
,
00010000
00100000
00001000
00010000
00000100
00001000
00000002
00000000
,
00000103
00000000
00000110
00000000
00000010
00001000
00000100
00000000
,
00000010
00001000
00010000
00000000
00001000
00010000
01000000
00000000
,
00100000
00010000
01000000
00100000
10000000
01000000
00010000
00001000
,
00000010
00000001
00000101
00000000
00001010
00000000
00110000
00000000
,
11000000
20000000
00000000
00000000
,
30000000
00200000
00000000
00000000
,
00300000
00020000
00000000
00000000
,
00030000
00002000
00000000
00000000
,
00003000
00000200
00000300
00000002
,
00000003
00000020
00000030
00002000
,
00003000
00010000
01000000
10000000
,
00100000
00000000
00010000
00001000
00001000
00010000
00010000
00001000
,
00010000
00011000
00000000
00000000
00000000
00000000
00000000
00000000
;

//---------------dance-double - ----------------
#NOTEDATA:;
#CHARTNAME:;
#STEPSTYPE:dance-double;
#DESCRIPTION:;
#CHARTSTYLE:;
#DIFFICULTY:Hard;
#METER:16;
#RADARVALUES:0.638272,0.836178,0.264705,0.521389,0.453207,557.000000,524.000000,33.000000,65.000000,0.000000,0.000000,0.000000,0.000000,0.000000,0.638272,0.836178,0.264705,0.521389,0.453207,557.000000,524.000000,33.000000,65.000000,0.000000,0.000000,0.000000,0.000000,0.000000;
#CREDIT:;
#DISPLAYBPM:160.000000;
#NOTES:
// measure 0
00000000
00000000
00000000
00000000
,  // measure 1
00000000
00000000
00000000
00000000
,  // measure 2
00000000
00000000
00000000
00000000
,  // measure 3
00000000
00000000
00000000
00000000
,  // measure 4
00000000
00000000
00000000
00000000
,  // measure 5
00000000
00000000
00000000
00000000
00000000
00000000
00001000
00010000
,  // measure 6
01000000
00000000
11000000
10000000
00100000
01000000
00000000
00100000
,  // measure 7
00010000
00001000
00000000
00010000
00001000
00000100
00000101
00000001
,  // measure 8
00000010
00000000
00000110
00000100
00010000
00001000
01002000
00000000
,  // measure 9
00013000
00000000
00020010
00000000
00031000
00000000
00010000
00010000
,  // measure 10
00001000
00000010
00000001
00000100
00001000
00010000
00000000
00001000
,  // measure 11
00010000
01000000
00000000
10000000
00100000
00010000
00001000
00001000
,  // measure 12
00010000
01000000
10000000
00100000
00010000
00001000
00000000
00010000
,  // measure 13
00001000
00000100
00000000
00000001
00000010
00001000
00011000
00010000
,  // measure 14
00000100
00001000
00000000
00000000
00000100
00000000
00010000
00000000
00001000
01000000
00000000
00000000
00001000
00000000
00010000
00000000
,  // measure 15
00000010
00010000
00000000
00000000
00001000
00000000
00100000
00000000
00010000
00100000
00000000
00000000
01000000
00000000
10000000
00000000
,  // measure 16
00100000
00000000
00010000
00000000
00001000
00010000
00001000
00010000
00001000
00010000
00001000
00010000
00002000
00000000
00003000
00000000
,  // measure 17
01001000
00000000
00000000
00000000
00010020
00000000
00000000
00000000
00001030
00000100
00000010
00000000
00000010
00000001
00000100
00000000
,  // measure 18
00001000
00000000
00010000
00000000
00200000
00000000
00000000
00000000
10300000
01000000
00100000
00000000
00100000
00010000
01000000
00000000
,  // measure 19
00002000
00000000
00000000
00000000
00013000
00000100
00010000
00001000
00000000
01000000
00001000
00010000
00000000
00000010
00010000
00001000
,  // measure 20
00000000
00100000
00001000
00010000
00001000
00000000
00000100
00000000
00000001
00000000
00000010
00000000
00001000
00000000
00010000
00000000
,  // measure 21
00010100
00000000
00000000
00000000
00201000
00000000
00000000
00000000
00310000
10000000
01000000
00000000
01000000
00100000
00010000
00000000
,  // measure 22
01000000
00000000
00001000
00000000
00020000
00000000
00000000
00000000
00030100
00000010
00000001
00000000
00000001
00001000
00000010
00000000
,  // measure 23
00020000
00000000
00000000
00000000
00031000
00000000
00100000
01000000
00000000
00010000
00001000
00000000
00000010
00000100
00000000
00010000
,  // measure 24
00001000
00000000
00010000
00000000
00010010
00000000
00000000
00000000
01001000
00000000
00000000
00000000
00010100
00000000
00010000
00001000
,  // measure 25
00200000
00000000
00300000
00000000
00120000
00000000
00000000
00000000
01030000
00100000
10000000
00000000
10000000
01000000
00010000
00000000
,  // measure 26
00001000
00000000
00100000
00000000
02000000
00000000
00000000
00000000
03010000
00001000
00000010
00000000
00000010
00000001
00000100
00000000
,  // measure 27
00000020
00000000
00000000
00000000
00001030
00000100
00000010
00000001
00000000
00000100
00001000
00010000
00000000
00001000
00010000
01000000
,  // measure 28
00000000
10000000
00100000
01000000
00100000
00000000
10000000
00000000
01000000
00000000
00100000
00000000
00010000
00000000
01000000
00000000
,  // measure 29
01001000
00000000
00000000
00000000
00020010
00000000
00000000
00000000
00031000
00000100
00000001
00000000
00000001
00000010
00000100
00000000
,  // measure 30
00010000
00000000
00001000
00000000
00200000
00000000
00000000
00000000
00310000
01000000
10000000
00000000
10000000
01000000
00100000
00000000
,  // measure 31
10000000
01000000
01010000
00000000
00011000
00000000
00001010
00000010
,  // measure 32
00000001
00000000
00000000
00001001
00000000
00000000
00000100
00000000
00000000
00011000
00000000
00000000
00100000
00000000
01000000
00000000
,  // measure 33
20020000
00000000
00030000
00000000
,  // measure 34
00200000
00000000
30000000
00000000
,  // measure 35
00020000
00000000
00300000
00000000
,  // measure 36
00002000
00000000
00000000
00033000
,  // measure 37
00001000
00000100
00000001
00000000
00000010
00001000
00010000
00000000
,  // measure 38
00001000
00010000
00100000
00000000
10000000
01000000
00010000
00000000
,  // measure 39
00001000
00010000
01000000
00000000
00010000
00001000
00000100
00000000
,  // measure 40
00000001
00000010
00000100
00010000
00001000
00100000
01000000
10000000
,  // measure 41
00100000
00010000
00002000
00000000
01000000
00000000
00100000
00000000
,  // measure 42
00000010
00000100
01000000
00103000
,  // measure 43
00000010
00001000
00020000
00000000
00000100
00000000
00000010
00000000
,  // measure 44
00100000
01000000
00000100
00030010
,  // measure 45
01000000
00010000
00002000
00000000
00100000
00000000
01000000
00000000
,  // measure 46
00000100
00000010
00100000
01003000
,  // measure 47
00000100
00001000
00020000
00000000
01000000
00000000
00100000
00000000
,  // measure 48
00000010
00000000
00000000
00000000
00000000
00000000
00030100
00000000
00000010
00000000
00000001
00000000
00000200
00000000
00000000
00000000
00000000
00000000
00001300
00000000
00000000
00010000
00000000
00000000
,  // measure 49
00200000
20300000
32000000
03020000
,  // measure 50
00032000
00003020
00000032
00000203
,  // measure 51
00002300
00023000
02030000
23000000
,  // measure 52
30200000
00000000
00000000
00000000
00320000
00000000
00000000
00000000
00032000
00000000
00003100
00000001
00000020
00000000
00000030
00000000
,  // measure 53
00000110
00000000
00000001
00000100
00000000
00000010
00001000
00000000
00000100
00000000
00010000
00001000
00000000
00100000
00010000
00000000
,  // measure 54
01000000
00000000
00100000
10000000
00000000
00010000
01000000
00000000
00100000
00000000
00010000
00001000
00000000
00000100
00000010
00000000
,  // measure 55
00000100
00000000
00000001
00000000
00000010
00000000
00001000
00000000
00010000
00001000
00010000
00001000
00010000
00001000
00010000
00001000
,  // measure 56
00020000
00000000
00030000
00000000
00011000
00000000
00000000
00000000
00001000
00000000
00001000
00000000
00000010
00000100
00000010
00000000
,  // measure 57
00001000
00000000
00001000
00000000
00100000
01000000
00100000
00000000
00001000
00000000
00001000
00000000
00000010
00000100
00000010
00000000
,  // measure 58
00001000
00000000
00001000
00000000
00011000
00000000
00000000
00000000
00010000
00000000
00010000
00000000
01000000
00100000
02000000
00000000
,  // measure 59
10000000
13000000
02000000
00100000
00100000
03100000
02000000
00010000
,  // measure 60
00010000
00000000
03010000
00000000
00011000
00000000
00000000
00000000
00001000
00000000
00001000
00000000
00000100
00000001
00000010
00000000
,  // measure 61
00001000
00000000
00001000
00000000
00010000
01000000
10000000
00000000
00100000
00000000
00100000
00000000
00010000
00001000
00000100
00000000
,  // measure 62
00000001
00000010
00000100
00001000
00000200
00000000
00000000
00000000
00010300
00000000
00010000
00001000
00000000
00000010
00001000
00000000
,  // measure 63
00010000
00001000
00000000
00100000
00001000
00000000
00010000
00000000
00010100
00000000
00000000
00000000
00101000
00000000
00000000
00000000
,  // measure 64
00010010
00000000
00010000
00001000
02000000
00000000
03000000
00000000
01100000
00000000
00100000
00000000
10000000
01000000
00100000
00000000
,  // measure 65
00010000
01000000
00100000
00000000
00010000
00001000
01000000
00000000
00001000
00010000
00000010
00000000
00001000
00000100
00000010
00000000
,  // measure 66
00000001
00000100
00000010
00001000
00000002
00000000
00000000
00000000
00000013
00000100
00001000
00000010
00000000
00010000
00001000
00000100
,  // measure 67
00000000
00001000
00010000
01000000
00000000
00010000
00001000
00000010
00000000
00001000
00010000
00100000
20000000
00000000
32000000
00000000
,  // measure 68
03200000
00000000
00320000
00000000
00031000
00000000
00000000
00000000
00001001
00000000
00000000
00000000
00000001
00000100
00001000
00000000
,  // measure 69
00010000
00100000
10000000
00000000
01000000
00000000
00100000
00000000
01100000
00000000
00000000
00000000
10000000
01000000
00010000
00000000
,  // measure 70
00001000
00000010
00000001
00000000
00000100
00000010
00001000
00000010
00000100
00000000
00001000
00000000
00010000
00100000
01000000
00100000
,  // measure 71
00010000
00000000
00001000
00000000
00100000
01000000
10000000
00000000
00100000
00010000
00001000
00000000
00010000
00001000
00000010
00000000
,  // measure 72
00000100
00000010
00000001
00000000
00000202
00000000
00000000
00000000
00000000
00000000
00000000
00000000
00000003
00000000
00000000
00000000
,  // measure 73
00000000
00002000
00000000
00000300
,  // measure 74
00000000
00020000
00000000
00003000
,  // measure 75
00000000
00200000
00000000
00030000
,  // measure 76
00000000
20300000
32000000
03200000
,  // measure 77
00302000
00023000
00030200
00000320
,  // measure 78
00000032
00000000
00001003
00000010
00010000
00100000
00001000
00000100
,  // measure 79
00010000
00000000
01000000
00000000
10000000
00100000
01000000
00010000
00000000
00100000
00000000
01000000
00000000
00010000
00001000
00000100
,  // measure 80
00000001
00000010
00000100
00001000
00000000
00000000
00000000
00000000
00000000
00000000
00000000
00000000
00000000
00000000
00000000
00000000
;
