#TITLE:Bubble;
#SUBTITLE:;
#ARTIST:STAYC;
#TITLETRANSLIT:;
#SUBTITLETRANSLIT:;
#ARTISTTRANSLIT:;
#GENRE:;
#CREDIT:MUINELIM;
#BANNER:Bubble.png;
#BACKGROUND:Bubble-bg.png;
#LYRICSPATH:;
#CDTITLE:;
#MUSIC:Bubble.ogg;
#OFFSET:0.227000;
#SAMPLESTART:44.318451;
#SAMPLELENGTH:16.363636;
#SELECTABLE:YES;
#DISPLAYBPM:132.000000;
#BPMS:0.000000=132.000000
;
#STOPS:
;
#BGCHANGES:0.000=Bubble-bg.png=1.000=0=0=1====#000000=#000000,
0.500=Bubble.avi=1.000=1=0=0=StretchNoLoop==CrossFade==,
99999=-nosongbg-=1.000=0=0=0 // don't automatically add -songbackground-
;
#KEYSOUNDS:;
#ATTACKS:;

//---------------dance-single - ----------------
#NOTES:
     dance-single:
     :
     Beginner:
     3:
     0.114420,0.190016,0.024771,0.000000,0.000000,97.000000,94.000000,3.000000,0.000000,0.000000,0.000000,0.114420,0.190016,0.024771,0.000000,0.000000,97.000000,94.000000,3.000000,0.000000,0.000000,0.000000:
0000
0000
0000
0000
,
0000
0000
0000
0000
,
0000
0000
0000
0000
,
0000
0000
0000
0000
,
0000
0000
0000
0000
,
0000
0000
0000
0000
,
0000
0000
0000
0000
,
1000
0000
0001
0000
,
1000
1000
1000
0000
,
0001
0000
0000
0000
,
0000
0000
0000
0000
,
1000
0000
0000
0000
,
0000
0000
0000
0000
,
0001
0000
0000
0000
,
1000
0000
0000
0000
,
0001
0000
0000
0000
,
1000
0000
0000
0000
,
0001
0000
0001
0000
,
0001
0000
0001
0000
,
0100
0000
0010
0000
,
0100
0000
0010
0000
,
1000
0000
1000
0000
,
1000
0000
1000
0000
,
0010
0000
0100
0000
,
0010
0010
0000
0000
,
1000
0000
0000
0000
,
0100
0000
0000
0000
,
0010
0000
0000
0000
,
0001
0000
0000
0000
,
1000
0000
0000
0000
,
0100
0000
0000
0000
,
0010
0000
0000
0000
,
0001
0000
0001
0001
,
0001
0000
0000
0000
,
0100
0000
0000
0000
,
0010
0000
0000
0000
,
1000
0000
1000
1000
,
1000
0000
0000
0000
,
0010
0000
0000
0000
,
0100
0000
0000
0000
,
0001
0000
0001
0001
,
0001
0000
0000
0000
,
1000
0000
0000
0000
,
0010
0000
0000
0000
,
0100
0000
0000
0000
,
0001
0000
0000
0000
,
0000
0000
1000
0000
,
1000
0000
0100
0000
,
0010
0000
0001
0000
,
1001
0000
0000
0000
,
1000
0000
0010
0000
,
1000
0000
0010
0000
,
1000
0000
1000
0000
,
1000
0000
0000
0000
,
0001
0000
0010
0000
,
0001
0000
0010
0000
,
0001
0000
0001
0000
,
0001
0000
1000
1000
,
1000
0000
0010
0000
,
0100
0000
0001
0000
,
1000
0000
0001
0000
,
1000
0000
0001
0001
,
0001
0000
0010
0000
,
0100
0000
1000
0000
,
0001
0000
1000
0000
,
0001
0000
1001
1001
;

//---------------dance-single - ----------------
#NOTES:
     dance-single:
     :
     Easy:
     5:
     0.204068,0.271968,0.132113,0.016514,0.000000,173.000000,157.000000,16.000000,2.000000,0.000000,0.000000,0.204068,0.271968,0.132113,0.016514,0.000000,173.000000,157.000000,16.000000,2.000000,0.000000,0.000000:
0000
0000
0000
0000
,
0000
0000
0000
0000
,
0000
0000
0000
0000
,
0000
0000
0000
0000
,
0000
0000
0000
0000
,
0000
0000
0000
0000
,
0000
0000
0000
0000
,
1000
0000
0001
0000
,
1000
1000
1000
0000
,
0001
0000
0100
0000
,
0001
0000
0100
0000
,
0010
0000
1000
0000
,
0010
0000
1000
0000
,
0001
0000
0010
0000
,
0001
0000
0010
0000
,
1000
0000
0100
0000
,
1000
0000
0100
0000
,
0001
0000
1000
0000
,
0010
0000
0100
0000
,
0001
1000
0010
0000
,
1000
0001
0100
0000
,
0010
0000
1000
0000
,
0001
0000
0100
0000
,
0010
0100
0010
1000
,
0001
1000
1001
0000
,
0001
0010
0001
0000
,
0100
0001
0100
0000
,
0001
0010
0001
0100
,
0001
0010
0001
0000
,
1000
0010
1000
0000
,
0100
1000
0100
0000
,
1000
0010
1000
0100
,
1000
0001
0100
0100
,
0100
0000
0110
0000
,
0010
0000
0110
0000
,
0100
0000
0110
0000
,
0010
0100
0001
0001
,
0001
0000
1001
0000
,
1000
0000
1001
0000
,
0001
0000
1001
0000
,
1000
0010
0100
0100
,
0100
0000
0000
0000
,
0001
0000
0000
0000
,
1000
0000
0000
0000
,
0010
0000
0100
0000
,
0010
0020
0000
0030
,
0000
0200
0000
0300
,
0001
1000
0010
0000
,
1000
0001
0100
0000
,
0110
0000
0000
0000
,
1000
0100
0010
0100
,
1000
0100
0010
0010
,
0001
0010
0100
0010
,
0001
0010
0010
0100
,
1000
0001
1000
0100
,
1000
0001
0010
0001
,
1000
0001
0010
0001
,
0001
0000
1001
1001
,
1000
0000
1100
0000
,
0001
0000
0011
0000
,
1000
0000
1100
0000
,
0100
0010
0001
0001
,
0001
0000
0101
0000
,
1000
0000
1010
0000
,
0001
0000
0101
0000
,
0100
0000
0010
0000
1000
0001
1000
0001
;

//---------------dance-double - ----------------
#NOTES:
     dance-double:
     :
     Easy:
     5:
     0.192272,0.271968,0.132113,0.016514,0.000000,163.000000,147.000000,16.000000,2.000000,0.000000,0.000000,0.192272,0.271968,0.132113,0.016514,0.000000,163.000000,147.000000,16.000000,2.000000,0.000000,0.000000:
00000000
00000000
00000000
00000000
,
00000000
00000000
00000000
00000000
,
00000000
00000000
00000000
00000000
,
00000000
00000000
00000000
00000000
,
00000000
00000000
00000000
00000000
,
00000000
00000000
00000000
00000000
,
00000000
00000000
00000000
00000000
,
00001000
00000000
00010000
00000000
,
00001000
00001000
00001000
00000000
,
00100000
00000000
00010000
00000000
,
01000000
00000000
00001000
00000000
,
00010000
00000000
00000100
00000000
,
00001000
00000000
00000010
00000000
,
00010000
00000000
00100000
00000000
,
00001000
00000000
00000100
00000000
,
00010000
00000000
01000000
00000000
,
00001000
00000000
00000010
00000000
,
00000100
00000000
00001000
00000000
,
00010000
00000000
00100000
00000000
,
01000000
00100000
01000000
00000000
,
00100000
01000000
00100000
00000000
,
01000000
00000000
00001000
00000000
,
00010000
00000000
00000010
00000000
,
00000100
00000010
00000100
00000001
,
00001000
00000001
00001001
00000000
,
00001000
00000000
00000001
00000000
,
00000100
00000000
00001000
00000000
,
00010000
00001000
00010000
00100000
,
01000000
00100000
10000000
00000000
,
00010000
00000000
10000000
00000000
,
01000000
00000000
00010000
00000000
,
00001000
00010000
00001000
00000010
,
00000100
00000010
00000001
00000100
,
00000100
00000000
00000110
00000000
,
00000010
00000000
00010010
00000000
,
00010000
00000000
00011000
00000000
,
00001000
00100000
00010000
00010000
,
00010000
00000000
10010000
00000000
,
10000000
00000000
10100000
00000000
,
00100000
00000000
01100000
00000000
,
01000000
00001000
00010000
00010000
,
00010000
00000000
00000000
00000000
,
00001000
00000000
00000000
00000000
,
00010000
00000000
00000000
00000000
,
00001000
00000000
00010000
00000000
,
00001000
00002000
00000000
00003000
,
00000000
00020000
00000000
00030000
,
00001000
00010000
00100000
00000000
,
00010000
00001000
00000010
00000000
,
00000110
00000000
00000000
00000000
,
00000001
00000100
00001000
00000000
,
00000100
00001000
00010000
00000000
,
00001000
00010000
00100000
00000000
,
00010000
00100000
10000000
00000000
,
01000000
00100000
00010000
00000000
,
00100000
00010000
00001000
00000000
,
00010000
00001000
00000100
00000100
,
00000010
00000000
00001001
00001001
,
00001000
00000000
00001010
00000000
,
00000010
00000000
00010010
00000000
,
00010000
00000000
00011000
00000000
,
00001000
00100000
00010000
00010000
,
00010000
00000000
10010000
00000000
,
10000000
00000000
11000000
00000000
,
01000000
00000000
01100000
00000000
,
00100000
00000000
00001000
00000000
00010000
00001000
00010000
00001000
;

//---------------dance-single - ----------------
#NOTES:
     dance-single:
     :
     Hard:
     13:
     0.620462,0.707117,0.421112,0.379826,0.326155,526.000000,475.000000,51.000000,46.000000,0.000000,0.000000,0.620462,0.707117,0.421112,0.379826,0.326155,526.000000,475.000000,51.000000,46.000000,0.000000,0.000000:
0000
0000
0000
0000
,
0000
0000
0000
0000
,
0000
0000
0000
0000
,
0000
0000
0000
0000
,
0000
0000
0000
0000
,
2000
0000
3002
0000
1003
0100
0010
0002
,
0000
0000
0013
0000
0100
0000
2000
0000
0000
0000
3010
0100
0010
0000
0100
0000
,
0101
0000
1010
0000
,
1100
0000
0000
0000
0011
0000
0000
0000
0001
1000
0001
1000
0002
0000
0000
0000
,
0103
0010
1000
0000
0010
0100
0001
0000
,
0100
0000
0010
0000
1000
0000
0001
0000
0010
0000
0100
0010
0100
0000
1000
0000
,
0001
0100
0010
0000
1000
0010
0100
0000
,
0001
0000
1000
0000
0100
0000
0010
0000
0001
0000
0100
0010
0100
0000
0010
0000
,
1000
0100
0001
0000
0001
0010
1000
0000
,
1000
0000
0100
0000
0001
0000
0100
0000
1000
0000
0010
0100
0010
0000
0100
0000
,
0001
0010
1000
0000
1000
0100
0001
0000
,
0001
0000
0010
0000
1000
0000
0010
0000
0001
0000
0100
0010
0100
0000
0010
0000
,
1000
0000
0100
0010
0100
0000
0000
0000
1000
0000
0010
0100
0010
0000
0000
0000
,
1000
0000
0100
0010
0100
0000
0001
0000
0100
0000
1000
0000
0001
0000
0000
0000
,
0011
0000
1100
0000
1010
1010
0000
0101
,
0000
0001
0010
0100
1000
0001
1001
0000
,
0100
0000
0010
1000
0100
0000
0000
0000
0010
0000
0001
0100
0010
0000
0000
0000
,
0100
0000
0010
1000
0001
0000
0010
0000
0100
0000
1000
0000
0010
0000
0100
0000
,
0001
0010
1000
0001
0100
1000
0010
0100
,
0001
1000
0001
1000
0001
1000
0001
0000
0110
0000
1001
0000
1001
0000
0110
0000
,
0010
1000
0200
0001
0300
1000
0010
1000
,
0100
0001
0200
1000
0300
0001
0100
1100
,
0000
1000
0010
0100
0101
0000
1000
1100
,
0000
0100
0010
0011
0000
0001
1000
0001
,
1001
1000
0020
0001
0030
1000
0100
1000
,
0010
0001
0020
1000
0030
1000
0100
0001
,
1000
0010
0001
0100
0010
1000
0001
1001
,
0000
0000
1000
0000
0010
0000
0100
0000
0001
0010
0001
0010
0001
0000
0100
0000
,
0110
0000
0000
0010
1000
0000
0000
1000
0100
0000
0000
0100
0010
0000
0022
0000
,
0033
0000
0000
0001
0100
0000
0000
0100
0010
0000
0000
0010
1000
0000
2002
0000
,
3003
0000
0000
0001
0010
0000
0000
0010
0100
0000
0000
0100
1000
0000
2020
0000
,
3030
0000
0010
0000
0100
0000
0001
0000
1000
0010
1000
0010
1000
0000
0001
0000
,
0101
0000
0000
0100
0010
0000
0000
0010
1000
0000
0000
1000
0100
0000
0220
0000
,
0330
0000
0000
0010
0001
0000
0000
0001
0100
0000
0000
0100
0010
0000
2020
0000
,
3030
0000
0000
1000
0001
0000
0000
0001
0010
0000
0000
0010
0100
0000
2200
0000
,
3300
0000
0011
0000
0001
0000
0100
0000
0010
1000
0010
1000
0010
0000
0100
0000
,
0001
0020
1000
0000
0030
0001
0200
1000
,
0000
0320
0000
0000
0000
0031
0010
1000
,
0200
0000
0001
0000
0300
1000
0020
0001
,
0000
0000
0230
0000
0000
0000
1300
0000
0100
0000
0001
0000
0010
0000
0100
1000
,
0200
0000
0310
0011
0000
0000
0202
0000
,
0303
0000
0100
0010
2020
0000
3030
0000
,
1000
0001
1000
0000
0100
0000
0010
0000
0001
0100
0001
0000
0100
0000
0010
0000
,
1000
0100
1000
0000
0001
0000
0010
0000
0100
1000
0100
1000
0100
1000
0100
0000
,
0220
0000
0330
0000
0110
1001
1001
0110
,
0010
0001
0100
1000
0001
0010
1000
0100
,
0110
1000
0010
0001
1000
0100
0001
0010
,
0100
1000
0100
0000
0010
0000
0100
0000
0010
0001
0010
0000
0100
0000
0010
0000
,
0100
1000
0001
0000
0100
0001
1000
0000
0010
0000
0001
0000
0010
0000
0100
0000
,
1001
1000
0100
0001
1000
0010
0001
0100
,
0110
0001
0010
1000
0001
0100
1000
0010
,
0100
0001
0100
0000
0010
1000
0010
0000
0100
0001
1000
0010
0100
0000
0220
0000
,
0300
0000
0100
0000
0100
0000
0130
0000
1000
0100
0010
0001
1000
0000
1001
0000
,
0001
0000
0100
0010
0100
0000
0010
1000
0010
0000
0100
0010
0100
0000
0202
0000
,
0303
0000
0001
0010
0001
0000
1000
0100
1000
0000
0001
0010
0001
0000
2002
0000
,
3003
0000
1000
0010
1000
0000
0100
0010
0100
0000
1000
0010
1000
0000
2200
0000
,
3300
0000
0100
0000
0010
0000
0001
0000
0100
0010
1000
0001
0010
0000
0100
0000
,
1100
0000
1000
0010
0100
0000
0010
1000
0100
0000
1000
0010
0200
0000
0301
0000
,
0011
0000
0001
0100
0010
0000
0001
0010
0100
0000
0001
0100
0020
0000
1030
0000
,
1001
0000
0001
0010
0100
0000
1000
0100
0010
0000
0001
0100
0010
0000
0220
0000
,
0330
0000
1001
0000
0010
0000
0100
0000
0001
1000
0100
0010
0001
0000
1100
0000
;

//---------------dance-double - ----------------
#NOTES:
     dance-double:
     :
     Hard:
     13:
     0.590972,0.652723,0.544968,0.388083,0.235327,501.000000,435.000000,66.000000,47.000000,0.000000,0.000000,0.590972,0.652723,0.544968,0.388083,0.235327,501.000000,435.000000,66.000000,47.000000,0.000000,0.000000:
// measure 0
00000000
00000000
00000000
00000000
,  // measure 1
00000000
00000000
00000000
00000000
,  // measure 2
00000000
00000000
00000000
00000000
,  // measure 3
00000000
00000000
00000000
00000000
,  // measure 4
00000000
00000000
00000000
00000000
,  // measure 5
00002000
00000000
00023000
00000000
00030100
00001000
00000001
00000200
,  // measure 6
00000000
00000000
00001300
00000000
00010000
00000000
00200000
00000000
00000000
00000000
10300000
01000000
10000000
00000000
01000000
00000000
,  // measure 7
01010000
00000000
00011000
00000000
,  // measure 8
00001010
00000000
00000000
00000000
00000011
00000000
00000000
00000000
00000010
00000100
00000010
00000100
00000020
00000000
00000000
00000000
,  // measure 9
00000031
00000100
00001000
00000000
00010000
00100000
10000000
00000000
,  // measure 10
01000000
00000000
00100000
00000000
00010000
00000000
00100000
00000000
01000000
00000000
00010000
00001000
00010000
00000000
01000000
00000000
,  // measure 11
10000000
00100000
00010000
00000000
00001000
00000100
00000001
00000000
,  // measure 12
00000010
00000000
00000100
00000000
00001000
00000000
00000100
00000000
00000010
00000000
00001000
00010000
00001000
00000000
00000010
00000000
,  // measure 13
00000100
00001000
00010000
00000000
00001000
00010000
00100000
00000000
,  // measure 14
00010000
00000000
01000000
00000000
00100000
00000000
00010000
00000000
00001000
00000000
00100000
01000000
00100000
00000000
00001000
00000000
,  // measure 15
01000000
00010000
00001000
00000000
00010000
00001000
00000010
00000000
,  // measure 16
00001000
00000000
00000100
00000000
00000010
00000000
00001000
00000000
00010000
00000000
00000010
00000100
00000010
00000000
00010000
00000000
,  // measure 17
00001000
00000000
00000010
00000001
00000010
00000000
00000000
00000000
00000001
00000000
00000100
00001000
00000100
00000000
00000000
00000000
,  // measure 18
00001000
00000000
00010000
00001000
00010000
00000000
01000000
00000000
10000000
00000000
00100000
00000000
00010000
00000000
00000000
00000000
,  // measure 19
00011000
00000000
01001000
00000000
00011000
00011000
00000000
00010010
,  // measure 20
00000000
00010000
00001000
00010000
01000000
10000000
10100000
00000000
,  // measure 21
00100000
00000000
00010000
00001000
00010000
00000000
00000000
00000000
00001000
00000000
00000100
00000001
00000100
00000000
00000000
00000000
,  // measure 22
00000001
00000000
00000010
00000100
00000010
00000000
00001000
00000000
00010000
00000000
01000000
00000000
00100000
00000000
00010000
00000000
,  // measure 23
10000000
01000000
00010000
00001000
00000010
00000001
00000100
00001000
,  // measure 24
00010000
00001000
00010000
00000000
00000100
00001000
00000100
00000000
00001100
00000000
00010010
00000000
00010010
00000000
00001100
00000000
,  // measure 25
00000100
00010000
02000000
10000000
03000000
00010000
00001000
00000010
,  // measure 26
00000001
00000100
00002000
00010000
00003000
00100000
01000000
11000000
,  // measure 27
00000000
10000000
00100000
00010000
00011000
00000000
00001000
01001000
,  // measure 28
00000000
00001000
00010000
00010010
00000000
00000010
00010000
00001000
,  // measure 29
00011000
00001000
00000200
00000001
00000300
00001000
00010000
00100000
,  // measure 30
10000000
01000000
00020000
00001000
00030000
00000010
00000100
00000001
,  // measure 31
00001000
00000100
00000010
00000001
00000100
00001000
00010000
00011000
,  // measure 32
00000000
00000000
00001000
00000000
00010000
00000000
01000000
00000000
10000000
00100000
10000000
00100000
10000000
00000000
00010000
00000000
,  // measure 33
01010000
00000000
01001000
00000000
00011000
00000000
00010100
00002200
,  // measure 34
00003300
00000000
00001010
00000000
00000110
00000000
00000101
00002002
,  // measure 35
00003003
00000000
00001100
00000000
00010100
00000000
00011000
02002000
,  // measure 36
03003000
00000000
01000000
00000000
00010000
00000000
00100000
00000000
01000000
10000000
01000000
10000000
01000000
00000000
00010000
00000000
,  // measure 37
00011000
00000000
00001010
00000000
00000011
00000000
00000101
00002200
,  // measure 38
00003300
00000000
00010100
00000000
01001000
00000000
01010000
02200000
,  // measure 39
03300000
00000000
10100000
00000000
11000000
00000000
01010000
00022000
,  // measure 40
00033000
00000000
00001000
00000000
00000100
00000000
00000001
00000000
00000010
00000100
00000010
00000100
00000010
00000000
00001000
00000000
,  // measure 41
00010000
00200000
10000000
00000000
00300000
00010000
00002000
00000100
,  // measure 42
00000000
00023000
00000000
00000000
00000000
00130000
00010000
00001000
,  // measure 43
00000020
00000000
00000001
00000000
00000030
00001000
00020000
01000000
,  // measure 44
00000000
00000000
00032000
00000000
00000000
00000000
00003010
00000000
00001000
00000000
00010000
00000000
01000000
00000000
10000000
00100000
,  // measure 45
20000000
00000000
30010000
00110000
00000000
00000000
02002000
00000000
,  // measure 46
03003000
00000000
00001000
00010000
00020020
00000000
00030030
00000000
,  // measure 47
00000010
00001000
00000010
00000000
00000100
00000000
00000001
00000000
00000010
00000100
00000010
00000000
00001000
00000000
00010000
00000000
,  // measure 48
01000000
00100000
01000000
00000000
10000000
00000000
00100000
00000000
00010000
00001000
00010000
00001000
00010000
00001000
00010000
00000000
,  // measure 49
00022000
00000000
00033000
00000000
00110000
01001000
01001000
00110000
,  // measure 50
00100000
01000000
00010000
00001000
00000010
00010000
01000000
00100000
,  // measure 51
10100000
10000000
01000000
00010000
00001000
00000100
00000001
00000010
,  // measure 52
00000100
00000010
00000100
00000000
00010000
00000000
00001000
00000000
00100000
01000000
00100000
00000000
01000000
00000000
10000000
00000000
,  // measure 53
00100000
00000000
00010000
00000000
00001000
00010000
00001000
00000000
00100000
00000000
00010000
00000000
10000000
00000000
01000000
00000000
,  // measure 54
00110000
00010000
01000000
00100000
00010000
00001000
00000100
00000010
,  // measure 55
00001010
00001000
00000001
00000100
00001000
00010000
01000000
10000000
,  // measure 56
00100000
00000000
00010000
00000000
00001000
00000000
00000100
00000000
00000001
00001000
00000001
00001000
00000001
00000000
00002002
00000000
,  // measure 57
00003003
00000000
00001000
00000000
00000010
00000000
00010000
00000000
00001000
00100000
00001000
00100000
00010000
00000000
10000000
00000000
,  // measure 58
10010000
00000000
00000000
00010000
01000000
00000000
00000000
01000000
00100000
00000000
00000000
00100000
00010000
00000000
00022000
00000000
,  // measure 59
00033000
00000000
00000000
00001000
00000010
00000000
00000000
00000010
00000001
00000000
00000000
00000001
00001000
00000000
00002020
00000000
,  // measure 60
00003030
00000000
00000000
00000010
00010000
00000000
00000000
00010000
00100000
00000000
00000000
00100000
10000000
00000000
22000000
00000000
,  // measure 61
33000000
00000000
01000000
00000000
00100000
00000000
00010000
00000000
01000000
00001000
00010000
00000100
00001000
00000000
00000001
00000000
,  // measure 62
00000101
00000000
00000000
00000100
00000010
00000000
00000000
00000010
00010000
00000000
00000000
00010000
00002000
00000000
00103000
00000000
,  // measure 63
00110000
00000000
00000000
00010000
10000000
00000000
00000000
10000000
01000000
00000000
00000000
01000000
00020000
00000000
00031000
00000000
,  // measure 64
00001100
00000000
00000000
00000100
00000001
00000000
00000000
00000001
00000010
00000000
00000000
00000010
00000100
00000000
00002200
00000000
,  // measure 65
00003300
00000000
00001000
00000000
00000010
00000000
00010000
00000000
00100000
10000000
01000000
00100000
02000000
00000000
03010000
00000000
;

//---------------dance-single - ----------------
#NOTES:
     dance-single:
     :
     Medium:
     9:
     0.372749,0.435149,0.280741,0.181656,0.008257,316.000000,282.000000,34.000000,22.000000,0.000000,0.000000,0.372749,0.435149,0.280741,0.181656,0.008257,316.000000,282.000000,34.000000,22.000000,0.000000,0.000000:
0000
0000
0000
0000
,
0000
0000
0000
0000
,
0000
0000
0000
0000
,
0000
0000
0000
0000
,
0000
0000
0000
0000
,
1000
0000
0001
0000
1000
0010
1000
0010
,
0000
0100
0001
0100
0000
0001
1000
0001
,
1001
0000
0110
0000
,
1010
0101
2002
3003
,
1000
1000
0000
0100
,
0000
0000
0010
0000
0000
0001
0100
0100
,
0001
0001
0000
0010
,
0000
0000
0100
0000
0000
1000
0010
0010
,
1000
1000
0000
0100
,
0000
0000
0001
0000
0000
0010
0100
0100
,
0001
0001
0000
0010
,
0000
0000
1000
0000
0100
0010
0010
0000
,
2000
3100
0020
0031
,
2000
3100
0020
0031
,
0101
0000
1010
0000
1000
0001
0000
1000
,
0000
0010
0100
0010
0100
0010
0010
0000
,
0200
0301
2000
3010
,
0200
0301
2000
3010
,
0010
0100
0001
1000
,
0100
0010
0100
0010
0100
0000
0000
0000
,
0010
0011
0100
0101
,
0010
0011
0100
0101
,
0001
0000
0010
0001
0100
0000
0010
0100
,
0000
0010
1000
0100
0000
1000
0001
0010
,
0100
1100
0010
1010
,
0100
1100
0010
1010
,
1000
0000
0001
0000
0100
0000
0010
0100
,
0000
0001
1000
0001
0100
0010
0100
0010
,
0000
0000
1000
0000
0001
0000
0010
0010
,
0000
0000
0001
0000
1000
0000
0100
0100
,
0000
0000
1000
0000
0001
0000
0100
0100
,
0000
0010
0100
0010
1000
0001
1000
0001
,
0100
0000
0001
0000
0010
0000
0100
0100
,
0000
0000
1000
0000
0100
0000
0010
0010
,
0000
0000
0001
0000
0100
0000
0010
0010
,
0000
0010
1000
0100
0010
0100
0010
0001
,
0010
0000
0022
0033
0000
0001
0100
0010
,
0000
2020
0000
3030
0000
1000
0001
1000
,
0001
0000
0202
0303
0000
0100
0010
1000
,
0000
1100
0000
0100
0010
0100
1000
0001
,
1000
0000
0010
0020
0000
0000
0130
0000
,
0000
0000
0100
0100
0200
0000
0300
0000
,
0001
0000
0000
0000
1000
0000
0000
0000
0010
0000
0000
0100
0000
0000
0010
0000
,
1000
0000
0000
0000
0001
0000
0000
0000
0100
0000
0000
0010
0000
0000
0100
0000
,
0220
0000
0330
0000
,
0010
1000
0100
0000
1000
0000
0001
0000
,
0100
0001
0010
0000
0001
0000
1000
0000
,
0100
0010
0001
0000
1000
0100
0010
0000
,
0001
0100
0010
1000
0001
1000
0001
0000
,
1000
0010
0100
0000
0001
0000
1000
0000
,
0001
0100
0010
0000
1000
0000
0001
0000
,
0010
0100
1000
0000
0001
0010
0100
0220
,
0000
0000
0330
0000
1000
0001
1000
1000
,
0010
0000
1010
0000
0101
0000
0001
0001
,
0000
0000
0011
0000
1100
0000
1000
1000
,
0000
0000
1010
0000
0101
0000
0001
0001
,
0000
1000
0010
0100
0001
0100
0001
0010
,
0100
0000
1100
0000
1010
0000
0001
0001
,
0000
0000
0011
0000
0101
0000
1000
1000
,
0000
0000
1010
0000
1100
0000
0001
0001
,
0000
0010
0100
0010
0001
1000
0001
1001
;

//---------------dance-double - ----------------
#NOTES:
     dance-double:
     :
     Medium:
     9:
     0.340900,0.407952,0.140371,0.181656,0.000000,289.000000,272.000000,17.000000,22.000000,0.000000,0.000000,0.340900,0.407952,0.140371,0.181656,0.000000,289.000000,272.000000,17.000000,22.000000,0.000000,0.000000:
00000000
00000000
00000000
00000000
,
00000000
00000000
00000000
00000000
,
00000000
00000000
00000000
00000000
,
00000000
00000000
00000000
00000000
,
00000000
00000000
00000000
00000000
,
00001000
00000000
00010000
00000000
00000100
00001000
00000100
00000010
,
00000000
00000100
00000010
00000001
00000000
00000100
00001000
00010000
,
00011000
00000000
00011000
00000000
,
00010000
00001000
00022000
00033000
,
00010000
00010000
00000000
01000000
,
00000000
00000000
10000000
00000000
00000000
00100000
00010000
00010000
,
00001000
00001000
00000000
00000100
,
00000000
00000000
00000001
00000000
00000000
00000010
00001000
00001000
,
00010000
00100000
00000000
00001000
,
00000000
00000000
00000010
00000000
00000000
00000100
00000010
00010000
,
00001000
00000100
00000000
00010000
,
00000000
00000000
01000000
00000000
00100000
01000000
00001000
00000000
,
00010000
00001000
00000100
00000001
,
00000010
00001000
00010000
00001000
,
01001000
00000000
00010010
00000000
00010000
00001000
00000000
00100000
,
00000000
00010000
00100000
01000000
10000000
00100000
00010000
00000000
,
00001000
00010000
01000000
10000000
,
00100000
00010000
00001000
00010000
,
00000100
00000010
00000001
00000100
,
00001000
00010000
00001000
00010000
00001000
00000000
00000000
00000000
,
00020000
00030010
00002000
00103000
,
00020000
00030010
00002000
00103000
,
00100000
00000000
00010000
01000000
00100000
00000000
10000000
01000000
,
00000000
00100000
01000000
00010000
00000000
00001000
00010000
00001000
,
00020000
00030100
00002000
01003000
,
00020000
00030100
00002000
01003000
,
00001000
00000000
00010000
00000000
00001000
00000000
00000100
00000001
,
00000000
00000010
00000100
00000010
00000001
00001000
00000001
00001000
,
00000000
00000000
00000010
00000000
00010000
00000000
00001000
00001000
,
00000000
00000000
01000000
00000000
00001000
00000000
00010000
00010000
,
00000000
00000000
00000100
00000000
00010000
00000000
00001000
00001000
,
00000000
00100000
00010000
00100000
01000000
10000000
01000000
10000000
,
00100000
00000000
00010000
00000000
00001000
00000000
00000010
00000010
,
00000000
00000000
00001000
00000000
00010000
00000000
00100000
00100000
,
00000000
00000000
00010000
00000000
00001000
00000000
00000010
00000010
,
00000000
00000001
00000010
00000100
00000010
00000100
00001000
00000100
,
00010000
00000000
00022000
00033000
00000000
00001000
00010000
00100000
,
00000000
20200000
00000000
30300000
00000000
10000000
01000000
00100000
,
00010000
00000000
00220000
00330000
00000000
00100000
00001000
00010000
,
00000000
00011000
00000000
00000100
00001000
00000100
00000010
00000001
,
00000100
00000000
00001000
00002000
00000000
00000000
00013000
00000000
,
00000000
00000000
00010000
00010000
00020000
00000000
00030000
00000000
,
00001000
00010000
01000000
10000000
,
00100000
00010000
00001000
00010000
,
00022000
00000000
00033000
00000000
,
00001000
00000100
00000001
00000010
,
00001000
00010000
00001000
00000010
,
00000001
00000100
00001000
00010000
,
00100000
10000000
00100000
10000000
01000000
00100000
01000000
00000000
,
00010000
01000000
10000000
00100000
,
00010000
00001000
00010000
00100000
,
10000000
00000000
01000000
00000000
00010000
00000000
00001000
00022000
,
00000000
00000000
00033000
00000000
00010000
00001000
00010000
00010000
,
00000100
00000000
00001100
00000000
00000010
00000000
00000001
00000001
,
00000000
00000000
00000101
00000000
00000010
00000000
00001000
00001000
,
00000000
00000000
00001100
00000000
00010000
00000000
00001000
00001000
,
00000000
00100000
00010000
00100000
01000000
00100000
01000000
10000000
,
00100000
00000000
01100000
00000000
00010000
00000000
00001000
00001000
,
00000000
00000000
00000110
00000000
00001000
00000000
00010000
00010000
,
00000000
00000000
01100000
00000000
00010000
00000000
00001000
00001000
,
00000000
00000100
00000001
00000010
00000100
00000010
00001000
00010000
;
