#VERSION:0.83;
#TITLE:Blows Up Everything;
#SUBTITLE:;
#ARTIST:USAO;
#TITLETRANSLIT:;
#SUBTITLETRANSLIT:;
#ARTISTTRANSLIT:;
#GENRE:VARIETY;
#ORIGIN:;
#CREDIT:MUINELIM;
#BANNER:Blows Up Everything.png;
#BACKGROUND:Blows Up Everything-bg.png;
#PREVIEWVID:;
#JACKET:Blows Up Everything-jacket.png;
#CDIMAGE:;
#DISCIMAGE:;
#LYRICSPATH:;
#CDTITLE:;
#MUSIC:Blows Up Everything.ogg;
#OFFSET:-0.105000;
#SAMPLESTART:105.023247;
#SAMPLELENGTH:15.607906;
#SELECTABLE:YES;
#BPMS:0.000=215.000,
193.000=107.500,
215.000=53.750,
216.000=107.500,
257.000=215.000;
#STOPS:64.000=0.837,
238.000=0.558;
#DELAYS:;
#WARPS:;
#TIMESIGNATURES:0.000=4=4;
#TICKCOUNTS:0.000=4;
#COMBOS:0.000=1;
#SPEEDS:0.000=1.000=0.000=0;
#SCROLLS:0.000=1.000;
#FAKES:;
#LABELS:0.000=Song Start;
#BGCHANGES:0.000=Blows Up Everything.avi=1.000=0=0=0=StretchNoLoop====,
99999=-nosongbg-=1.000=0=0=0 // don't automatically add -songbackground-
;
#KEYSOUNDS:;
#ATTACKS:
;

//---------------dance-single - ----------------
#NOTEDATA:;
#CHARTNAME:;
#STEPSTYPE:dance-single;
#DESCRIPTION:;
#CHARTSTYLE:;
#DIFFICULTY:Beginner;
#METER:5;
#RADARVALUES:0.188438,0.375671,0.052463,0.029979,0.000000,176.000000,169.000000,7.000000,4.000000,0.000000,0.000000,0.000000,0.000000,0.000000,0.188438,0.375671,0.052463,0.029979,0.000000,176.000000,169.000000,7.000000,4.000000,0.000000,0.000000,0.000000,0.000000,0.000000;
#CREDIT:MILEN;
#NOTES:
0000
0000
0000
0000
,
0000
0000
0000
0000
,
0000
0000
0000
0000
,
0000
0000
0000
0000
,
0000
0000
0000
0000
,
1000
0000
0000
0000
,
0001
0000
0000
0000
,
1000
0000
0000
0000
,
0001
0000
0000
0000
,
0100
0000
0000
0000
,
0010
0000
0000
0000
,
0100
0000
0000
0000
,
0010
0000
0000
0000
,
1000
0000
0000
0000
,
1000
0000
0000
0000
,
1000
0000
1000
0000
,
1000
0001
0000
0001
,
0000
0001
0000
0000
,
0000
0100
0000
0100
,
0000
0100
0000
0000
,
0000
0010
0000
0010
,
0000
0010
0000
0000
,
0000
1000
0000
1000
,
0000
1000
0000
0000
,
0000
0001
0000
0001
,
0000
0001
0000
0001
,
0000
0010
0000
0010
,
0000
0010
0000
0010
,
0000
0100
0000
0100
,
0000
0100
0000
0100
,
0000
1000
0000
1000
,
0000
1000
0000
1000
,
0000
0001
0000
0001
,
0000
0100
0000
0100
,
0000
0010
0000
0010
,
0000
1000
0000
1000
,
0000
0100
0000
0100
,
0000
0010
0000
0010
,
0000
0001
0000
0001
,
0000
1000
0000
1000
,
0000
0001
0000
0000
,
0000
0100
0000
0000
,
0000
1000
0000
0000
,
0000
0010
0000
0000
,
0000
0001
0000
0000
,
0000
0100
0000
0000
,
0000
1000
0000
0000
,
0000
0010
0000
0000
,
0000
1001
0000
0000
,
0000
0010
0000
0010
,
0000
0010
0010
0100
,
0100
0010
0100
1001
,
0000
0001
0000
1000
,
0000
0001
0000
0110
,
1000
0000
1000
0000
,
0100
0000
0100
0000
,
0001
0000
0001
0000
,
0010
0000
0010
0000
,
1000
1000
0001
0001
,
0100
0010
0110
1000
,
0100
1000
0000
0001
,
0010
0001
0000
0100
,
0010
0100
0000
0001
,
1000
0002
0000
0000
,
0003
1000
0000
0000
,
0000
1000
0000
0000
,
0000
0010
0000
0000
,
0000
0010
0000
0000
,
0000
0100
0000
0000
,
0000
0100
0000
0000
,
0000
0001
0000
0000
,
0000
0001
0000
0000
,
0000
1000
0000
0000
,
0000
0010
0000
0000
,
0000
0100
0000
0001
,
0000
2002
0000
3003
,
0000
1000
0000
1000
,
0000
1000
0000
1000
,
0000
0100
0000
0100
,
0000
0100
0000
0100
,
0000
0001
0000
0001
,
0000
0001
0000
0001
,
0000
0010
0000
0010
,
0000
0010
0010
0010
,
0000
1000
0000
0001
,
0000
1000
0000
0001
,
0000
0100
0000
0010
,
0000
0100
0000
0010
,
0000
1000
0000
0001
,
0000
0010
0000
0100
,
0000
1000
0000
0001
,
0000
0100
0100
0100
,
0100
0100
0000
0010
,
0000
1000
0000
0001
,
0000
0100
0000
0010
,
0000
1000
0000
0100
,
0000
0001
0000
0010
,
0000
1000
0000
0001
,
0000
0200
0000
0300
,
0000
0110
0000
0000
,
0000
1001
0000
0000
;

//---------------dance-single - ----------------
#NOTEDATA:;
#CHARTNAME:;
#STEPSTYPE:dance-single;
#DESCRIPTION:;
#CHARTSTYLE:;
#DIFFICULTY:Easy;
#METER:9;
#RADARVALUES:0.332978,0.525939,0.127410,0.134904,0.000000,311.000000,294.000000,17.000000,18.000000,0.000000,0.000000,0.000000,0.000000,0.000000,0.332978,0.525939,0.127410,0.134904,0.000000,311.000000,294.000000,17.000000,18.000000,0.000000,0.000000,0.000000,0.000000,0.000000;
#CREDIT:MILEN;
#NOTES:
0000
0000
0000
0000
,
0000
0000
0000
0000
,
0000
0000
0000
0000
,
0000
0000
0000
0000
,
0000
0000
0000
0000
,
1000
0000
1000
0000
,
0001
0000
0001
0000
,
1000
0000
0001
0000
,
2002
0000
3003
0000
,
0010
0100
0010
0000
,
0100
0010
0100
0000
,
0010
0100
0010
0000
,
0100
0010
0100
0000
,
0001
0000
1000
0000
,
0010
0000
0001
0000
,
0100
0000
1000
0000
,
1001
0001
0010
0001
,
0000
0010
0001
0010
,
0000
0100
1000
0100
,
0000
1000
0100
1000
,
0000
0001
1000
0001
,
0000
1000
0001
1000
,
0000
0010
0100
0010
,
0000
0100
0010
0100
,
0000
0010
1000
0010
,
0000
0100
0001
0100
,
0000
0010
1000
0010
,
0000
0100
0001
0100
,
0000
0010
1000
0001
,
0000
0100
0001
1000
,
0000
0010
1000
0100
,
0000
0010
0001
0100
,
0000
0110
1000
0100
,
0000
0100
0010
0001
,
0000
1000
0100
0010
,
0000
0010
0001
0100
,
0000
0110
0001
0010
,
0000
0010
0100
1000
,
0000
0001
0010
0100
,
0000
0100
1000
0010
,
0000
0000
0110
0000
0000
1000
0000
0000
,
1000
0000
0000
1000
0000
0000
1000
0000
,
0001
0000
1000
0000
0000
0001
0000
0000
,
1000
0000
0000
0001
0000
0000
1000
0000
,
1001
0000
0110
0000
0000
0001
0000
0000
,
0001
0000
0000
0001
0000
0000
0001
0000
,
1000
0000
0001
0000
0000
1000
0000
0000
,
0001
0000
0000
1000
0000
0000
0001
0000
,
1001
0200
0000
0000
,
0000
0000
0000
0000
,
0000
0310
1000
0001
,
0100
2002
0000
3003
,
0000
0020
0030
2000
,
3000
0002
0003
0200
,
0310
1000
0100
1000
,
0001
0010
0002
0003
,
1001
0100
0010
1000
,
0001
0010
0100
1000
,
0010
0010
0010
0000
0100
0100
0100
0000
,
0001
0001
1000
1000
1001
0000
0010
0000
,
0001
0000
0100
0010
0100
0000
0010
0000
,
1000
0000
0100
0010
0100
0000
1000
0000
,
0001
0000
1000
0010
0100
0000
0001
0000
,
1000
0000
0001
0100
0020
0000
0000
0000
,
1030
1000
1000
0000
0000
0000
0010
0000
,
0000
0001
0000
0010
,
0000
1000
0000
0100
,
0000
0010
0010
0010
,
1001
0001
0000
0100
,
0000
1000
0000
0100
,
0000
0001
0000
0010
,
0000
0100
0100
0100
,
1001
2000
0000
0010
,
3000
0002
0000
0100
,
0003
1000
0100
0010
,
0001
2002
0000
0000
,
3003
1000
0100
0010
,
0000
0010
0100
1000
,
0000
1000
0100
0001
,
0000
0001
0100
1000
,
0000
0001
0010
0100
,
0000
0100
0010
0001
,
0000
0001
0010
1000
,
0000
1000
0010
0001
,
1001
1000
0100
1000
,
0001
1000
0100
1000
,
0000
0001
0010
0001
,
1000
0001
0010
0001
,
0000
1000
0100
0010
,
0100
1000
0100
0010
,
0010
0001
0010
0100
,
0010
0001
0010
0010
,
2002
3003
1000
0010
,
0100
0010
1000
0010
,
0100
0001
0100
0010
,
0100
0000
0001
0000
0100
0000
0010
0100
,
0010
1000
0100
0001
,
1000
0010
0001
0100
,
0010
0200
0000
0000
,
0300
0001
1000
0001
,
1000
1001
0000
0000
;

//---------------dance-single - ----------------
#NOTEDATA:;
#CHARTNAME:;
#STEPSTYPE:dance-single;
#DESCRIPTION:;
#CHARTSTYLE:;
#DIFFICULTY:Medium;
#METER:14;
#RADARVALUES:0.643472,0.979180,0.427197,0.239830,0.082441,601.000000,544.000000,57.000000,32.000000,0.000000,0.000000,0.000000,0.000000,0.000000,0.643472,0.979180,0.427197,0.239830,0.082441,601.000000,544.000000,57.000000,32.000000,0.000000,0.000000,0.000000,0.000000,0.000000;
#CREDIT:MILEN;
#NOTES:
0000
0000
0000
0000
,
0000
0000
0000
0000
,
0000
0000
0000
0000
,
0000
0000
0000
0000
,
0000
0000
0000
0000
,
1000
1010
0000
0011
,
0000
0101
0000
1100
,
0000
1010
0000
0011
,
2002
0000
0000
3003
,
0001
0100
0001
0000
1000
0000
0000
0000
,
1000
0010
1000
0000
0001
0000
0000
0000
,
1000
0100
1000
0000
0001
0000
0000
0000
,
0001
0010
0001
0000
1000
0000
0000
0000
,
0010
0100
0010
0000
1000
0000
0001
0000
,
0100
0010
0100
0000
0001
0000
1000
0000
,
0010
0100
0010
0100
0001
1000
0001
1000
,
1001
0001
0101
0001
,
0011
0000
0001
0000
0101
0000
0001
1000
,
0100
1000
1100
1000
,
0001
1000
0010
0000
1010
0000
1000
0001
,
0100
0000
0010
0100
0110
0000
0010
0000
,
1010
0000
0010
0000
0011
0000
0010
0100
,
0001
1000
0100
0000
0110
0000
0010
0001
,
1000
0010
0100
0000
0101
0000
1010
0000
,
1001
0000
0001
0100
0010
0000
0100
0001
,
0010
0000
0001
0100
0010
0000
0100
0001
,
0010
0000
0001
0100
0010
0000
0100
0001
,
0010
0000
0001
0100
0010
1000
0100
0000
,
0110
0000
0010
0100
1000
0000
0100
1000
,
0010
0000
1000
0100
0010
0000
0100
1000
,
0010
0000
1000
0100
0010
0000
0100
1000
,
0010
1010
1100
0011
,
0101
0000
0100
0001
0010
0000
0010
0100
,
1000
0000
0001
0010
0100
0000
0100
1000
,
0010
0000
0010
0100
0001
0000
0100
0010
,
1000
0000
1010
0000
0101
0000
0001
0010
,
0001
0010
0100
1000
0100
0000
0010
0001
,
0010
0000
0100
0001
0100
0000
0010
1000
,
0010
0000
0100
0010
0100
0010
0001
1000
,
0001
1000
0010
0000
1010
0000
0101
0000
,
0011
0000
1100
0000
1000
0010
0000
0010
,
0001
0000
0001
0100
0000
0100
1000
0001
,
1000
0000
1001
0000
0001
0010
0000
0010
,
1000
0000
1000
0100
0000
0100
0001
1000
,
1001
0000
0101
0000
0001
0010
0000
0010
,
1000
0000
1000
0100
0000
0100
0001
1000
,
0001
0000
1001
0000
1000
0010
0000
0010
,
0001
0000
0001
0100
0000
0100
1000
0001
,
1000
0010
0220
0000
0000
0000
0000
0000
,
0000
0000
0000
0000
,
0330
0000
0001
0001
0010
0010
0100
0100
,
1000
0000
0000
0000
1000
0000
0000
0000
0010
0000
0000
0010
0000
0000
0100
0000
0000
0100
0000
0000
0001
0000
1000
0000
0002
0000
0000
0000
0000
0000
0000
0000
,
0000
0203
0000
0320
,
0000
2030
0000
3002
,
0103
0100
0001
0010
0100
0100
1000
0010
,
0100
0000
0000
0000
0100
0000
0000
0000
0001
0000
0000
0000
0010
0000
0000
0000
0100
0000
0000
0100
0000
0000
0100
0000
0000
0000
0000
0000
1100
0000
0000
0000
,
0002
0000
0023
0000
,
2030
0000
3200
0000
,
0302
0023
2030
3200
,
0301
0000
0010
0000
0100
1000
0100
0010
0110
0000
0000
0000
1001
0000
0100
0000
,
0110
0000
0010
1000
0100
0000
0010
0001
0100
0000
0010
0000
1000
0001
0100
0000
,
0010
1000
0001
0010
0100
0000
1000
0000
0010
0000
0101
0001
1000
0000
0100
0000
,
0010
0000
0001
0100
1000
0000
0100
0000
0001
0010
0100
0000
0110
0000
1001
0000
,
0001
0100
1000
0100
0020
0000
0000
0000
0000
0000
0000
0000
0230
0000
0000
0000
,
0301
0010
0100
1000
0001
0000
0100
0000
0010
0000
1000
0000
0001
0000
0100
0000
,
0010
1000
0001
0100
0010
1000
0001
0000
,
0110
0000
0010
0010
0010
1000
0001
0100
,
0100
0001
1000
0000
1010
0000
0101
0001
,
0001
0000
1000
0100
0010
0001
1000
0100
,
0010
0001
1000
0100
0010
0001
1000
0100
,
0010
0000
0100
0100
0110
0000
0001
0100
,
0010
1000
0001
0000
1001
0000
0010
0010
,
0020
0000
1030
0100
0001
0000
0200
0000
,
0300
0000
0001
0100
1000
0000
0020
0000
,
0030
0000
0001
0010
1000
0100
0010
0001
,
1000
0001
2002
0000
0000
0000
0000
0000
,
3003
0000
1000
0010
0100
0001
0000
0010
,
0000
0001
0010
0100
1000
0010
0000
1000
,
0000
0100
0010
0001
1000
0100
0000
0010
,
0000
0100
1000
0001
0010
0100
0000
0010
,
0110
0000
0010
0001
0100
0000
0010
1000
,
0100
0000
1000
0001
0010
0000
0001
1000
,
0100
0000
1000
0010
0100
0001
0100
0010
,
1000
0100
0010
0001
1000
0100
0010
0001
,
1001
0000
1000
0010
0100
1000
0000
0100
,
0000
0001
0010
0100
0010
0001
0000
0010
,
0000
1000
0010
0001
0100
1000
0000
0100
,
0000
0001
0010
0100
1000
0010
0000
0100
,
0110
0000
0001
0010
1000
0000
1000
0010
,
0001
0000
1000
0100
0001
0000
0001
0100
,
1000
0000
0001
0100
0010
1000
0010
0100
,
0001
0010
0100
1000
0001
0010
0100
1000
,
2002
0000
3003
0000
0001
0100
1000
0100
,
0001
0010
0100
1000
0010
0001
0010
1000
,
0100
0010
0001
1000
0010
0100
0001
0010
,
0100
1000
0020
0000
0230
0000
0302
0000
,
2003
0000
3100
0010
0001
1000
0100
0010
,
0100
0000
0010
0100
1000
0001
0010
0100
,
0010
0000
0000
0000
0011
0000
0000
0001
0000
0000
0110
0000
0000
1000
0000
0000
,
1100
0100
0010
0001
1000
0010
0001
1000
,
0100
0220
0330
0000
;

//---------------dance-single - ----------------
#NOTEDATA:;
#CHARTNAME:;
#STEPSTYPE:dance-single;
#DESCRIPTION:;
#CHARTSTYLE:;
#DIFFICULTY:Hard;
#METER:17;
#RADARVALUES:0.858676,1.280466,0.839404,0.337261,0.382229,802.000000,690.000000,112.000000,45.000000,0.000000,0.000000,0.000000,0.000000,0.000000,0.858676,1.280466,0.839404,0.337261,0.382229,802.000000,690.000000,112.000000,45.000000,0.000000,0.000000,0.000000,0.000000,0.000000;
#CREDIT:MILEN;
#NOTES:
0000
0000
0000
0000
,
0000
0000
0000
0000
,
0000
0000
0000
0000
,
0000
0000
0000
0000
,
0000
0000
0000
0000
,
1000
1100
0001
0101
,
1000
1010
0001
0011
,
0100
0110
0001
1001
,
2000
0000
0000
3020
0000
0000
0230
0000
0302
0000
0000
0000
2003
0000
0000
0000
,
3020
0000
0001
0000
,
1000
0000
0000
0001
0001
0000
0030
0000
,
0200
0000
1000
0000
,
0001
0000
0000
1000
1000
0000
0300
0000
,
0010
1010
0100
1100
,
0010
0011
0100
0101
,
1000
0000
0100
0000
0010
0000
0001
0000
0100
0010
0100
0010
0100
0010
0100
0010
,
0200
0300
0110
0000
1010
0000
0101
0000
,
0011
0000
1100
0000
1001
0000
0110
0010
,
0010
1010
1100
0011
,
0101
0100
0100
0001
0010
0100
1000
0010
,
0200
0000
0301
0001
0011
0000
1100
0000
,
1010
0000
0101
0000
1001
0000
0110
0010
,
1000
0100
1000
0100
1000
0000
0001
0000
0010
0000
0000
0000
0010
0000
0001
0100
,
0001
0100
0010
1000
0010
0000
0000
0000
1010
0000
0000
0000
1100
0000
0000
0000
,
0011
0000
0010
0001
0100
0001
0010
0001
,
0100
0000
0001
0000
0010
0000
0001
0000
0100
0010
0100
0010
0100
0000
0000
0000
,
0010
0000
1000
0100
1000
0000
0100
0000
0010
0000
0001
0000
0001
0000
1000
0000
,
1000
0000
0010
0000
0100
0001
0100
0001
1000
0010
1000
0010
0100
0001
0010
0100
,
2000
0000
3010
0000
0110
0000
0100
0001
,
0010
0100
0010
0001
1000
0100
0010
0100
,
1000
0000
0010
0100
0010
0000
0000
0000
0100
0000
0001
0000
1000
0000
0010
0000
,
0100
0001
0011
0000
1100
0000
1010
0000
,
0101
0000
0001
0010
0011
0001
0100
0010
,
0110
0100
0010
1000
1100
0100
1000
0010
,
0110
0000
0100
0001
0100
0000
0000
0000
0101
0000
0001
0000
0010
0000
0100
0000
,
1100
0000
1000
0000
0010
0000
0000
0000
0110
0000
0000
0000
0100
0001
1000
0010
,
0200
0000
0301
0001
1000
1000
0020
0000
,
0130
0000
0001
0000
0010
0000
0100
0000
1000
0010
0100
0010
1000
0000
0100
0000
,
0010
0000
0001
0100
0010
0000
0100
0000
0001
0000
0010
0000
0010
0000
0100
0000
,
0100
0010
1001
0000
0110
0000
1010
0100
,
0101
0000
2002
3003
1000
1100
0000
0001
,
0011
0000
1000
1010
0000
0001
0100
0100
,
0110
0000
1000
0001
1000
0000
0000
0000
0001
0000
0011
0000
0000
0000
1000
0000
,
1100
0000
0000
0000
0010
0001
0010
0000
0100
1000
0100
0000
0010
0000
0001
0000
,
1001
0000
0110
0000
0010
1010
0000
0100
,
0101
0000
0010
0011
0000
0100
0010
0010
,
1001
0000
0001
1000
0001
0000
0000
0000
0100
0000
0101
0000
0000
0000
0010
0000
,
1010
0000
0100
1100
0010
0001
0100
0100
,
0010
0000
1000
0001
0200
0000
0000
0000
0000
0000
0000
0000
0000
0000
0000
0000
,
0000
0000
0000
0000
,
0000
0000
0301
0001
0010
0010
1000
1000
,
0100
0000
0010
0000
0100
0000
0000
0000
1000
0000
0000
0010
0000
0000
0100
0000
0000
0001
0000
0000
0010
0100
0010
0100
1000
0000
0010
0000
0000
0000
0001
0000
,
0100
1001
2000
0000
0000
0000
3020
0000
,
0000
0032
0000
0203
,
1300
0010
0100
0001
0010
0100
1000
1010
,
0101
0000
0000
0000
0100
0000
0000
0000
0001
0000
0000
0000
0010
0000
0000
0000
0110
0000
0000
0100
0000
0000
1000
0000
0010
0000
0001
0000
0010
0000
0000
0000
,
1010
1000
0100
0010
0011
0001
1000
0100
,
1100
0000
1000
0000
0010
0000
0100
0000
0101
0000
0001
0000
0010
0100
0010
0000
,
1100
1000
1010
0010
0011
0001
0101
0100
,
1000
0000
0010
0000
0100
0000
0001
0000
0010
0000
0100
0000
1000
0001
1000
0001
2000
0000
0000
0000
0000
0000
0000
0000
3001
0000
0100
0000
0010
0000
1000
0000
,
0100
0000
0010
0010
0011
0000
1100
1000
0010
0000
0110
0000
0100
0100
0100
0000
,
0001
0000
0001
0000
0001
0000
0010
0100
0010
0000
0000
0000
0011
0000
0000
0000
0101
0000
0000
0000
1100
0000
0000
0000
1010
0000
0000
0000
0100
0000
0000
0000
,
0101
0001
0010
1000
0010
0000
0011
0001
0100
1000
0100
0000
0110
0000
1010
0000
,
0101
0000
0001
0000
1000
0100
1000
0100
2000
0000
0000
0000
3020
0000
0000
0000
0000
0000
0000
0000
0230
0000
0000
0000
0302
0000
0000
0000
0000
0000
0000
0000
,
0013
0000
0000
0000
0100
0000
1000
0010
1000
0000
0000
0000
0001
0000
0000
0000
0100
0000
0000
0000
0001
0000
0000
0000
1000
0000
0000
0000
0100
0000
0000
0000
,
1000
0001
0010
0001
1000
0010
1000
0001
,
0100
0000
0010
0000
1000
0000
1000
0000
1001
0000
0000
0000
0001
0000
0100
0010
,
0100
0010
1010
0000
0101
0000
0010
0010
,
0220
0330
0001
1000
0100
1000
0001
0100
,
0001
1000
0010
1000
0001
0010
0001
1000
,
0010
0000
0100
0000
0001
0000
0001
0000
0011
0000
0000
0000
0100
0000
0010
0100
,
0010
1000
1100
0000
0011
0000
1000
1000
,
2002
3003
0020
0000
0100
0100
0100
0000
,
0000
0000
2030
0000
0001
0001
0001
0000
,
0000
0000
0000
0000
3001
0010
0001
0000
1000
0010
1000
0000
0001
0100
0001
0000
,
1000
0100
1000
0100
1000
0000
0010
0000
0000
0000
0001
0000
0100
0000
0000
0000
,
1001
0000
0001
0100
1000
0100
0001
0010
,
1000
0010
0001
0100
1000
0100
0001
0010
,
1000
0010
0001
1000
0100
0001
0100
1000
,
0010
0001
0010
1000
0100
0001
0100
1000
,
2002
3003
0010
0010
0110
0000
1000
0100
,
0010
0000
0001
0100
0001
0000
1000
0000
1010
0000
0000
0000
1000
0000
0001
0000
,
0101
0000
0100
0001
0010
1000
0010
0001
,
0101
1100
0011
1010
,
2002
3003
0001
0100
1000
0100
0001
0010
,
0001
0100
1000
0100
0001
0010
0100
0100
,
0100
1000
0010
0001
0010
1000
0100
1000
,
0010
0010
0010
0100
0001
0010
0100
1000
,
2200
3300
0010
0010
0011
0000
0001
0100
,
0010
0000
1000
0100
1000
0000
0010
0000
0110
0000
0000
0000
0100
0000
0100
0000
,
0001
0010
0001
0010
0001
0000
0010
0001
0100
0000
0010
1000
0100
0000
1000
0001
,
0010
0100
0010
0100
2000
0000
0000
0000
3020
0000
0000
0000
0032
0000
0000
0000
,
0203
0000
2300
0000
3001
0100
0010
1000
,
0001
0010
0001
0010
0100
0000
0010
0000
0001
0100
0001
0100
0010
0000
0100
0000
,
0001
1000
0001
1000
0100
0000
0010
0000
0001
0000
0010
0000
0100
0000
1000
0000
,
0010
0100
0010
0100
0002
0000
0000
0000
1003
0010
1000
0010
1000
0010
1000
0010
,
0100
0001
0010
0100
2000
0000
0000
0000
3001
0000
0100
0000
1000
0000
0001
0000
,
0010
1000
0100
0001
1000
0010
0001
0100
,
0010
0000
1000
0000
1100
0000
0000
0101
0000
0000
0011
0000
0000
1010
0000
0000
,
1000
0100
0010
0001
0100
0000
1000
0000
0100
0000
0010
0000
0001
0000
0010
0000
,
1000
2002
3003
0000
;

//---------------dance-double - ----------------
#NOTEDATA:;
#CHARTNAME:;
#STEPSTYPE:dance-double;
#DESCRIPTION:;
#CHARTSTYLE:;
#DIFFICULTY:Hard;
#METER:17;
#RADARVALUES:0.804072,1.167484,0.577090,0.382229,0.352250,751.000000,674.000000,77.000000,51.000000,0.000000,0.000000,0.000000,0.000000,0.000000,0.804072,1.167484,0.577090,0.382229,0.352250,751.000000,674.000000,77.000000,51.000000,0.000000,0.000000,0.000000,0.000000,0.000000;
#CREDIT:MILEN;
#NOTES:
00000000
00000000
00000000
00000000
,
00000000
00000000
00000000
00000000
,
00000000
00000000
00000000
00000000
,
00000000
00000000
00000000
00000000
,
00000000
00000000
00000000
00000000
,
00001000
01001000
00001000
00011000
,
00001000
00101000
00010000
00010010
,
00010000
00011000
00010000
00010100
,
00002000
00000000
00000000
00203000
00000000
00000000
00302000
00000000
00023000
00000000
00000000
00000000
00030020
00000000
00000000
00000000
,
00020030
00000000
00001000
00000000
,
01000000
00000000
00000000
00001000
00001000
00000000
00030000
00000000
,
00002000
00000000
00010000
00000000
,
00000100
00000000
00000000
00010000
00010000
00000000
00003000
00000000
,
00100000
00110000
00001000
01001000
,
00010000
00010100
00000010
00001010
,
00010000
00000000
00001000
00000000
00010000
00000000
00001000
00000000
00010000
00001000
00010000
00001000
00010000
00001000
00010000
00001000
,
00020000
00030000
00011000
00000000
00100000
00000000
00110000
00000000
,
01000000
00000000
11000000
00000000
00010000
00000000
10010000
01000000
,
01000000
01010000
00001000
00011000
,
00000100
00000100
00000100
00000010
00000001
00001000
00000100
00000010
,
00000002
00000000
00000103
00000100
00000110
00000000
00001000
00000000
,
00011000
00000000
01000000
00000000
01010000
00000000
00100000
00100000
,
10000000
01000000
10000000
01000000
10000000
00000000
00010000
00000000
01000000
00000000
00000000
00000000
01000000
00000000
00001000
00010000
,
00001000
00010000
00001000
00010000
00000010
00000000
00000000
00000000
00001010
00000000
00000000
00000000
00001100
00000000
00000000
00000000
,
00000011
00000000
00000001
00000100
00000010
00000100
00000001
00000100
,
00000010
00000000
00000100
00000000
00000001
00000000
00000100
00000000
00000010
00001000
00000010
00001000
00000010
00000000
00000000
00000000
,
00010000
00000000
00001000
00010000
00001000
00000000
00100000
00000000
00010000
00000000
00200000
00000000
01300000
00000000
20000000
00000000
,
30010000
00000000
00010000
00000000
01000000
00010000
01000000
00000000
00001000
00010000
00001000
00000000
00010000
00000100
00010000
00000100
,
00002000
00000000
00003001
00000000
00000101
00000000
00000100
00000010
,
00001000
00000100
00000010
00001000
00010000
01000000
00100000
00010000
,
01000000
00000000
00100000
10000000
00100000
00000000
00000000
00000000
01000000
00000000
00010000
00000000
00100000
00000000
00001000
00000000
,
00010000
00000100
00001100
00000000
00010010
00000000
01001000
00000000
,
00110000
00000000
00100000
01000000
10000000
10000000
00100000
00010000
,
00001000
00001000
00100000
01000000
10000000
10000000
00100000
00010000
,
00001000
00000000
00010000
00001000
00010000
00000000
00000000
00000000
00001000
00000000
00001000
00000000
00000100
00000000
00000010
00000000
,
00001000
00000000
00001000
00000000
00000100
00000000
00000000
00000000
00000110
00000000
00000000
00000000
00000010
00000001
00000010
00000001
,
00000020
00000000
00000032
00000103
00002000
00013000
00200000
00000000
,
10300000
00000000
01000000
00000000
00100000
00000000
00010000
00000000
01000000
00100000
01000000
00000000
00010000
00000000
00100000
00000000
,
01000000
00000000
00010000
00001000
00010000
00000000
00001000
00000000
00000100
00000000
00000001
00000000
00000010
00000000
00000100
00000000
,
00001000
00000001
00000101
00000000
00000010
00000000
00001010
00010000
,
00011000
00000000
00022000
00033000
00010000
01000000
00000000
00010000
,
00001000
00000000
00010000
01000000
00000000
00010000
00001000
00010000
,
00011000
00000000
00001000
00010000
00001000
00000000
00000000
00000000
00000100
00000000
00001000
00000000
00000000
00000000
00010000
00000000
,
00001000
00000000
00000000
00000000
00100000
00010000
00100000
00000000
00001000
00010000
00001000
00000000
00000100
00000000
00000001
00000000
,
00001001
00000000
00000110
00000000
00000001
00000010
00000000
00000100
,
00001000
00000000
00010000
01000000
00000000
00100000
10000000
00010000
,
10010000
00000000
10000000
00010000
10000000
00000000
00000000
00000000
01000000
00000000
00010000
00000000
00000000
00000000
00001000
00000000
,
00000010
00000000
00000001
00000100
00001000
00010000
00100000
10000000
,
01000000
00000000
00010000
00001000
00020000
00000000
00000000
00000000
00000000
00000000
00000000
00000000
00000000
00000000
00000000
00000000
,
00000000
00000000
00000000
00000000
,
00000000
00000000
00030010
00000010
00001000
00001000
00010000
00010000
,
00100000
00000000
01000000
00000000
00100000
00000000
00000000
00000000
10000000
00000000
00000000
00100000
00000000
00000000
00010000
00000000
00000000
00100000
00000000
00000000
00001000
00010000
00001000
00010000
00001000
00000000
00000100
00000000
00000000
00000000
00000001
00000000
,
00001000
00001001
00000002
00000000
00000000
00000000
00000203
00000000
,
00000000
00000320
00000000
00002030
,
00013000
01000000
00100000
10000000
01000000
00100000
00001000
00011000
,
00011000
00000000
00000000
00000000
00010000
00000000
00000000
00000000
00000100
00000000
00000000
00000000
00000010
00000000
00000000
00000000
00000011
00000000
00000000
00000001
00000000
00000000
00001000
00000000
00000010
00000000
00000100
00000000
00000010
00000000
00000000
00000000
,
00001010
00001000
00000100
00010000
00011000
00001000
00100000
00010000
,
01010000
00000000
01000000
00000000
00001000
00000000
00010000
00000000
00011000
00000000
00001000
00000000
00000100
00000010
00000100
00000000
,
00000101
00000001
00000011
00000010
00001010
00001000
00011000
00010000
,
01000000
00000000
10000000
00000000
00100000
00000000
01000000
00000000
00010000
00000000
00100000
00000000
00001000
00010000
00001000
00010000
00002000
00000000
00000000
00000000
00000000
00000000
00000000
00000000
00103000
00000000
00010000
00000000
01000000
00000000
00100000
00000000
,
10000000
00000000
01000000
00010000
00001000
00000000
00010000
00001000
00000100
00000000
00000101
00000000
00000001
00000001
00000001
00000000
,
00000010
00000000
00000010
00000000
00000010
00000000
00000100
00001000
00000100
00000000
00000000
00000000
00010100
00000000
00000000
00000000
00011000
00000000
00000000
00000000
01001000
00000000
00000000
00000000
00011000
00000000
00000000
00000000
00010000
00000000
00000000
00000000
,
00100000
10000000
01000000
10000000
00100000
00000000
00010000
00001000
00000100
00001000
00010000
00000000
00011000
00000000
00001100
00000000
,
00000100
00000000
00000001
00000000
00000010
00000100
00000010
00000100
00000020
00000000
00000000
00000000
00002030
00000000
00000000
00000000
00000000
00000000
00000000
00000000
00023000
00000000
00000000
00000000
02030000
00000000
00000000
00000000
00000000
00000000
00000000
00000000
,
13000000
00000000
00000000
00000000
00100000
00000000
00010000
00001000
00010000
00000000
00000000
00000000
00001000
00000000
00000000
00000000
00000100
00000000
00000000
00000000
00000000
00000000
00000000
00000000
00001000
00000000
00000000
00000000
00000100
00000000
00000000
00000000
,
00000010
00000000
00000100
00000010
00000001
00000000
00000010
00000100
,
00001000
00000000
00000000
00000000
00000100
00000000
00001000
00000000
00011000
00000000
00000000
00000000
00010000
00000000
00001000
00010000
,
00001000
00100000
00110000
00000000
11000000
00000000
10000000
01000000
,
00020000
00000000
00031000
00010000
00100000
00000000
00010000
00100000
,
01000000
00000000
00100000
01000000
10000000
00000000
01000000
00100000
,
00010000
00000000
00000000
00000000
00100000
00000000
00010000
00000000
00011000
00000000
00000000
00000000
00001000
00000000
00010000
00001000
,
00010000
00001000
00000010
00000000
00000011
00000000
00000100
00001000
,
00022000
00033000
02000000
00000000
03001000
00020000
00000020
00000000
,
00030030
00000000
00000200
00000000
00010300
00002000
00200000
00000000
,
00303000
00000000
00000000
00000000
01000000
00010000
01000000
00000000
00001000
00010000
00001000
00000000
00010000
00001000
00010000
00000000
,
00000100
00001000
00000100
00001000
00000001
00000000
00000010
00000000
00000000
00000000
00000100
00000000
00001000
00000000
00000000
00000000
,
00011000
00000000
00010000
00001000
00000100
00000001
00000100
00001000
,
00010000
00001000
00000010
00000001
00000010
00001000
00010000
00001000
,
00000100
00000001
00000100
00001000
00010000
00001000
00000010
00000001
,
00000010
00001000
00010000
01000000
10000000
00100000
00010000
00001000
,
00022000
00033000
00010000
01000000
11000000
00000000
10000000
00100000
,
00010000
00000000
00001000
00010000
00001000
00000000
00000100
00000000
00000001
00000000
00000000
00000000
00000010
00000000
00000100
00000000
,
00000110
00000000
00000001
00000100
00001000
00010000
00100000
10000000
,
01000000
01100000
00110000
11000000
,
20020000
30030000
10000000
01000000
00010000
00001000
00010000
01000000
,
10000000
00100000
00010000
00001000
00010000
00100000
10000000
10000000
,
10000000
01000000
00010000
00001000
00010000
01000000
10000000
00100000
,
00010000
00010000
00010000
00001000
00000100
00000001
00000010
00000100
,
00000220
00000330
00000001
00000001
00001001
00000000
00001000
00000010
,
00010000
00000000
00001000
00010000
00001000
00000000
01000000
00000000
00100000
00000000
00000000
00000000
01000000
00000000
01000000
00000000
,
00100000
10000000
00100000
10000000
01000000
00000000
00100000
00010000
00100000
00000000
00001000
00010000
00001000
00000000
00010000
00000100
,
00001000
00000100
00001000
00000100
00000020
00000000
00000000
00000000
00000032
00000000
00000000
00000000
00000203
00000000
00000000
00000000
,
00002300
00000000
00013000
00000000
00011000
00001000
00100000
00010000
,
01000000
00100000
01000000
00000000
00010000
00000000
10000000
00000000
01000000
00100000
01000000
00000000
10000000
00000000
00100000
00000000
,
00010000
00001000
00010000
00000000
00001000
00000000
00000100
00000000
00000001
00000000
00000010
00000000
00000100
00000000
00001000
00000000
,
00000010
00000100
00000010
00000100
00000020
00000000
00000000
00000000
00010030
00001000
00010000
00001000
00010000
00001000
00010000
00001000
,
00010000
01000000
20000000
00000000
30010000
01000000
00100000
00010000
,
00000010
00001000
00000100
00010000
01000000
00100000
00010000
00001000
,
00000100
00000000
00000010
00000000
00000011
00000000
00000000
00000101
00000000
00000000
00001100
00000000
00000000
00011000
00000000
00000000
,
00010000
00001000
00100000
00010000
00100000
00000000
01000000
00000000
10000000
00000000
00100000
00000000
00010000
00000000
00001000
00000000
,
00000010
00002002
00003003
00000000
;

//---------------dance-double - ----------------
#NOTEDATA:;
#CHARTNAME:;
#STEPSTYPE:dance-double;
#DESCRIPTION:;
#CHARTSTYLE:;
#DIFFICULTY:Easy;
#METER:9;
#RADARVALUES:0.310494,0.525939,0.119915,0.127410,0.000000,290.000000,274.000000,16.000000,17.000000,0.000000,0.000000,0.000000,0.000000,0.000000,0.310494,0.525939,0.119915,0.127410,0.000000,290.000000,274.000000,16.000000,17.000000,0.000000,0.000000,0.000000,0.000000,0.000000;
#CREDIT:MILEN;
#NOTES:
00000000
00000000
00000000
00000000
,
00000000
00000000
00000000
00000000
,
00000000
00000000
00000000
00000000
,
00000000
00000000
00000000
00000000
,
00000000
00000000
00000000
00000000
,
00001000
00000000
00001000
00000000
,
00010000
00000000
00010000
00000000
,
00001000
00000000
00010000
00000000
,
00022000
00000000
00033000
00000000
,
00001000
00000000
01000000
00000000
,
00001000
00000000
00010000
00000000
,
00000010
00000000
00010000
00000000
,
00001000
00000000
00100000
00000000
,
00001000
00000000
00010000
00000000
,
00000100
00000000
00010000
00000000
,
00001000
00000000
00010000
00000000
,
00011000
00001000
00010000
00000100
,
00000000
00001000
00000000
00000100
,
00000000
00010000
00001000
01000000
,
00000000
00001000
00000000
01000000
,
00000000
00001000
00010000
00000010
,
00000000
00010000
00000000
00000010
,
00000000
00010000
00001000
00100000
,
00000000
00001000
00000000
00100000
,
00000000
00010000
00100000
01000000
,
00000000
00100000
00000000
01000000
,
00000000
00001000
00000100
00000010
,
00000000
00000100
00000000
00000010
,
00000000
00001000
00010000
01000000
,
00000000
00100000
00000000
01000000
,
00000000
00010000
00001000
00000010
,
00000000
00000100
00000000
00000010
,
00000000
00000110
00000001
00001000
,
00000000
00000100
00000000
00010000
,
00000000
00001000
00000000
00100000
,
00000000
00010000
00000000
10000000
,
00000000
01100000
10000000
00010000
,
00000000
01000000
00000000
00001000
,
00000000
00010000
00000000
00000010
,
00000000
00001000
00000000
00000001
,
00000000
00000000
00000110
00000000
00000000
00000100
00000000
00000000
,
00000100
00000000
00000000
00000100
00000000
00000000
00000100
00000000
,
00001000
00000000
00010000
00000000
00000000
00001000
00000000
00000000
,
00010000
00000000
00000000
00001000
00000000
00000000
00010000
00000000
,
01000000
00000000
01100000
00000000
00000000
00100000
00000000
00000000
,
00100000
00000000
00000000
00100000
00000000
00000000
00100000
00000000
,
00001000
00000000
00010000
00000000
00000000
00001000
00000000
00000000
,
00010000
00000000
00000000
00001000
00000000
00000000
00010000
00000000
,
00000100
00000220
00000000
00000000
,
00000000
00000000
00000000
00000000
,
00000330
00000001
00000100
00001000
,
00010000
00022000
00000000
00033000
,
00000000
02000000
03000000
00002000
,
00003000
00020000
00030000
00000020
,
00000130
00000100
00000001
00000010
,
00001000
00010000
00002000
00003000
,
00011000
00010000
01000000
10000000
,
00100000
01000000
00100000
00010000
,
00001000
00001000
00001000
00000000
00010000
00010000
00010000
00000000
,
00001000
00010000
00001000
00010000
00011000
00000000
00100000
00000000
,
00010000
00000000
01000000
01000000
01000000
00000000
00010000
00000000
,
00100000
00000000
00001000
00001000
00001000
00000000
00010000
00000000
,
00000100
00000000
00000010
00000010
00000010
00000000
00000001
00000000
,
00000100
00000000
00001000
00001000
00002000
00000000
00000000
00000000
,
00013000
00010000
00010000
00000000
00000000
00000000
00000100
00000000
,
00000000
00010000
00000000
00001000
,
00000000
01000000
00000000
00001000
,
00000000
00010000
00001000
00010000
,
00011000
00001000
00000000
00100000
,
00000000
00001000
00000000
00010000
,
00000000
00000010
00000000
00010000
,
00000000
00001000
00010000
00001000
,
00011000
00020000
00000000
00000100
,
00030000
00002000
00000000
00100000
,
00003000
00010000
00001000
00010000
,
00001000
00022000
00000000
00000000
,
00033000
00010000
00001000
00000100
,
00000000
00000100
00000001
00000010
,
00000000
00000010
00000100
00001000
,
00000000
00001000
00000100
00010000
,
00000000
00010000
00001000
00100000
,
00000000
00100000
01000000
10000000
,
00000000
10000000
00100000
00010000
,
00000000
00010000
00001000
00010000
,
00011000
00001000
00100000
00010000
,
01000000
00001000
00100000
00010000
,
00000000
00010000
00000100
00001000
,
00000010
00010000
00000100
00001000
,
00000000
00001000
01000000
00010000
,
00100000
00001000
01000000
00010000
,
00000000
00010000
00000010
00001000
,
00000100
00010000
00000010
00001000
,
00001001
00000000
00000001
00000100
,
00001000
00010000
00100000
10000000
,
01000000
00100000
01000000
10000000
,
00100000
00010000
00001000
00000100
,
00000001
00000010
00000100
00000010
,
00000001
00001000
00000100
00000010
,
00001000
00020000
00000000
00000000
,
00030000
01000000
10000000
00100000
,
00010000
00011000
00000000
00000000
;

//---------------dance-double - ----------------
#NOTEDATA:;
#CHARTNAME:;
#STEPSTYPE:dance-double;
#DESCRIPTION:;
#CHARTSTYLE:;
#DIFFICULTY:Medium;
#METER:14;
#RADARVALUES:0.629553,0.903858,0.457175,0.269808,0.071199,588.000000,527.000000,61.000000,36.000000,0.000000,0.000000,0.000000,0.000000,0.000000,0.629553,0.903858,0.457175,0.269808,0.071199,588.000000,527.000000,61.000000,36.000000,0.000000,0.000000,0.000000,0.000000,0.000000;
#CREDIT:MILEN;
#NOTES:
// measure 0
00000000
00000000
00000000
00000000
,  // measure 1
00000000
00000000
00000000
00000000
,  // measure 2
00000000
00000000
00000000
00000000
,  // measure 3
00000000
00000000
00000000
00000000
,  // measure 4
00000000
00000000
00000000
00000000
,  // measure 5
00001000
00101000
00000000
00011000
,  // measure 6
00000000
00010010
00000000
00011000
,  // measure 7
00000000
01001000
00000000
00011000
,  // measure 8
00020200
00000000
00000000
00030300
,  // measure 9
00000100
00001000
00000002
00000003
,  // measure 10
00000100
00000001
00002000
00003000
,  // measure 11
00000010
00010000
00002000
00003000
,  // measure 12
00010000
00001000
00200000
00300000
,  // measure 13
00010000
01000000
00100000
10000000
,  // measure 14
01000000
00100000
00010000
01000000
,  // measure 15
00001000
00010000
00001000
00010000
00001000
00010000
00001000
00010000
,  // measure 16
00011000
00001000
01001000
00001000
,  // measure 17
00011000
00000000
00001000
00000000
00101000
00000000
00001000
00010000
,  // measure 18
00001000
00010000
00011000
00001000
,  // measure 19
00010000
00001000
00010000
00000000
00011000
00000000
00001000
00010000
,  // measure 20
00000010
00000000
00001000
00000010
00000100
00000000
00000101
00000000
,  // measure 21
00000100
00000000
00001100
00000000
00000100
00000000
00000001
00000010
,  // measure 22
00000100
00001000
00000100
00000000
00010100
00000000
00010000
00001000
,  // measure 23
00010000
00100000
01000000
00000000
01100000
00000000
10100000
00000000
,  // measure 24
01010000
00000000
00010000
00100000
01000000
00000000
00100000
01000000
,  // measure 25
10000000
00000000
01000000
00100000
00010000
00000000
00100000
00001000
,  // measure 26
00010000
00000000
00001000
00010000
00000100
00000000
00001000
00000100
,  // measure 27
00000010
00000000
00000100
00000010
00000001
00001000
00000100
00000000
,  // measure 28
00000110
00000000
00000010
00000001
00000100
00000000
00000100
00001000
,  // measure 29
00010000
00000000
00001000
00010000
00100000
00000000
00100000
10000000
,  // measure 30
01000000
00000000
01000000
00010000
00001000
00000000
00010000
00001000
,  // measure 31
00000010
00000011
00001100
00001010
,  // measure 32
00000101
00000000
00000001
00001000
00000010
00000000
00000010
00010000
,  // measure 33
00001000
00000000
01000000
00001000
00010000
00000000
00010000
00100000
,  // measure 34
10000000
00000000
10000000
01000000
00100000
00000000
01000000
00100000
,  // measure 35
00010000
00000000
00110000
00000000
01001000
00000000
00001000
00010000
,  // measure 36
00001000
00010000
00000100
00001000
00000100
00000000
00000010
00000001
,  // measure 37
00000010
00000000
00001000
00010000
00001000
00000000
00100000
00010000
,  // measure 38
00100000
00000000
01000000
10000000
01000000
10000000
00100000
00010000
,  // measure 39
00100000
00010000
00001000
00000000
00101000
00000000
00011000
00000000
,  // measure 40
00010010
00000000
00011000
00000000
00001000
00010000
00000000
00010000
,  // measure 41
01000000
00000000
01000000
10000000
00000000
10000000
00100000
00010000
,  // measure 42
00001000
00000000
00011000
00000000
00010000
00001000
00000000
00001000
,  // measure 43
00000100
00000000
00000100
00000001
00000000
00000001
00000010
00001000
,  // measure 44
00010000
00000000
00011000
00000000
00001000
00000010
00000000
00000010
,  // measure 45
00000001
00000000
00000001
00000100
00000000
00000100
00001000
00010000
,  // measure 46
00001000
00000000
00011000
00000000
00010000
00100000
00000000
00100000
,  // measure 47
10000000
00000000
10000000
01000000
00000000
01000000
00010000
00001000
,  // measure 48
00010000
00001000
00022000
00000000
00000000
00000000
00000000
00000000
,  // measure 49
00000000
00000000
00000000
00000000
,  // measure 50
00033000
00000000
00010000
00010000
00000100
00000100
00000010
00000010
,  // measure 51
00000001
00000000
00000000
00000000
00000001
00000000
00000000
00000000
00000100
00000000
00000000
00001000
00000000
00000000
00010000
00000000
00000000
00100000
00000000
00000000
10000000
00000000
00010000
00000000
20000000
00000000
00000000
00000000
00000000
00000000
00000000
00000000
,  // measure 52
00000000
32000000
00000000
03200000
,  // measure 53
00000000
00302000
00000000
00023000
,  // measure 54
00030100
00000100
00001001
00000001
00000100
00001000
00010000
00001000
,  // measure 55
00010000
00000000
00000000
00000000
00100000
00000000
00000000
00000000
10000000
00000000
00000000
00000000
00010000
00000000
00000000
00000000
01000000
00000000
00000000
01000000
00000000
00000000
01000000
00000000
00000000
00000000
00000000
00000000
01100000
00000000
00000000
00000000
,  // measure 56
20000000
00000000
30200000
00000000
,  // measure 57
02300000
00000000
03020000
00000000
,  // measure 58
00032000
00003200
00000320
00000032
,  // measure 59
00001003
00000000
00000010
00000000
00010000
00001000
00010000
00000000
00011000
00000000
00000000
00000000
00011000
00000000
00001000
00000000
,  // measure 60
00010000
00000000
01000000
10000000
01000000
00000000
00100000
00010000
00100000
00000000
00001000
00000000
00010000
00001000
00010000
00000000
,  // measure 61
00000100
00001000
00000100
00000000
00000010
00000000
00000001
00000000
00000100
00000000
00000010
00000100
00000110
00000000
00001000
00000000
,  // measure 62
00000001
00000000
00000100
00001000
00000100
00000000
00001000
00000000
00010000
00001000
00010000
00000000
00001000
00000000
00011000
00000000
,  // measure 63
00010000
00100000
01000000
00100000
20000000
00000000
00000000
00000000
00000000
00000000
00000000
00000000
30020000
00000000
00000000
00000000
,  // measure 64
01030000
00001000
00010000
00000000
00011000
00000000
00001000
00000000
00100000
00000000
00010000
00000000
01000000
00000000
00001000
00000000
,  // measure 65
00100000
00010000
01000000
00001000
00100000
00010000
01000000
00000000
,  // measure 66
01001000
00000000
00001000
00001000
00001000
00000000
00010000
00010000
,  // measure 67
00010000
00001000
00000100
00000000
00000101
00000000
00001010
00001000
,  // measure 68
00000100
00000000
00010000
00001000
00000100
00000010
00010000
00001000
,  // measure 69
00000100
00000010
00010000
00001000
00000100
00000010
00010000
00001000
,  // measure 70
00000100
00000000
00000001
00000010
00000110
00000000
00001000
00000100
,  // measure 71
00000010
00000001
00000100
00000000
00001100
00000000
00001000
00001000
,  // measure 72
00002000
00000000
00013000
00100000
10000000
00000000
02000000
00000000
,  // measure 73
03000000
00000000
00010000
00001000
00000010
00000000
00000002
00000000
,  // measure 74
00000003
00000000
00000100
00001000
00010000
00001000
00010000
01000000
,  // measure 75
00010000
00022000
00000000
00000000
,  // measure 76
00033000
00000000
00001000
00100000
00010000
01000000
00000000
00100000
,  // measure 77
00000000
10000000
01000000
00100000
00010000
01000000
00000000
00001000
,  // measure 78
00000000
00010000
00001000
00000100
00000010
00001000
00000000
00000100
,  // measure 79
00000000
00000010
00000001
00001000
00000100
00000010
00000000
00000100
,  // measure 80
00001100
00000000
00000001
00000100
00000010
00000000
00001000
00000100
,  // measure 81
00010000
00000000
00001000
00100000
00010000
00000000
00100000
01000000
,  // measure 82
10000000
00000000
00100000
01000000
00010000
01000000
00100000
10000000
,  // measure 83
00100000
01000000
01010000
00000000
00011000
00000000
00001100
00000000
,  // measure 84
00001001
00000000
00000001
00000010
00000100
00001000
00000000
00000100
,  // measure 85
00000000
00010000
00001000
00000010
00001000
00010000
00000000
01000000
,  // measure 86
00000000
10000000
00100000
01000000
10000000
01000000
00000000
00010000
,  // measure 87
00000000
00100000
01000000
00010000
00001000
00000010
00000000
00000100
,  // measure 88
00000110
00000000
00000001
00000100
00001000
00000000
00010000
00100000
,  // measure 89
10000000
00000000
10000000
01000000
00010000
00000000
00001000
00000010
,  // measure 90
00000001
00000000
00000001
00000100
00000010
00001000
00000010
00000100
,  // measure 91
00000001
00000010
00000110
00000000
00011000
00000000
01100000
00000000
,  // measure 92
20020000
00000000
30030000
00000000
10000000
00100000
00010000
00100000
,  // measure 93
10000000
01000000
00100000
01000000
10000000
01000000
00010000
00001000
,  // measure 94
00000010
00000001
00000010
00000100
00000010
00000001
00000100
00001000
,  // measure 95
00000100
00000001
00000020
00000000
00000230
00000000
00020300
00000000
,  // measure 96
00032000
00000000
00103000
00010000
10000000
00100000
01000000
00001000
,  // measure 97
00010000
00000000
00000100
00001000
00000001
00000100
00000010
00010000
,  // measure 98
00001000
00000000
00000000
00000000
00011000
00000000
00000000
00010000
00000000
00000000
00010010
00000000
00000000
00001000
00000000
00000000
,  // measure 99
01001000
01000000
00100000
00010000
00001000
00000100
00000010
00010000
,  // measure 100
00001000
00022000
00033000
00000000
;
