#VERSION:0.83;
#TITLE:Blood, Sweat, and Tears;
#SUBTITLE:;
#ARTIST:BTS;
#TITLETRANSLIT:;
#SUBTITLETRANSLIT:;
#ARTISTTRANSLIT:;
#GENRE:K-POP;
#ORIGIN:;
#CREDIT:MUINELIM;
#BANNER:Blood Sweat and Tears.png;
#BACKGROUND:Blood Sweat and Tears-bg.png;
#PREVIEWVID:;
#JACKET:Blood Sweat and Tears-jacket.png;
#CDIMAGE:;
#DISCIMAGE:;
#LYRICSPATH:;
#CDTITLE:;
#MUSIC:Blood Sweat and Tears.ogg;
#OFFSET:-0.121000;
#SAMPLESTART:75.451591;
#SAMPLELENGTH:15.483871;
#SELECTABLE:YES;
#DISPLAYBPM:93.000000;
#BPMS:0.000=93.000;
#STOPS:;
#DELAYS:;
#WARPS:;
#TIMESIGNATURES:0.000=4=4;
#TICKCOUNTS:0.000=4;
#COMBOS:0.000=1;
#SPEEDS:0.000=1.000=0.000=0;
#SCROLLS:0.000=1.000;
#FAKES:;
#LABELS:0.000=Song Start;
#BGCHANGES:0.000=Blood Sweat and Tears.avi=1.000=1=0=0=StretchNoLoop==CrossFade==,
99999=-nosongbg-=1.000=0=0=0 // don't automatically add -songbackground-
;
#KEYSOUNDS:;
#ATTACKS:
;

//---------------dance-single - ----------------
#NOTEDATA:;
#CHARTNAME:;
#STEPSTYPE:dance-single;
#DESCRIPTION:;
#CHARTSTYLE:;
#DIFFICULTY:Beginner;
#METER:3;
#RADARVALUES:0.092849,0.133739,0.007142,0.000000,0.000000,91.000000,90.000000,1.000000,0.000000,0.000000,0.000000,0.000000,0.000000,0.000000,0.092849,0.133739,0.007142,0.000000,0.000000,91.000000,90.000000,1.000000,0.000000,0.000000,0.000000,0.000000,0.000000,0.000000;
#CREDIT:MUINELIM;
#DISPLAYBPM:93.000000;
#NOTES:
// measure 0
0000
0000
0000
0000
,  // measure 1
0000
0000
0000
0000
,  // measure 2
0000
0000
0000
0000
,  // measure 3
0000
0000
0000
0000
,  // measure 4
0000
0000
0000
0000
,  // measure 5
0000
0000
1000
0000
,  // measure 6
0001
0000
1000
0000
,  // measure 7
0001
0000
1000
1000
,  // measure 8
1000
0000
0001
0001
,  // measure 9
0001
0000
1000
0000
,  // measure 10
0010
0000
1000
0000
,  // measure 11
0010
0000
0100
0000
,  // measure 12
0001
0000
0100
0000
,  // measure 13
0001
0000
0010
0000
,  // measure 14
0000
0000
0100
0000
,  // measure 15
0000
0000
1000
0000
,  // measure 16
0000
0000
0001
0000
,  // measure 17
0000
0000
1000
0000
,  // measure 18
1000
0000
0100
0000
,  // measure 19
0100
0000
0010
0000
,  // measure 20
0010
0000
0001
0000
,  // measure 21
0001
0000
0100
0000
,  // measure 22
0010
0000
1000
0000
,  // measure 23
0001
0000
0010
0000
,  // measure 24
0100
0000
1000
1000
,  // measure 25
1000
0000
0001
0000
,  // measure 26
0000
0000
0100
0000
,  // measure 27
0000
0000
1000
0000
,  // measure 28
0000
0000
0010
0000
,  // measure 29
0000
0000
0001
0000
,  // measure 30
0001
0000
1000
0000
,  // measure 31
1000
0000
0001
0001
,  // measure 32
0001
0000
1000
1000
,  // measure 33
1000
0000
0001
0000
,  // measure 34
0000
0000
0010
0000
,  // measure 35
0000
0000
1000
0000
,  // measure 36
0000
0000
0100
0000
,  // measure 37
0000
0000
0001
0000
,  // measure 38
0001
0000
0010
0000
,  // measure 39
0010
0000
1000
0000
,  // measure 40
1000
0000
0100
0000
,  // measure 41
0100
0000
0001
0000
,  // measure 42
1000
0000
0001
0000
,  // measure 43
0000
0000
0100
0000
,  // measure 44
0010
0000
0100
0000
,  // measure 45
0000
0000
0001
0000
,  // measure 46
1000
0000
0001
0000
,  // measure 47
1000
0000
0010
0010
,  // measure 48
0010
0000
0100
0100
,  // measure 49
0100
0000
0001
0000
,  // measure 50
0001
0000
0010
0000
,  // measure 51
0010
0000
1000
0000
,  // measure 52
1000
0000
0100
0000
,  // measure 53
0100
0000
1001
0000
;

//---------------dance-single - ----------------
#NOTEDATA:;
#CHARTNAME:;
#STEPSTYPE:dance-single;
#DESCRIPTION:;
#CHARTSTYLE:;
#DIFFICULTY:Easy;
#METER:5;
#RADARVALUES:0.156109,0.191055,0.035711,0.021427,0.000000,153.000000,148.000000,5.000000,3.000000,0.000000,0.000000,0.000000,0.000000,0.000000,0.156109,0.191055,0.035711,0.021427,0.000000,153.000000,148.000000,5.000000,3.000000,0.000000,0.000000,0.000000,0.000000,0.000000;
#CREDIT:MUINELIM;
#DISPLAYBPM:93.000000;
#NOTES:
0000
0000
0000
0000
,
0000
0000
0000
0000
,
0000
0000
0000
0000
,
0000
0000
0000
0000
,
0000
0000
0000
0000
,
0000
0000
1000
1000
,
1000
0000
0001
0001
,
0001
0000
1000
1000
,
0001
0001
1000
0001
,
1001
0000
0010
0100
,
0010
0100
0001
1000
,
0001
1000
0010
0100
,
0001
1000
0010
0010
,
0010
0010
0100
0000
,
0010
0000
1000
0000
,
0100
0000
0010
0000
,
0001
0000
1000
0000
,
1001
0000
0010
0100
,
0010
0000
0100
0010
,
0100
0000
0010
1000
,
0001
0000
0100
0001
,
1000
0000
0100
1000
,
0100
0100
0010
0001
,
0010
0000
0010
0001
,
0100
0010
1000
0100
,
0020
0030
1001
0000
,
0000
0000
0001
0000
,
0100
0000
1000
0000
,
0010
0000
0001
0000
,
1000
0000
0010
0100
,
0001
0000
0100
0010
,
1000
0000
0010
0100
,
0001
0000
1000
0000
0010
0000
0100
0100
,
0100
0000
0001
0010
,
0001
0010
0100
1000
,
0100
1000
0010
1000
,
0010
1000
0001
0100
,
0001
0100
0001
0010
,
0100
1000
0001
0100
,
0010
1000
0100
0010
,
0001
1000
0010
0010
,
0010
0010
0200
0000
,
0000
0000
0300
0000
,
0000
0000
0200
0000
,
0000
0000
0300
0000
,
0000
0000
0001
1000
,
0100
0000
1000
0001
,
0010
0000
0001
1000
,
0001
0100
0010
0100
,
0110
0000
0001
0100
,
1000
0100
0001
0100
,
1000
0100
0001
0010
,
1000
0010
0001
0010
,
1000
0010
1001
0000
;

//---------------dance-single - ----------------
#NOTEDATA:;
#CHARTNAME:;
#STEPSTYPE:dance-single;
#DESCRIPTION:;
#CHARTSTYLE:;
#DIFFICULTY:Medium;
#METER:9;
#RADARVALUES:0.271405,0.305688,0.164272,0.078565,0.003571,266.000000,243.000000,23.000000,11.000000,0.000000,0.000000,0.000000,0.000000,0.000000,0.271405,0.305688,0.164272,0.078565,0.003571,266.000000,243.000000,23.000000,11.000000,0.000000,0.000000,0.000000,0.000000,0.000000;
#CREDIT:MUINELIM;
#DISPLAYBPM:93.000000;
#NOTES:
0000
0000
0000
0000
,
0000
0000
0000
0000
,
0000
0000
0000
0000
,
0000
0000
0000
0000
,
0000
0000
0000
0000
,
0000
0000
1000
0010
,
1000
0001
0100
0001
,
0010
0100
1000
1010
,
0001
0000
0101
0000
0100
0010
0100
0010
,
0100
0000
0001
1000
1001
0000
0001
0000
,
0100
0010
0100
0000
0010
0000
1000
0000
,
0100
0010
0100
0000
0010
0000
0001
0000
,
0100
0010
0100
0000
0010
1000
0010
1000
,
0001
0100
0001
0000
0010
0000
0110
0000
,
1000
1100
0001
0011
,
1000
0000
1001
0000
0100
0010
0100
0100
,
0100
0000
0000
0000
0001
1000
0001
0001
,
0001
0000
1000
0010
1000
0000
0001
0010
,
0001
0000
1000
0100
1000
0000
0001
0100
,
0001
0000
1000
0010
1000
0010
0100
0001
,
0100
0000
0001
0010
0001
0010
0100
1000
,
0100
0000
0110
0000
0010
0001
0100
0000
,
0010
1000
0100
0000
0010
0001
1000
0100
,
0000
0000
0110
0000
0010
0100
1000
0000
,
0001
0010
0100
0000
1000
0010
0000
0100
,
0001
0000
0100
0010
0200
0000
0000
0000
,
0300
0000
0001
1000
0002
0000
0000
0000
,
0003
0000
0100
0010
0100
0000
0010
0000
,
1000
1100
0100
0010
,
0011
0000
0001
0100
0010
0000
1010
0000
,
1000
1100
0010
0011
,
0001
0101
1000
1001
,
0001
0000
0110
0000
0100
1000
0100
0010
,
0002
0000
0103
0100
0110
0000
0010
0000
,
1000
0000
0100
1000
0001
0000
0100
0000
,
0001
0000
0010
0001
1000
0000
0100
0000
,
0010
0000
0001
0100
0010
1000
0010
0100
,
0001
0100
0010
0010
0010
0000
1000
0000
,
0100
0000
0010
0001
1000
0000
0001
0000
,
0010
0000
0100
1000
0001
0000
0100
0000
,
0010
0000
1000
0001
0010
0001
1000
0100
,
1000
0001
0100
0010
2000
0000
0000
0000
,
3000
0100
0002
0000
,
0003
0010
2000
0000
,
3000
0000
0000
0000
0100
0000
0000
0020
0000
0000
0000
0000
0000
0000
0000
0000
,
0030
0000
0001
1000
0001
0000
0100
0000
,
0110
0000
1000
0001
1000
0000
0010
0000
,
0110
0000
0001
0010
0100
0000
1000
0100
,
0010
0000
0001
0100
0010
1000
0001
0100
,
0010
0000
0220
0330
1000
0000
0100
0000
,
0001
0100
1000
0000
0001
0000
0010
0000
,
1000
0010
0001
0000
0100
0000
0010
0000
,
1000
0001
1001
0000
1000
0010
0100
0001
,
0010
0100
1000
2002
3003
0000
0000
0000
;

//---------------dance-single - ----------------
#NOTEDATA:;
#CHARTNAME:;
#STEPSTYPE:dance-single;
#DESCRIPTION:;
#CHARTSTYLE:;
#DIFFICULTY:Hard;
#METER:12;
#RADARVALUES:0.443840,0.479870,0.199983,0.128560,0.414250,435.000000,407.000000,28.000000,18.000000,0.000000,0.000000,0.000000,0.000000,0.000000,0.443840,0.479870,0.199983,0.128560,0.414250,435.000000,407.000000,28.000000,18.000000,0.000000,0.000000,0.000000,0.000000,0.000000;
#CREDIT:MUINELIM;
#DISPLAYBPM:93.000000;
#NOTES:
0000
0000
0000
0000
,
0000
0000
0000
0000
,
0000
0000
0000
0000
,
0000
0000
0000
0000
,
0000
0000
0000
0000
,
0000
0000
1000
0100
,
0001
0010
1000
0100
,
0001
0010
2010
3001
,
0102
0000
0000
0000
1003
0000
0000
0000
1000
0010
1000
0000
0001
0100
0001
0000
,
1001
0000
0000
0100
0010
0000
0100
0000
0001
0000
0010
0000
0001
0000
0010
0000
,
0001
0000
0100
0001
0000
0100
0001
0000
1000
0000
0010
1000
0100
0000
1000
0000
,
0010
0000
0100
0001
0000
0010
0001
0000
1000
0000
0010
0000
1000
0000
0010
0000
,
1000
0000
0100
1000
0000
0100
1000
0000
0001
0000
0100
0000
0010
0000
1000
0000
,
0100
0010
0001
1000
1001
0000
0110
0000
,
0010
0000
0100
0010
0000
0000
0000
0010
0100
0000
0000
0000
1001
0000
0000
0000
,
1000
0000
0010
0100
0000
0000
0010
1000
0010
0000
0100
0001
0100
0000
0001
0010
,
0001
0000
0000
0000
0000
0000
0000
0000
0000
0000
0000
0000
0000
0000
0000
0000
0000
0000
1000
0000
0000
0001
0000
0000
1000
0000
0000
0000
0000
0000
0010
0000
0000
0100
0000
0000
0010
0000
0000
0000
1000
0000
0000
0000
0100
0000
0000
0000
,
0010
0000
0000
0000
0000
0000
0000
0000
0000
0000
0000
0000
0010
0000
0000
0000
0001
0000
0000
0000
0100
0000
0000
0000
0110
0000
0000
0000
0000
0000
0000
0000
0000
0000
0000
0000
0010
0000
0000
1000
0000
0000
0100
0000
0000
0000
0000
0000
,
1100
0000
0000
0000
1000
0000
0010
0100
0001
0000
0010
0000
0001
0000
0100
0010
,
1000
0000
0000
0000
1001
0000
0001
0010
0100
0000
0010
0100
1000
0000
0010
0100
,
0001
0000
0000
0000
0000
0000
0000
0000
0000
0000
0000
0000
0101
0000
0000
0000
0000
0000
0100
0000
0000
0010
0000
0000
1000
0000
0000
0000
0000
0000
0100
0000
0000
0010
0000
0000
0001
0000
0000
0000
0100
0000
0000
0000
0010
0000
0000
0000
,
1000
0000
0000
0000
1100
0000
0011
0000
0001
0100
0010
0100
0000
0010
1000
0000
,
0100
0000
1000
0100
0000
0010
0100
0000
0010
0001
1000
0000
0100
1000
0001
0000
,
0101
0000
0000
0000
1010
0000
1000
0001
0010
0000
0100
0010
0000
0100
1000
0100
,
0010
0000
0001
0100
0000
0000
0110
0000
0020
0000
1030
0000
0000
1000
0100
0000
,
0110
0000
0000
0010
0001
0000
0100
0000
0010
0000
2020
0000
0000
0000
3030
0000
,
0000
0000
1000
0100
0000
1000
0001
0000
0010
0000
0200
0000
0000
0000
0320
0000
,
0000
0000
0000
0000
0130
0000
1100
0000
1000
0010
0100
0001
0000
1000
0100
0010
,
0001
0000
0100
0000
0110
0000
0000
0000
0001
0100
0010
1000
0000
0001
0010
0100
,
1000
0000
0000
0010
0100
0000
0001
0000
1000
0000
0000
0000
1100
0000
0000
0000
,
0001
0101
1000
1010
,
0001
0000
0011
0000
0010
0100
1000
0001
,
0010
0000
0100
0000
1000
0000
0010
0000
0100
0001
1000
0000
0010
1000
0001
0000
,
1001
0000
0000
0000
1000
0010
1000
0010
1000
0000
0001
0000
0100
0000
1000
0000
,
0100
0000
0001
0010
0000
0100
1000
0100
1000
0000
0010
0000
0001
0000
0010
0000
,
1000
0000
0100
0000
0010
0001
0010
0001
0010
0000
0100
0000
1000
0000
0100
0000
,
0010
0000
0001
0100
0000
0010
1000
0010
1000
0000
0100
0010
0001
0000
1000
0100
,
0010
0000
0001
0100
0001
1000
0010
1000
0010
0000
1000
0000
0100
0000
0001
0000
,
0100
0000
1000
0010
0000
0100
0001
0100
0001
0000
0010
0000
1000
0000
0010
0000
,
0001
0000
0100
0000
0010
1000
0010
1000
0010
0000
0100
0000
0001
0000
0100
0000
,
0010
0000
1000
0100
0000
0010
0001
0010
0001
0000
0100
0010
1000
0000
0010
0100
,
0001
0000
0010
0100
0010
0000
0001
0000
0100
0000
1000
0000
0001
0000
0010
0000
,
2000
0000
0000
3200
0000
0000
0020
0000
0000
0000
0000
0000
0000
0000
0000
0000
,
0330
0000
0010
0100
1000
0010
0001
1000
,
0200
0000
0000
0302
0000
0000
2000
0000
0000
0000
0000
0000
0000
0000
0000
0000
,
3003
0000
0000
0000
1000
0010
1000
0010
0100
0000
0001
0010
0000
0100
1000
0000
,
1010
0000
0000
0000
0010
0100
0010
0100
0001
0000
1000
0100
0000
0010
0001
0000
,
0101
0000
0000
0000
0000
0100
0010
1000
0010
0000
0100
0001
0000
0010
0100
0000
,
1000
0000
0001
0100
0000
0010
1000
0000
0100
0010
0100
0010
0001
1000
0001
1000
,
0002
0000
0103
0000
0110
0010
1000
0010
,
1000
0000
0100
1000
0000
0100
0001
0000
1000
0000
0010
0100
0010
0000
0001
0000
,
0100
0000
0010
0001
0000
0010
1000
0000
1001
0000
0001
0000
0100
0000
0001
0000
,
0100
0000
0001
0010
0000
1000
0010
0000
0002
0000
0103
0000
2000
0000
3100
0000
,
0001
0010
0100
1000
0010
0100
0002
2000
0000
0000
0000
0000
3003
0000
0000
0000
;

//---------------dance-double - ----------------
#NOTEDATA:;
#CHARTNAME:;
#STEPSTYPE:dance-double;
#DESCRIPTION:;
#CHARTSTYLE:;
#DIFFICULTY:Hard;
#METER:13;
#RADARVALUES:0.446901,0.460675,0.207125,0.142845,0.414250,438.000000,409.000000,29.000000,20.000000,0.000000,0.000000,0.000000,0.000000,0.000000,0.446901,0.460675,0.207125,0.142845,0.414250,438.000000,409.000000,29.000000,20.000000,0.000000,0.000000,0.000000,0.000000,0.000000;
#CREDIT:MUINELIM;
#DISPLAYBPM:93.000000;
#NOTES:
00000000
00000000
00000000
00000000
,
00000000
00000000
00000000
00000000
,
00000000
00000000
00000000
00000000
,
00000000
00000000
00000000
00000000
,
00000000
00000000
00000000
00000000
,
00000000
00000000
10000000
01000000
,
00010000
00001000
00000010
00000001
,
00000100
00001000
00021000
00030010
,
00012000
00000000
00000000
00000000
01003000
00000000
00000000
00000000
00001000
00100000
00001000
00000000
00010000
00000100
00010000
00000000
,
00011000
00000000
00000000
00001000
00010000
00000000
01000000
00000000
10000000
00000000
00100000
00000000
00010000
00000000
00100000
00000000
,
10000000
00000000
01000000
00010000
00000000
00001000
00010000
00000000
00001000
00000000
00000010
00000001
00000100
00000000
00001000
00000000
,
00000100
00000000
00000001
00000010
00000000
00001000
00000010
00000000
00001000
00000000
00010000
00000000
00100000
00000000
10000000
00000000
,
01000000
00000000
00010000
00001000
00000000
00010000
00100000
00000000
00010000
00000000
00001000
00000000
00000010
00000000
00000001
00000000
,
00000100
00001000
00010000
00001000
01001000
00000000
00010010
00000000
,
00010000
00000000
00001000
00010000
00001000
00000000
00000000
00100000
00010000
00000000
00000000
00000000
01010000
00000000
00000000
00000000
,
11000000
00000000
10000000
00100000
01000000
00000000
00100000
01000000
00010000
00000000
00100000
00001000
00010000
00000000
00000100
00001000
,
00000001
00000000
00000000
00000000
00000000
00000000
00000000
00000000
00000000
00000000
00000000
00000000
00000000
00000000
00000000
00000000
00000000
00000000
00000100
00000000
00000000
00000010
00000000
00000000
00001000
00000000
00000000
00000000
00000000
00000000
00000100
00000000
00000000
00000010
00000000
00000000
00000001
00000000
00000000
00000000
00000100
00000000
00000000
00000000
00001000
00000000
00000000
00000000
,
00010000
00000000
00000000
00000000
00000000
00000000
00000000
00000000
00000000
00000000
00000000
00000000
00001000
00000000
00000000
00000000
00010000
00000000
00000000
00000000
00100000
00000000
00000000
00000000
10000000
00000000
00000000
00000000
00000000
00000000
00000000
00000000
00000000
00000000
00000000
00000000
01000000
00000000
00000000
00100000
00000000
00000000
01000000
00000000
00000000
00000000
00000000
00000000
,
00010000
00000000
00000000
00000000
00011000
00000000
00001000
00100000
00001000
00000000
00010000
00000000
00000100
00000000
00000010
00000100
,
00000010
00000000
00000000
00000000
00000011
00000000
00000001
00000100
00000001
00000000
00000100
00001000
00000100
00000000
00001000
00010000
,
00001000
00000000
00000000
00000000
00000000
00000000
00000000
00000000
00000000
00000000
00000000
00000000
00011000
00000000
00000000
00000000
00000000
00000000
00010000
00000000
00000000
00001000
00000000
00000000
00010000
00000000
00000000
00000000
00000000
00000000
00100000
00000000
00000000
10000000
00000000
00000000
00100000
00000000
00000000
00000000
01000000
00000000
00000000
00000000
00010000
00000000
00000000
00000000
,
00200000
00000000
00000000
00000000
01300000
00000000
01100000
00000000
10000000
00100000
10000000
00100000
00000000
01000000
00010000
00000000
,
00100000
00000000
01000000
00010000
00000000
00001000
00010000
00000000
00000100
00000010
00000100
00000000
00001000
00000001
00001000
00000000
,
00001001
00000000
00000000
00000000
00000110
00000000
00000010
00000100
00000001
00000000
00000100
00000010
00000000
00000100
00001000
00010000
,
00100000
00000000
01000000
00100000
00000000
00000000
10100000
00000000
10000000
00000000
02000000
00000000
00000000
03010000
00001000
00000000
,
00011000
00000000
00000000
00010000
00000100
00000000
00001000
00000000
00000001
00000000
00000202
00000000
00000000
00000000
00000303
00000000
,
00000000
00000000
00000100
00001000
00000000
00010000
00001000
00000000
00100000
00000000
00020000
00000000
00000000
00000000
20030000
00000000
,
00000000
00000000
00000000
00000000
30100000
00000000
01100000
00000000
01000000
00001000
00010000
00000100
00000000
00001000
00000100
00000010
,
00000100
00000000
00001000
00000000
00001001
00000000
00000000
00000000
00000100
00010000
00001000
01000000
00000000
00010000
01000000
00100000
,
01000000
00000000
00000000
00100000
10000000
00000000
01000000
00000000
00020000
00000000
00000000
00000000
00030100
00000000
00000000
00000000
,
00002000
01003000
00020000
00030010
,
00002000
00000000
00103000
00000000
00100000
01000000
00010000
00001000
,
00000010
00000000
00000100
00000000
00001000
00000000
00000001
00000000
00000100
00001000
00010000
00000000
00001000
00010000
01000000
00000000
,
10010000
00000000
00000000
00000000
10000000
00100000
10000000
00100000
10000000
00000000
01000000
00000000
00010000
00000000
00001000
00000000
,
00000100
00000000
00000001
00000010
00000000
00001000
00000010
00001000
00000010
00000000
00000001
00000000
00000100
00000000
00001000
00000000
,
00010000
00000000
00100000
00000000
10000000
01000000
10000000
01000000
10000000
00000000
00100000
00000000
00010000
00000000
00001000
00000000
,
00000010
00000000
00000001
00000100
00000000
00001000
00000100
00001000
00000100
00000000
00000001
00000010
00000100
00000000
00000010
00001000
,
00010000
00000000
00001000
00010000
01000000
10000000
01000000
10000000
01000000
00000000
00100000
00000000
00010000
00000000
00001000
00000000
,
00000100
00000000
00000010
00000001
00000000
00000100
00000010
00001000
00000001
00000000
00000010
00000000
00000100
00000000
00001000
00000000
,
00010000
00000000
00100000
00000000
01000000
10000000
01000000
10000000
00100000
00000000
01000000
00000000
00010000
00000000
00001000
00000000
,
00000010
00000000
00000100
00000001
00000000
00000100
00000010
00001000
00000001
00000000
00000100
00001000
00010000
00000000
00001000
00010000
,
00100000
00000000
10000000
01000000
00100000
00000000
01000000
00000000
00010000
00000000
00001000
00000000
00000010
00000000
00000100
00000000
,
00001100
00000000
00000000
00000101
00000000
00000000
00002002
00000000
00000000
00000000
00000000
00000000
00000000
00000000
00000000
00000000
,
00003003
00000000
00000001
00000010
00001000
00010000
00100000
10000000
,
11000000
00000000
00000000
01010000
00000000
00000000
00022000
00000000
00000000
00000000
00000000
00000000
00000000
00000000
00000000
00000000
,
00033000
00000000
00000000
00000000
00001000
00100000
00001000
00100000
01000000
00000000
10000000
00100000
00000000
00010000
00001000
00000000
,
00011000
00000000
00000000
00000000
00010000
00000010
00010000
00000010
00000100
00000000
00000001
00000010
00000000
00001000
00010000
00000000
,
00011000
00000000
00000000
00000000
00000000
00001000
01000000
00010000
01000000
00000000
00100000
10000000
00000000
01000000
00010000
00000000
,
00001000
00000000
00000010
00000001
00000000
00000100
00001000
00000000
00010000
00001000
00010000
00001000
00010000
00001000
00010000
00001000
,
00010000
00000000
00022000
00033000
00001000
00100000
10000000
00100000
,
00001000
00000000
00010000
00000100
00000000
00000010
00000100
00000000
00010000
00000000
00001000
00010000
00001000
00000000
00000100
00000000
,
00000001
00000000
00000010
00001000
00000000
00010000
00001000
00000000
00011000
00000000
00010000
00000000
00000100
00000000
00000001
00000000
,
00000100
00000000
00010000
00001000
00000000
00100000
10000000
00000000
00100000
00000000
00010000
00000000
00001000
00000000
00000010
00000000
,
00000100
00000001
00000100
00000010
00001000
00000010
00020000
00002000
00000000
00000000
00000000
00000000
00033000
00000000
00000000
00000000
;

//---------------dance-double - ----------------
#NOTEDATA:;
#CHARTNAME:;
#STEPSTYPE:dance-double;
#DESCRIPTION:;
#CHARTSTYLE:;
#DIFFICULTY:Easy;
#METER:5;
#RADARVALUES:0.154068,0.191055,0.042853,0.021427,0.000000,151.000000,145.000000,6.000000,3.000000,0.000000,0.000000,0.000000,0.000000,0.000000,0.154068,0.191055,0.042853,0.021427,0.000000,151.000000,145.000000,6.000000,3.000000,0.000000,0.000000,0.000000,0.000000,0.000000;
#CREDIT:MUINELIM;
#DISPLAYBPM:93.000000;
#NOTES:
00000000
00000000
00000000
00000000
,
00000000
00000000
00000000
00000000
,
00000000
00000000
00000000
00000000
,
00000000
00000000
00000000
00000000
,
00000000
00000000
00000000
00000000
,
00000000
00000000
00001000
00001000
,
00001000
00000000
00010000
00010000
,
00010000
00000000
00001000
00001000
,
00010000
00010000
00001000
00010000
,
00011000
00000000
00000100
00001000
,
00000010
00010000
00001000
00100000
,
00010000
01000000
00001000
00010000
,
00000100
00001000
00000010
00000010
,
00000010
00000010
00000100
00000000
,
00000001
00000000
00001000
00000000
,
00000010
00000000
00010000
00000000
,
00001000
00000000
00010000
00000000
,
00011000
00000000
00001000
00100000
,
00001000
00000000
00010000
00000010
,
00010000
00000000
00001000
01000000
,
00001000
00000000
00010000
00000100
,
00010000
00000000
00001000
00010000
,
00100000
00000000
00010000
00001000
,
00000100
00000000
00001000
00010000
,
01000000
00000000
00010000
00001000
,
00000020
00000030
00000110
00000000
,
00000000
00000000
00000001
00000000
,
00000100
00000000
00001000
00000000
,
00010000
00000000
00100000
00000000
,
10000000
00000000
01000000
00100000
,
00010000
00000000
00100000
00001000
,
00010000
00000000
00001000
00010000
,
00000100
00001000
00000001
00001000
,
00001001
00000000
00000001
00000100
,
00000010
00001000
00000100
00010000
,
00001000
00100000
00010000
01000000
,
00100000
10000000
00010000
01000000
,
00001000
00010000
00000010
00001000
,
00000001
00000010
00000100
00010000
,
00001000
00100000
01000000
10000000
,
00100000
01000000
00001000
00001000
,
00001000
00001000
00020000
00000000
,
00000000
00000000
00030000
00000000
,
00000000
00000000
00002000
00000000
,
00000000
00000000
00003000
00000000
,
00000000
00000000
00010000
00001000
,
00000100
00000000
00001000
00010000
,
00100000
00000000
00010000
00000010
,
00010000
00001000
01000000
00001000
,
00011000
00000000
00010000
00100000
,
10000000
01000000
00010000
00001000
,
00000100
00000001
00000010
00001000
,
00010000
01000000
10000000
00100000
,
00010000
00001000
00011000
00000000
;

//---------------dance-double - ----------------
#NOTEDATA:;
#CHARTNAME:;
#STEPSTYPE:dance-double;
#DESCRIPTION:;
#CHARTSTYLE:;
#DIFFICULTY:Medium;
#METER:10;
#RADARVALUES:0.265283,0.305688,0.142845,0.071422,0.000000,260.000000,240.000000,20.000000,10.000000,0.000000,0.000000,0.000000,0.000000,0.000000,0.265283,0.305688,0.142845,0.071422,0.000000,260.000000,240.000000,20.000000,10.000000,0.000000,0.000000,0.000000,0.000000,0.000000;
#CREDIT:MUINELIM;
#DISPLAYBPM:93.000000;
#NOTES:
00000000
00000000
00000000
00000000
,
00000000
00000000
00000000
00000000
,
00000000
00000000
00000000
00000000
,
00000000
00000000
00000000
00000000
,
00000000
00000000
00000000
00000000
,
00000000
00000000
00010000
00000010
,
00010000
00001000
01000000
00001000
,
00010000
00000100
00010000
00001000
,
00100000
00000000
00001000
00000000
00010000
00001000
00010000
00001000
,
00010000
00002000
00013000
00001000
,
00000100
00000001
00000100
00000000
00001000
00000000
00010000
00000000
,
00100000
10000000
00100000
00000000
00010000
00000000
00001000
00000000
,
00000010
00000001
00000010
00000000
00001000
00000000
00010000
00000000
,
01000000
10000000
01000000
00000000
10000000
00000000
10010000
00000000
,
00010000
01010000
01000000
01001000
,
00001000
00000000
00011000
00000000
00010000
00000100
00001000
00000100
,
00010000
00000000
00000000
00000000
00001000
01000000
00010000
01000000
,
00001000
00000000
00010000
00000010
00010000
00000000
00001000
01000000
,
00001000
00000000
00010000
00000100
00010000
00000000
00001000
00100000
,
00001000
00000000
00010000
00001000
00010000
00001000
00000100
00000010
,
00000100
00000000
00000001
00001000
00000001
00001000
00000010
00000100
,
00000010
00000000
00000110
00000000
00000001
00000100
00001000
00000000
,
00000100
00001000
00010000
00000000
00001000
00010000
00100000
00100000
,
00000000
00000000
10100000
00000000
10000000
01000000
00010000
00000000
,
01000000
00010000
00001000
00000000
00010000
00000100
00000000
00001000
,
00000100
00000000
00000010
00000001
00000200
00000000
00000000
00000000
,
00000300
00000000
00000010
00001000
00000200
00000000
00000000
00000000
,
00000300
00000000
00010000
00001000
00010000
00000000
00001000
00000000
,
00100000
00101000
00001000
00010000
,
00010010
00000000
00000010
00001000
00000100
00000000
00001100
00000000
,
00000100
00010100
00010000
00011000
,
00001000
01001000
01000000
01100000
,
00100000
00000000
10100000
00000000
10000000
01000000
00100000
00010000
,
00200000
00000000
00301000
00010000
00011000
00000000
00001000
00000000
,
00010000
00000000
00000100
00001000
00000010
00000000
00010000
00000000
,
00001000
00000000
00100000
00010000
01000000
00000000
00001000
00000000
,
00010000
00000000
00000100
00001000
00000001
00001000
00000100
00000010
,
00000001
00000100
00001000
00010000
00011000
00000000
00001000
00000000
,
00010000
00000000
00100000
10000000
01000000
00000000
00010000
00000000
,
00001000
00000000
00000010
00000001
00000100
00000000
00001000
00000000
,
00010000
00000000
00100000
10000000
01000000
00100000
01000000
10000000
,
00100000
01000000
00010000
00100000
00002000
00000000
00000000
00000000
,
00003000
00010000
00200000
00000000
,
00300000
00001000
00000020
00000000
,
00000030
00010000
00002000
00000000
,
00003000
00000000
00000100
00000010
00000100
00000000
00000001
00000000
,
00000011
00000000
00000010
00001000
00010000
00000000
00100000
00000000
,
10100000
00000000
10000000
01000000
00010000
00000000
01000000
00100000
,
00010000
00000000
00100000
00001000
00010000
00000010
00001000
00000100
,
00000010
00001001
00000001
00000100
,
00001000
00010000
01000000
00000000
10000000
00000000
00100000
00000000
,
00010000
00001000
00000100
00000000
00000001
00000000
00000010
00000000
,
00000100
00000010
00000110
00000000
00000001
00000100
00001000
00010000
,
00100000
10000000
02000000
00200000
03300000
00000000
00000000
00000000
;
