#TITLE:Blaze Emotion (Band Version);
#SUBTITLE:;
#ARTIST:YAHPP;
#TITLETRANSLIT:;
#SUBTITLETRANSLIT:;
#ARTISTTRANSLIT:;
#GENRE:VARIETY;
#CREDIT:MUINELIM;
#BANNER:Blaze Emotion (Band Version).png;
#BACKGROUND:Blaze Emotion (Band Version)-bg.png;
#LYRICSPATH:;
#CDTITLE:;
#MUSIC:Blaze Emotion (Band Version).mp3;
#OFFSET:-0.041000;
#SAMPLESTART:61.417435;
#SAMPLELENGTH:12.000000;
#LASTBEATHINT:50.596493;
#SELECTABLE:YES;
#DISPLAYBPM:170.000000;
#BPMS:0.000000=170.000000
;
#STOPS:16.000000=1.059000,
167.000000=1.059000,
240.000000=1.059000
;
#BGCHANGES:-0.350=1423.mpg=1.000=0=0=1=Centered====,
0.000=Blaze Emotion (Band Version).avi=1.000=1=0=0=StretchNoLoop==CrossFade==,
99999=-nosongbg-=1.000=0=0=0 // don't automatically add -songbackground-
;
#KEYSOUNDS:;
#ATTACKS:;

//---------------dance-single - ----------------
#NOTES:
     dance-single:
     :
     Beginner:
     4:
     0.148056,0.225031,0.019192,0.009596,0.000000,108.000000,106.000000,2.000000,1.000000,0.000000,0.000000,0.148056,0.225031,0.019192,0.009596,0.000000,108.000000,106.000000,2.000000,1.000000,0.000000,0.000000:
// measure 0
0000
0000
0000
0000
,  // measure 1
0000
0000
0000
0000
,  // measure 2
0000
0000
0000
0000
,  // measure 3
0000
0000
0000
0000
,  // measure 4
0000
1000
0000
1000
,  // measure 5
0000
1000
0000
1000
,  // measure 6
0000
0001
0000
0001
,  // measure 7
0000
0001
0000
0001
,  // measure 8
0000
0100
0000
0010
,  // measure 9
0000
1000
0000
0001
,  // measure 10
0000
0100
0000
0100
,  // measure 11
0100
0000
0000
0000
,  // measure 12
0000
0010
0000
0000
,  // measure 13
0000
1000
0000
0000
,  // measure 14
0000
0001
0000
0000
,  // measure 15
0000
0100
0000
0000
,  // measure 16
0000
0010
0000
0000
,  // measure 17
0000
0100
0000
0000
,  // measure 18
0000
0001
0000
0000
,  // measure 19
0000
1000
0000
1000
,  // measure 20
0000
0100
0000
0010
,  // measure 21
0000
0001
0000
0010
,  // measure 22
0000
0100
0000
1000
,  // measure 23
0000
0100
0100
0100
,  // measure 24
0000
0001
0000
0010
,  // measure 25
0000
0100
0000
1000
,  // measure 26
0000
0100
0000
0100
,  // measure 27
0000
0010
0000
0010
,  // measure 28
0010
0010
0000
0000
,  // measure 29
0000
1001
0000
0000
,  // measure 30
0000
1000
0000
0000
,  // measure 31
0000
0010
0000
0000
,  // measure 32
0000
0100
0000
0000
,  // measure 33
0000
0001
0000
0000
,  // measure 34
0000
0010
0000
0000
,  // measure 35
0000
0100
0000
0000
,  // measure 36
0000
1000
0000
0001
,  // measure 37
0000
1000
1000
1000
,  // measure 38
0000
0000
0000
0000
,  // measure 39
0000
0000
0000
0000
,  // measure 40
0000
0000
0000
0000
,  // measure 41
0000
0000
0000
1001
,  // measure 42
0001
0000
0100
0000
,  // measure 43
0001
0000
0100
0000
,  // measure 44
0010
0000
1000
0000
,  // measure 45
0010
0000
1000
0000
,  // measure 46
0100
0000
0010
0000
,  // measure 47
0100
0000
0010
0000
,  // measure 48
0100
0100
0100
0000
,  // measure 49
0200
0000
0300
0000
,  // measure 50
1000
0000
0010
0000
,  // measure 51
1000
0000
0010
0000
,  // measure 52
0100
0000
0001
0000
,  // measure 53
0100
0000
0001
0000
,  // measure 54
0010
0000
0100
0000
,  // measure 55
0010
0000
0010
0000
,  // measure 56
0001
0000
1000
0000
,  // measure 57
0001
0000
0001
0000
,  // measure 58
0100
0000
0010
0000
,  // measure 59
1000
1000
1000
1000
,  // measure 60
1000
0001
0000
0000
,  // measure 61
0000
0100
0000
0000
,  // measure 62
0000
0010
0000
0000
,  // measure 63
0000
1000
0000
0000
,  // measure 64
0000
0001
0000
0010
,  // measure 65
0000
0100
0000
1000
,  // measure 66
0000
0010
0000
0001
,  // measure 67
0001
0000
0000
0000
;

//---------------dance-single - ----------------
#NOTES:
     dance-single:
     :
     Easy:
     7:
     0.249501,0.333468,0.067173,0.095962,0.000000,182.000000,175.000000,7.000000,10.000000,0.000000,0.000000,0.249501,0.333468,0.067173,0.095962,0.000000,182.000000,175.000000,7.000000,10.000000,0.000000,0.000000:
0000
0000
0000
0000
,
0000
0000
0000
0000
,
0000
0000
0000
0000
,
0000
0000
0000
0000
,
0000
1000
0001
1000
,
0001
0100
0010
0100
,
0000
0001
1000
0001
,
1000
0010
0100
0010
,
0010
1000
0100
0010
,
0000
0010
0001
0100
,
0000
0110
0000
0110
,
2002
0000
0000
0000
,
3003
1000
0000
0001
,
0000
1000
0000
0001
,
0000
0100
0000
0010
,
0000
0100
0100
0100
,
0000
0001
0000
1000
,
0000
0001
0000
1000
,
0000
0010
0000
0100
,
0000
0010
0010
0020
,
0030
1000
0100
0010
,
0000
0001
0010
0100
,
0000
1000
0010
0100
,
0000
0001
0100
0010
,
0010
1000
0001
0100
,
0000
0001
1000
0010
,
0000
1000
0001
0100
,
0010
1000
0001
0100
,
0100
0020
0000
0000
,
0000
0130
0000
0000
,
0000
1000
0000
0100
,
0000
1000
0000
0100
,
0000
0001
0000
0010
,
0000
0001
0000
0010
,
0000
1000
0000
0100
,
0000
0001
0000
0010
,
0000
1000
0001
1000
,
0010
0100
0100
0200
,
0000
0000
0000
0000
,
0000
0000
0000
0000
,
0000
0000
0000
0000
,
0000
0300
0000
1001
,
0001
0010
0001
0100
,
0010
0000
0020
0130
,
0010
1000
0100
1000
,
0001
1000
0100
0100
,
0000
1000
0100
0010
,
0001
1000
0010
0100
,
0001
0001
1000
1000
,
0001
1000
1001
0000
,
1000
0010
1000
0100
,
0010
0000
0020
0130
,
0010
0001
0100
0001
,
1000
0001
0100
0100
,
0000
0001
0100
0010
,
1000
0001
1000
0000
,
0000
1000
0100
0010
,
0001
1000
0001
0000
,
0100
0100
0010
0010
,
1000
0100
0001
0010
,
1001
1000
0000
0010
,
0000
1000
0000
0010
,
0000
0001
0000
0100
,
0000
0001
0000
0100
,
0100
1000
0001
1000
,
0010
0001
0100
1000
,
0010
0200
0000
0300
,
2002
0000
0000
0000
,
0000
0000
0000
0000
,
0000
0000
3003
0000
;

//---------------dance-double - ----------------
#NOTES:
     dance-double:
     :
     Easy:
     7:
     0.238534,0.333468,0.067173,0.095962,0.000000,174.000000,167.000000,7.000000,10.000000,0.000000,0.000000,0.238534,0.333468,0.067173,0.095962,0.000000,174.000000,167.000000,7.000000,10.000000,0.000000,0.000000:
00000000
00000000
00000000
00000000
,
00000000
00000000
00000000
00000000
,
00000000
00000000
00000000
00000000
,
00000000
00000000
00000000
00000000
,
00000000
00001000
00010000
00000010
,
00000000
00010000
00001000
00100000
,
00000000
00001000
00010000
00000100
,
00000000
00010000
00001000
01000000
,
01000000
00010000
00100000
01000000
,
00100000
00001000
00010000
00000100
,
00000010
00000100
00001000
00000010
,
00000220
00000000
00000000
00000000
,
00000330
00001000
00000000
00000001
,
00000000
00000100
00000000
00001000
,
00000000
00010000
00000000
00100000
,
00000000
20000000
00000000
30000000
,
00000000
00010000
00000000
10000000
,
00000000
01000000
00000000
00010000
,
00000000
00001000
00000000
00000010
,
00000000
00000002
00000000
00000000
,
00000003
00000100
00000010
00000100
,
00000000
00000010
00001000
00000010
,
00000000
00010000
00000010
00010000
,
00000000
00001000
01000000
00001000
,
00000000
01000000
00010000
01000000
,
00000000
00100000
01000000
00100000
,
00000000
10000000
01000000
00100000
,
00001000
00010000
00000100
00000010
,
00000001
00002002
00000000
00000000
,
00000000
00003003
00000000
00000000
,
00000000
00001000
00000000
00000010
,
00000000
00010000
00000000
00001000
,
00000000
00100000
00000000
00010000
,
00000000
01000000
00000000
00001000
,
00000000
00010000
00000000
00000010
,
00000000
00001000
00000000
00000100
,
00000000
00000010
00000001
00000100
,
00000010
00010000
00001000
00022000
,
00000000
00000000
00000000
00000000
,
00000000
00000000
00000000
00000000
,
00000000
00000000
00000000
00000000
,
00000000
00033000
00000000
00011000
,
00001000
00100000
00010000
01000000
,
00100000
00000000
00100000
00100000
,
10000000
01000000
00100000
00000000
,
00100000
00010000
00001000
00001000
,
00000000
00000010
00000100
00000010
,
00001000
00000100
00000010
00000001
,
00000100
00001000
00000100
00000001
,
00000100
00001000
00011000
00000000
,
00010000
00000010
00001000
00000100
,
00000010
00000000
00000010
00000010
,
00000001
00000100
00000010
00000000
,
00000010
00001000
00010000
00010000
,
00000000
00010000
01000000
00100000
,
10000000
01000000
00100000
00000000
,
00000000
00001000
00000010
00000100
,
00000001
00000010
00000100
00000000
,
00010000
01000000
00100000
10000000
,
00010000
00100000
01000000
00010000
,
00011000
00000010
00000000
00001000
,
00000000
00100000
00000000
00010000
,
00000000
00001000
00000000
00000100
,
00000000
00010000
00000000
01000000
,
01000000
10000000
00100000
00010000
,
00001000
00000100
00000001
00000010
,
00001000
00022000
00000000
00000000
,
00000000
00000000
00000000
00000000
,
00000000
00000000
00000000
00000000
,
00000000
00000000
00033000
00000000
;

//---------------dance-single - ----------------
#NOTES:
     dance-single:
     :
     Medium:
     10:
     0.411265,0.566895,0.316674,0.249501,0.043183,300.000000,267.000000,33.000000,26.000000,0.000000,0.000000,0.411265,0.566895,0.316674,0.249501,0.043183,300.000000,267.000000,33.000000,26.000000,0.000000,0.000000:
0000
0000
0000
0000
,
0000
0000
0000
0000
,
0000
0000
0000
0000
,
0000
0000
0000
0000
,
0000
0000
1000
0000
0010
0000
1000
0100
,
1000
0000
0001
0000
0100
0000
0001
0010
,
0001
0000
1000
0000
0100
0000
1000
0010
,
1000
0000
0000
0000
0001
0000
0000
0000
0010
0000
0000
0000
0001
0000
0000
0100
,
0000
0001
1000
0000
0100
0000
0010
0000
,
0001
1000
0010
0100
,
0001
0000
0000
0000
0010
0000
0000
0010
0000
0000
0100
0000
0000
0100
0000
0000
,
2002
0000
0000
0000
,
3003
0000
1001
0000
0000
2000
0000
3010
,
0000
0000
0010
0000
0010
0100
0000
0100
,
0000
0000
0002
0000
0013
0000
0010
0100
,
0000
0010
0000
0010
0000
0002
0000
1003
,
0000
0000
1020
0000
0000
0130
0000
0100
,
0001
0100
0001
0000
0001
0020
0000
0130
,
0000
0000
1100
0000
1000
0010
0000
0010
,
0100
0102
0000
1000
,
1003
0000
1000
0000
0010
0000
0100
0001
,
0010
0000
0001
0000
0100
0000
0010
1000
,
0100
0000
1000
0000
0001
0000
0010
0001
,
1000
0000
0001
0000
1000
0010
0100
0001
,
1000
0000
0100
0000
0010
0000
0001
0100
,
0010
0000
1000
0000
0001
0000
0010
0100
,
1000
0000
0010
0100
0000
0100
0001
0000
,
0001
1000
0000
1000
0010
0000
0010
0100
,
0010
2002
0000
0000
,
3003
1001
0000
0000
,
0010
0000
0200
0000
0000
0001
0000
0301
,
0000
0000
0011
0000
0010
0200
0000
1300
,
0000
0000
1010
0000
0010
0000
0100
0001
,
0000
0010
0000
0010
0000
0100
0000
0010
,
0000
0000
0012
0000
0000
1003
0000
1000
,
0100
1000
0100
0000
0010
0200
0000
1300
,
0000
0000
1100
0000
1000
0010
0000
0010
,
0100
0000
0000
0000
0001
0000
0000
0010
0000
0000
0100
0000
1000
0000
0000
2002
,
0000
0000
0000
0000
,
0000
0000
0000
0000
,
0000
0000
0000
0000
,
0000
0000
3003
1001
,
0110
0000
0010
0100
0000
0100
0001
2000
,
0000
0010
3010
0000
0010
0100
0001
1000
,
0100
0000
0010
0001
0000
0101
0000
0100
,
0010
0100
0000
0010
0000
1010
0000
0000
,
1001
0000
0001
0010
0000
0100
0000
0010
,
0001
1000
0000
0100
0000
0010
0100
0000
,
1100
1100
0011
0011
,
0101
0000
0000
0000
1010
0000
0000
0000
0010
0000
0000
0010
0000
0000
0010
0000
,
1001
0000
0001
0100
0000
0010
1000
0010
,
0000
0100
0002
0000
0023
0000
0230
0000
,
1300
0000
1000
0010
0000
0001
0000
0010
,
1000
0100
0000
0001
0000
0100
0000
0000
,
1100
0000
1000
0010
0000
0001
0000
0010
,
0100
0020
0000
2000
0000
0000
3030
0000
,
0101
0000
0001
0010
0000
1000
0000
0010
,
0100
0020
0000
0002
0033
0000
1100
0000
,
1010
1010
0101
0101
,
0001
1000
0001
0100
0010
1000
0001
0000
,
1001
1000
0010
0001
,
0010
0000
1000
0000
0100
0010
0000
1000
,
0010
0000
0001
0000
0010
0100
0000
0001
,
0100
0000
0000
0000
1000
0000
0010
0000
0100
0000
0001
0000
1000
0000
0000
1000
,
0000
1000
0100
0000
0001
0000
0010
0000
,
1000
0100
0001
0010
,
1000
0000
0000
0000
0001
0000
0000
0100
0000
0000
0010
0000
0000
1000
0000
0000
,
2002
0000
0000
0000
,
0000
0000
0000
0000
,
0000
0000
3003
0000
;

//---------------dance-double - ----------------
#NOTES:
     dance-double:
     :
     Medium:
     9:
     0.367397,0.466855,0.230309,0.105558,0.009596,268.000000,244.000000,24.000000,11.000000,0.000000,0.000000,0.367397,0.466855,0.230309,0.105558,0.009596,268.000000,244.000000,24.000000,11.000000,0.000000,0.000000:
00000000
00000000
00000000
00000000
,
00000000
00000000
00000000
00000000
,
00000000
00000000
00000000
00000000
,
00000000
00000000
00000000
00000000
,
00000000
00001000
00010000
00000010
,
00010000
00010000
00001000
00100000
,
00001000
00001000
00010000
00000100
,
00010000
00010000
00001000
01000000
,
00001000
00001000
00010000
00100000
,
10000000
01000000
00010000
00001000
,
00000010
00000001
00000100
00001000
,
00022000
00000000
00000000
00000000
,
00033000
00000000
00011000
00000000
00000000
01000000
00000000
01000000
,
00000000
00000000
00100000
00000000
00100000
10000000
00000000
10000000
,
00000000
00000000
01000000
00000000
01000000
00000000
00100000
00001000
,
00000000
00010000
00000000
00010000
00000000
00000010
00000000
00000010
,
00000000
00000000
00001010
00000000
00000000
00000101
00000000
00000001
,
00000010
00000001
00000010
00000000
00000100
00001000
00000000
00001000
,
00000000
00000000
00000010
00000000
00010000
00001000
00000000
00001000
,
00100000
00120000
00000000
10000000
,
10030000
10000000
00100000
00010000
,
00001000
00010000
00100000
00010000
,
00001000
00000010
00001000
00010000
,
00001000
00000000
00000010
00000000
00000001
00000000
00001000
00000001
,
00001000
00000100
00000010
00001000
,
00010000
01000000
00100000
00001000
,
00010000
00000000
00100000
00000000
10000000
01000000
00000000
01000000
,
00010000
00000000
00010000
00001000
00000000
00001000
00000010
00000000
,
00000001
00002002
00000000
00000000
,
00003003
00001001
00000000
00000000
,
00000100
00000000
00000010
00000000
00000000
00001000
00000000
00001000
,
00000000
00000000
00000100
00000000
00000010
00001000
00000000
00001000
,
00000000
00000000
00010000
00000000
00001000
00000000
00010000
01000000
,
00000000
00100000
00000000
00100000
00000000
01000000
00000000
10000000
,
00000000
00000000
10100000
00000000
00000000
01010000
00000000
00010000
,
00100000
00010000
00100000
00000000
01000000
00100000
00000000
00100000
,
00000000
00000000
00001000
00000000
00010000
00000100
00000000
00000100
,
00000010
00000001
00000100
00001000
,
00022000
00000000
00000000
00000000
,
00000000
00000000
00000000
00000000
,
00000000
00000000
00000000
00000000
,
00000000
00000000
00033000
00011000
,
00011000
00000000
00001000
00100000
00000000
00001000
00010000
00001000
,
00000000
00010000
00000010
00000000
00000100
00000000
00000001
00000000
,
00001000
00000000
00000100
00000010
00000000
00000010
00000000
00000001
,
00000100
00001000
00000000
00010000
00000000
00001000
00000000
00000000
,
00011000
00000000
00010000
00001000
00000000
00100000
00000000
00010000
,
01000000
00010000
00000000
10000000
00000000
10000000
00100000
00000000
,
01000000
01100000
00010000
01010000
,
00001000
00000000
00000000
00000000
00011000
00000000
00000000
00000000
00010000
00000000
00000000
00010000
00000000
00000000
00010000
00000000
,
00001000
00000000
00010000
00000010
00000000
00001000
00000100
00001000
,
00000000
00000010
00010000
00000000
00001000
00000000
00100000
00000000
,
01000000
00000000
10000000
00100000
00000000
00100000
00000000
01000000
,
00010000
00100000
00000000
01000000
00000000
00010000
00000000
00000000
,
00011000
00000000
00001000
00000100
00000000
00000001
00000000
00000010
,
00000100
00000010
00000000
00002000
00000000
00000000
00003000
00000000
,
00011000
00000000
00010000
01000000
00000000
10000000
00000000
00100000
,
01000000
00100000
00000000
00020000
00000000
00000000
00031000
00000000
,
00010000
00010100
00001000
01001000
,
00010000
00010010
00001000
00101000
,
00011000
00010000
00001000
00000100
,
00000001
00000010
00000100
00001000
,
00010000
00100000
01000000
10000000
,
00100000
00000000
00000000
00000000
00010000
00000000
00000000
00000000
00001000
00000000
00000000
00000000
00010000
00000000
00000000
00010000
,
00000000
00010000
00000100
00000000
00000010
00000000
00000001
00000000
,
00000100
00010000
01000000
00100000
,
10000000
01000000
00010000
00000100
,
00000220
00000000
00000000
00000000
,
00000000
00000000
00000000
00000000
,
00000000
00000000
00000330
00000000
;

//---------------dance-single - ----------------
#NOTES:
     dance-single:
     :
     Hard:
     13:
     0.575772,0.666935,0.575772,0.268693,0.148741,420.000000,360.000000,60.000000,28.000000,0.000000,0.000000,0.575772,0.666935,0.575772,0.268693,0.148741,420.000000,360.000000,60.000000,28.000000,0.000000,0.000000:
0000
0000
0000
0000
,
0000
0000
0000
0000
,
0000
0000
0000
0000
,
0000
0000
0000
0000
,
0000
0000
1000
0001
1000
0010
0100
0001
,
0100
0000
0001
1000
0001
0100
0010
1000
,
0010
0000
1000
0001
1000
0100
0010
0001
,
0010
0000
0000
0000
0001
0000
1000
0000
0001
0000
0010
0000
0100
0000
0000
0100
,
0000
0100
1000
0010
0100
0001
0100
0010
,
1000
0000
0001
0010
0100
1000
0100
0010
,
0001
0000
0000
0000
0101
0000
0000
0110
0000
0000
1010
0000
0000
0110
0000
0000
,
2002
0000
0000
0000
,
3003
0000
1001
0000
0000
1020
0000
0130
,
0000
0000
0101
0000
0001
0020
0000
0230
,
0000
0000
1300
0000
1010
0000
0001
0010
,
0000
0011
0000
0100
0000
1100
0000
0020
,
0030
0000
0101
0000
0000
2001
0000
3010
,
0100
0010
0010
0000
1000
0100
0000
0012
,
0000
0000
0103
0000
0100
0020
0000
1030
,
0001
0000
1000
0001
1000
0000
0000
0100
0000
0000
0100
0000
0001
0000
0010
0000
,
0100
0010
0100
0010
0100
0000
1000
0000
0010
0000
0100
0000
0001
0000
0000
0001
,
0000
0000
0001
0000
1000
0000
0100
0000
0010
0000
0001
0000
0100
0000
0000
0100
,
0000
0000
0100
0000
0010
0000
1000
0000
0001
0000
0010
0000
0100
0000
0000
0100
,
0000
0000
0100
0000
1000
0000
0010
0000
0100
0000
0001
0000
1000
0100
1000
0000
,
0001
0100
0001
0100
0001
0000
0010
0000
0100
0000
1000
0000
0010
0000
0000
0010
,
0000
0000
0010
0000
0100
0000
0001
0000
1000
0000
0100
0000
0010
0000
0000
0010
,
0000
0010
0001
0100
0100
1000
0010
0010
,
0001
0100
0100
1000
0100
0100
0001
0010
,
0010
1000
2002
0000
0000
0000
0000
0000
,
3003
1001
0000
0000
,
0011
0000
2100
0000
0000
3010
0000
0210
,
0000
0000
0301
0000
1010
0020
0000
0230
,
0000
0000
0301
0000
1001
0000
1010
0020
,
0000
0100
0000
0001
0000
0100
0000
1000
,
0030
0000
1001
0000
0000
0201
0000
0310
,
1000
0100
0020
0000
0230
1000
0000
0001
,
0300
0000
0011
0010
0100
0010
0001
0010
,
1000
0000
0010
0000
0001
0000
0000
0100
0000
0000
0100
0000
1000
0000
0000
2002
,
0000
0000
0000
0000
,
0000
0000
0000
0000
,
0000
0000
0000
0000
,
0000
0000
3003
1001
,
1010
0000
0101
0010
0000
0010
1000
1100
,
0000
0000
0100
0000
0010
0000
0001
0000
0100
0010
0100
0000
0010
0000
1000
0000
,
0100
0000
0011
0100
0000
1010
0000
0010
,
0100
0000
0101
0000
0000
0000
1010
0000
0000
0000
1000
0000
0001
0010
0001
0010
,
0002
0000
0103
0010
0000
1010
0000
0101
,
0001
0010
0000
0110
0000
1100
1000
1000
,
0010
0001
0010
0100
0010
0001
0010
1000
,
0100
0000
0010
0000
0001
0000
1000
0000
1010
0000
0000
0110
0000
0000
0101
0000
,
0011
0000
1100
0010
0000
0010
0001
0101
,
0000
0000
0100
0000
0010
0000
1000
0000
0100
0010
0100
0000
0010
0000
0001
0000
,
0100
0000
1010
0100
0000
0011
0000
0010
,
0100
0000
1100
0000
0000
0000
0011
0000
0000
0000
0001
0000
1000
0010
1000
0010
,
2000
0000
3001
0010
0000
0110
0000
1000
,
0010
0000
0001
0000
0000
0000
1000
0000
0100
0000
0001
0000
0010
0000
0100
0010
,
0200
0000
1300
0010
0000
0110
0000
0001
,
0010
0000
1000
0000
0001
0000
0100
0000
1000
0000
0010
0000
0100
0010
0100
0000
,
0001
0001
0010
0010
1000
1000
0100
0100
,
0001
0010
0001
0000
1000
0000
0001
0000
1000
0100
1000
0000
0001
0000
1000
0000
,
1001
0001
0100
1000
,
0010
0000
0011
0000
0001
0200
0000
1300
,
0100
0010
1010
0000
1000
0200
0000
0301
,
0100
0000
0010
0000
0001
0000
0100
0000
1000
0000
0100
0000
0010
0000
0000
1010
,
0000
0011
0001
0100
1000
0100
0010
0100
,
1000
0100
0001
0100
1000
0100
0001
0010
,
0100
0000
1000
0000
1010
0000
0000
0011
0000
0000
1100
0000
0000
0101
0000
0000
,
2002
0000
0000
0000
,
0000
0000
0000
0000
,
0000
0000
3003
0000
;

//---------------dance-double - ----------------
#NOTES:
     dance-double:
     :
     Hard:
     13:
     0.548354,0.666935,0.470213,0.297482,0.095962,400.000000,351.000000,49.000000,31.000000,0.000000,0.000000,0.548354,0.666935,0.470213,0.297482,0.095962,400.000000,351.000000,49.000000,31.000000,0.000000,0.000000:
00000000
00000000
00000000
00000000
,
00000000
00000000
00000000
00000000
,
00000000
00000000
00000000
00000000
,
00000000
00000000
00000000
00000000
,
00000000
00000000
00010000
00000010
00001000
00000100
00001000
00000010
,
00010000
00000000
00001000
01000000
00010000
00100000
00010000
01000000
,
00001000
00000000
00010000
00001000
00000100
00000010
00000100
00001000
,
00010000
00000000
00000000
00000000
00001000
00000000
00010000
00000000
00100000
00000000
01000000
00000000
00100000
00000000
00000000
00100000
,
00000000
00100000
10000000
01000000
00010000
01000000
10000000
00100000
,
00010000
00000000
00001000
00000010
00000001
00000100
00001000
00000100
,
00000001
00000000
00000000
00000000
00000011
00000000
00000000
00000010
00000000
00000000
00001000
00000000
00000000
00010000
00000000
00000000
,
00022000
00000000
00000000
00000000
,
00033000
00000000
00011000
00000000
00000000
00201000
00000000
01300000
,
00000000
00000000
11000000
00000000
10000000
00200000
00000000
02300000
,
00000000
00000000
03001000
00000000
00011000
00000000
00010000
00000100
,
00000000
00001100
00000000
00000010
00000000
00000011
00000000
00000002
,
00000000
00000000
00000103
00000000
00000000
00000120
00000000
00001030
,
00000100
00000010
00000100
00000000
00010000
00001000
00000000
02001000
,
00000000
00000000
03010000
00000000
00010000
00200000
00000000
01300000
,
01000000
00000000
10000000
00010000
10000000
00000000
00000000
00100000
00000000
00000000
00010000
00000000
00001000
00000000
00000100
00000000
,
00000001
00000000
00000010
00000100
00000010
00000000
00000100
00000000
00001000
00000000
00000010
00000000
00000100
00000000
00000000
00000100
,
00000000
00000000
00000100
00000000
00000010
00000000
00001000
00000000
00000100
00000000
00000010
00000000
00001000
00000000
00000000
00001000
,
00000000
00000000
00001000
00000000
00010000
00000000
01000000
00000000
00100000
00000000
00010000
00000000
01000000
00000000
00000000
01000000
,
00000000
01000000
00010000
00100000
01000000
10000000
00100000
00010000
,
00001000
00000000
00100000
00010000
00100000
00000000
00001000
00000000
00010000
00000000
00100000
00000000
01000000
00000000
00000000
01000000
,
00000000
00000000
01000000
00000000
00010000
00000000
00100000
00000000
01000000
00000000
00010000
00000000
00001000
00000000
00000000
00001000
,
00000000
00001000
00000100
00000001
00000000
00000001
00000010
00000000
,
00000010
00001000
00000000
00001000
00010000
00000000
00010000
01000000
,
10000000
00010000
20020000
00000000
00000000
00000000
00000000
00000000
,
30030000
10010000
00000000
00000000
,
10100000
00000000
01020000
00000000
00000000
00130000
00000000
02100000
,
00000000
00000000
03010000
00000000
00011000
00002000
00000000
00003020
,
00000000
00000000
00000130
00000000
00000011
00000000
00001100
00000200
,
00000000
00000320
00000000
00002030
00000000
00023000
00000000
02030000
,
03000000
00000000
11000000
00000000
00000000
00210000
00000000
00301000
,
00010000
00100000
00002000
00000000
00003010
00000020
00000000
00000200
,
00000330
00000000
00000101
00000001
00000010
00000100
00010000
00001000
,
00100000
00000000
01000000
00000000
10000000
00000000
00000000
00100000
00000000
00000000
00010000
00000000
00001000
00000000
00000000
00022000
,
00000000
00000000
00000000
00000000
,
00000000
00000000
00000000
00000000
,
00000000
00000000
00000000
00000000
,
00000000
00000000
00033000
00011000
,
00010010
00000000
00010000
00001000
00000000
01000000
00010000
00110000
,
00000000
00100000
01000000
10000000
00100000
00010000
00001000
00000100
,
00000001
00000000
00000010
00000100
00000000
00010100
00000000
00010000
,
00001000
00000000
01001000
00000000
00000000
00000000
00110000
00000000
00000000
00000000
00100000
00000000
01000000
00000000
10000000
00100000
,
20000000
00000000
31000000
00010000
00000000
00011000
00000000
00001000
,
00000100
00000101
00000000
00001010
00000000
00001000
00000100
00000010
,
00000001
00000100
00001000
01000000
00010000
00100000
01000000
10000000
,
00100000
00000000
00010000
00000000
00000010
00000000
00001000
00000000
00001100
00000000
00000000
00010100
00000000
00000000
00011000
00000000
,
00101000
00000000
00001000
00010000
00000000
00000100
00001000
00001010
,
00000000
00000010
00000100
00000001
00000010
00001000
00010000
01000000
,
10000000
00000000
00100000
01000000
00000000
01001000
00000000
00001000
,
00010000
00000000
00010100
00000000
00000000
00000000
00001010
00000000
00000000
00000000
00000010
00000000
00000100
00000000
00000001
00000010
,
00000002
00000000
00001003
00000100
00000000
00000110
00000000
00000010
,
00001000
00010000
00000000
01000000
00010000
00001000
00010000
01000000
,
20000000
00000000
30100000
00010000
00000000
00011000
00000000
00001000
,
00010000
00100000
00010000
00001000
00000010
00000001
00001000
00000100
,
00000010
00001000
00100000
00010000
01000000
00001000
00000100
00000001
,
00000010
00001000
00010000
01000000
10000000
00100000
00010000
00001000
,
00011000
00000000
00010000
00001000
00000100
00000001
00000100
00001000
,
00010000
00000000
00001000
00010000
01000000
10000000
01000000
00010000
,
00001000
00000000
00100000
01000000
00010000
00001000
00000010
00000100
,
00010000
00000000
00001000
00000000
00000100
00000000
00000001
00000000
00000010
00000000
00001000
00000000
00010000
00000000
00000000
00010010
,
00000000
01001000
01000000
00010000
00100000
01000000
00010000
00001000
,
00010000
00100000
00001000
00000010
00000100
00001000
00000100
00000001
,
00000010
00000000
00001000
00000000
00101000
00000000
00000000
00010010
00000000
00000000
01001000
00000000
00000000
00010100
00000000
00000000
,
00022000
00000000
00000000
00000000
,
00000000
00000000
00000000
00000000
,
00000000
00000000
00033000
00000000
;
