#TITLE:Beyond the Sparkle!;
#SUBTITLE:;
#ARTIST:AAAA;
#TITLETRANSLIT:;
#SUBTITLETRANSLIT:;
#ARTISTTRANSLIT:;
#GENRE:WORLD MUSIC;
#CREDIT:MUINELIM;
#BANNER:Beyond the Sparkle!.png;
#BACKGROUND:Beyond the Sparkle!-bg.png;
#LYRICSPATH:;
#CDTITLE:;
#MUSIC:Beyond the Sparkle!.ogg;
#OFFSET:-0.394000;
#SAMPLESTART:28.965427;
#SAMPLELENGTH:13.654285;
#SELECTABLE:YES;
#BPMS:0.000000=210.000000
;
#STOPS:
;
#BGCHANGES:;
#KEYSOUNDS:;
#ATTACKS:;

//---------------dance-single - ----------------
#NOTES:
     dance-single:
     :
     Hard:
     16:
     0.766482,1.115595,0.649411,0.417478,0.289916,694.000000,610.000000,84.000000,54.000000,0.000000,0.000000,0.766482,1.115595,0.649411,0.417478,0.289916,694.000000,610.000000,84.000000,54.000000,0.000000,0.000000:
0000
0000
0000
0000
,
0000
0000
0000
0000
,
0000
0000
0000
0000
,
0000
0000
0000
0000
,
0000
0000
0000
0000
,
0000
0000
0000
0000
,
0000
0000
0000
0000
,
0000
0000
0000
0000
,
2002
0000
0000
3003
,
1001
0000
0000
0101
0000
0000
1100
0000
,
0011
0000
0000
1010
0000
0000
0110
0000
,
1001
0000
0000
1010
0000
0000
0011
0000
,
1100
0000
0000
0101
0000
0110
0000
0010
,
1010
0000
0000
1100
0000
0000
0101
0000
,
0011
0000
0000
1100
0000
0000
1010
0000
,
0011
0000
0000
0101
0000
0000
1001
0000
,
0110
0000
0000
1010
0000
0000
0101
0000
,
1001
0000
0001
0010
0000
1000
0100
0000
,
0010
0000
0001
0100
0000
1000
0010
0000
,
0100
0000
1000
0010
0000
0001
0100
0000
,
0010
0000
1000
0100
0000
0001
0010
0100
,
1100
0000
1000
0010
0000
0001
0100
0000
,
0110
0000
0010
1000
0000
0100
0001
0000
,
1001
0000
1000
0100
0000
0001
0010
0000
,
0110
0000
0000
0000
0100
0000
1000
0000
0100
0010
0100
0000
0010
0100
0010
0000
,
0002
0000
0000
0000
0103
0110
0010
1000
,
0100
0020
0000
0000
0230
0000
0000
0310
,
0000
0022
0033
0000
0101
0000
1010
0000
,
2200
0000
0000
0000
3300
0000
0000
0000
0100
0010
0100
0000
0020
0000
0000
0000
,
0031
2001
0000
0000
3010
0110
0100
0001
,
0020
0000
0000
0130
0000
1100
0000
1010
,
0000
0101
0000
0011
0010
0000
0110
0000
,
1001
0000
0000
0000
1000
0000
0010
0000
0100
0010
0100
0000
0001
0000
0011
0000
,
0000
0000
0010
0000
0100
0000
1000
0000
0001
0100
0000
0001
0100
0000
0010
0000
,
1000
0100
0010
0001
0100
0010
0010
0010
,
0000
0000
1000
0000
0001
0000
0010
0000
0100
1000
0000
0100
1000
0000
0010
0000
,
0100
0000
0001
0000
1000
0000
1000
0000
1000
0000
1100
0000
0000
1010
0000
0000
,
0011
0000
0002
0000
0000
0000
0103
0000
0100
0010
1000
0000
0001
0000
0001
0000
,
0010
0100
1000
0010
0100
0001
1000
0100
,
0010
0012
0000
0103
0000
2100
3010
0000
,
0110
0000
0000
0000
1001
0000
0001
0000
0100
0010
0100
0000
0010
0100
0010
0000
,
2000
0000
3100
0010
0001
1000
0100
0010
,
0110
0000
0010
0100
1000
0001
0010
0100
,
0110
0000
1000
0010
0001
0010
1000
0100
,
0010
0000
0001
0100
0010
0000
0100
0000
0001
0000
0010
0000
0100
0000
1000
0000
,
1002
0000
0000
0000
0103
0000
0110
0000
0000
0000
0010
0000
1000
0100
0000
0000
,
0010
0001
0000
0000
0100
0000
0010
0000
1000
0100
1000
0000
0001
0010
0001
0000
,
0100
0010
1000
0000
0001
0000
0010
0100
2000
0000
0000
0000
3010
0000
0100
0000
,
0101
0000
0000
0000
0001
1000
0100
0000
1000
0010
0100
0010
1000
0010
0100
0000
,
0000
0000
0110
0000
0000
0000
0010
0000
1000
0100
0000
1000
0100
0000
0001
0000
,
0100
0000
0000
0000
1000
0010
1000
0000
0010
0000
0001
0000
0010
0100
0010
0000
,
1000
0100
0010
0001
0100
0000
1000
0100
,
0001
0000
0010
1000
0010
0001
0100
0010
,
1000
0000
0100
0000
0010
0000
0001
0000
0100
0010
0100
0000
0010
1000
0010
0000
,
0100
0001
0100
0000
0001
0010
0001
0000
1000
0100
1000
0000
0010
0100
0001
0000
,
0100
0010
1000
0000
0001
0010
0100
1000
0100
0000
0010
0000
0001
0100
0000
0000
,
0010
1000
0010
0000
0100
0000
0001
0000
0010
0100
0010
0000
0100
0010
0100
0000
,
2000
0000
0000
0000
3000
0000
1010
0000
0000
0011
0000
0000
0101
0000
0100
0000
,
0010
0001
0010
1000
0001
0100
1000
0100
,
0010
0000
0110
0000
0000
0000
1000
0000
0100
0010
0000
0100
0010
0000
0001
0000
,
0100
1000
0001
0010
0100
0001
0010
0100
,
1000
0000
1010
0000
0000
0000
0010
0000
1000
0001
0000
1000
0001
0000
0100
0000
,
1000
0100
0001
0010
0100
0001
0100
1000
,
0010
0210
0000
0301
0011
0000
1010
0000
,
1100
0000
0000
0000
1000
0000
0100
0000
0010
0000
0001
0100
0010
0000
0100
0000
,
0001
0010
0001
0000
0100
0000
1000
0000
0100
0010
0000
0100
0010
0000
0001
0000
,
0010
1000
0100
0001
0100
0010
0001
1000
,
0100
0000
0010
0000
1000
0000
0010
0000
0001
1000
0000
0001
1000
0000
0100
0000
,
0001
0000
1000
0000
0010
0000
0100
0000
1000
0000
1010
0000
0000
0011
0000
0000
,
0101
1000
1000
0010
0200
0000
0301
0010
,
0110
0000
0100
1100
0000
1010
0000
0011
,
0000
0000
0101
0000
0100
0010
1000
0000
0010
0100
0001
0000
0100
0010
1000
0000
,
0002
0000
0000
0000
0013
0000
0010
0000
0010
0000
0010
0000
0100
1000
0010
0000
,
0200
0000
0000
0000
,
0000
0000
0000
0000
0000
0301
0010
0100
,
1000
0020
0000
0000
0000
0000
0000
0000
,
0130
0001
0010
0100
2000
0000
0000
0000
,
0000
3002
0000
0000
0000
0000
1003
0100
,
0010
0001
0100
0010
1000
0002
0000
0203
,
0000
2300
0000
0000
3002
0000
0023
0000
,
2030
0000
0000
3200
0000
0320
0000
0032
,
0000
0203
0000
0000
0001
0000
1000
0000
,
0001
0000
0000
0320
0000
2030
0000
3002
,
0000
0023
0000
0000
1000
0000
0001
0000
,
1000
0000
0000
0000
0031
0000
0010
0000
0100
0000
1000
0000
0000
0010
0000
0000
,
0001
0020
0000
0000
0100
0000
0001
0000
,
1000
0000
0000
0230
0000
0302
0000
1003
,
0000
2100
0000
3010
0000
0012
0103
0000
,
0110
0000
0010
1000
0010
0101
0000
0100
,
2010
0000
0000
0100
0000
0100
0000
0100
,
0000
0100
0000
0100
0000
0100
3000
0100
,
0012
0000
0000
0100
0000
0100
0000
0100
,
0000
0100
0000
0100
0000
0100
0003
0100
,
0120
0000
0000
0001
0000
0100
0000
1000
,
0000
0100
0000
0001
0000
0100
0030
1000
,
0210
0000
0000
0001
0000
0010
0000
1000
,
0000
0000
0010
0000
0300
0000
0001
0000
0010
0100
0010
0000
0100
0010
0100
0000
,
2002
0000
3003
0010
1000
0100
0001
0100
,
1000
0010
0100
0000
0001
0000
0010
0000
1000
0000
0010
0000
0001
0000
0100
0000
,
0010
0100
0001
0000
1000
0000
0100
0000
0001
0000
0100
0000
1000
0000
0010
0000
,
0100
0001
0010
0000
1000
0000
0010
0000
0001
0000
0100
0000
1000
0000
0100
0000
,
0001
0010
0100
0000
0010
0000
0100
0000
0010
0100
1000
0000
0010
0000
0100
0000
,
0001
0100
0010
0000
0100
0000
0010
0000
1000
0010
0100
0000
0010
0000
0100
0000
,
0001
1000
0100
0000
1000
0001
0010
0000
0001
1000
0100
0000
0010
0000
0010
0000
,
0020
0000
0000
0000
0031
0100
0010
1000
0001
0100
0010
1000
0001
0100
0010
1000
,
0001
0000
0000
2002
0000
0000
0000
0000
,
0000
0000
0000
0000
,
0000
0000
0000
0000
,
0000
0000
0000
0000
,
0000
0000
0000
0000
,
0000
0000
0000
0000
,
3003
0000
0000
0000
;

//---------------dance-double - ----------------
#NOTES:
     dance-double:
     :
     Hard:
     16:
     0.745497,0.986873,0.564369,0.409747,0.255126,675.000000,602.000000,73.000000,53.000000,0.000000,0.000000,0.745497,0.986873,0.564369,0.409747,0.255126,675.000000,602.000000,73.000000,53.000000,0.000000,0.000000:
// measure 0
00000000
00000000
00000000
00000000
,  // measure 1
00000000
00000000
00000000
00000000
,  // measure 2
00000000
00000000
00000000
00000000
,  // measure 3
00000000
00000000
00000000
00000000
,  // measure 4
00000000
00000000
00000000
00000000
,  // measure 5
00000000
00000000
00000000
00000000
,  // measure 6
00000000
00000000
00000000
00000000
,  // measure 7
00000000
00000000
00000000
00000000
,  // measure 8
00022000
00000000
00000000
00033000
,  // measure 9
00011000
00000000
00000000
01001000
00000000
00000000
01100000
00000000
,  // measure 10
10100000
00000000
00000000
11000000
00000000
00000000
01010000
00000000
,  // measure 11
00011000
00000000
00000000
00010010
00000000
00000000
00000110
00000000
,  // measure 12
00000101
00000000
00000000
00000011
00000000
00001010
00000000
00001000
,  // measure 13
00010000
00000000
00000000
01010000
00000000
00000000
11000000
00000000
,  // measure 14
10100000
00000000
00000000
01100000
00000000
00000000
00110000
00000000
,  // measure 15
00011000
00000000
00000000
00001100
00000000
00000000
00000110
00000000
,  // measure 16
00000101
00000000
00000000
00000011
00000000
00000000
00001010
00000000
,  // measure 17
00011000
00000000
00001000
00010000
00000000
00010000
01000000
00000000
,  // measure 18
10000000
00000000
00100000
01000000
00000000
01000000
00010000
00000000
,  // measure 19
00100000
00000000
01000000
00010000
00000000
00010000
00001000
00000000
,  // measure 20
00000010
00000000
00000001
00000100
00000000
00000100
00000010
00001000
,  // measure 21
00001010
00000000
00000010
00000100
00000000
00000100
00001000
00000000
,  // measure 22
00011000
00000000
00010000
00100000
00000000
00100000
10000000
00000000
,  // measure 23
11000000
00000000
01000000
00100000
00000000
00100000
00010000
00000000
,  // measure 24
01010000
00000000
00000000
00000000
01000000
00000000
00100000
00000000
00010000
00001000
00010000
00000000
00001000
00010000
00001000
00000000
,  // measure 25
00000200
00000000
00000000
00000000
00000310
00001010
00001000
00000100
,  // measure 26
00000010
00000002
00000000
00000000
00002003
00000000
00000000
00003100
,  // measure 27
00000000
00020200
00030300
00000000
00011000
00000000
01001000
00000000
,  // measure 28
02020000
00000000
00000000
00000000
03030000
00000000
00000000
00000000
00010000
00100000
00010000
00000000
20000000
00000000
00000000
00000000
,  // measure 29
31000000
00200000
00000000
00000000
00310000
01010000
01000000
00001000
,  // measure 30
00020000
00000000
00000000
00030100
00000000
00001100
00000000
00001010
,  // measure 31
00000000
00000011
00000000
00000101
00000100
00000000
00001100
00000000
,  // measure 32
00011000
00000000
00000000
00000000
00001000
00000000
00010000
00000000
00100000
01000000
00100000
00000000
10000000
00000000
11000000
00000000
,  // measure 33
00000000
00000000
01000000
00000000
00010000
00000000
00001000
00000000
00100000
00010000
00000000
00010000
00100000
00000000
00001000
00000000
,  // measure 34
00010000
00001000
00000100
00000001
00000010
00000100
00000100
00000100
,  // measure 35
00000000
00000000
00001000
00000000
00000100
00000000
00010000
00000000
00001000
00100000
00000000
00100000
00001000
00000000
00010000
00000000
,  // measure 36
01000000
00000000
10000000
00000000
00100000
00000000
00100000
00000000
00100000
00000000
01000000
00000000
00000000
00010000
00000000
00000000
,  // measure 37
00110000
00000000
00200000
00000000
00000000
00000000
00301000
00000000
00001000
00010000
00000100
00000000
00001000
00000000
00000100
00000000
,  // measure 38
00000010
00000001
00000010
00000100
00000010
00000001
00000100
00001000
,  // measure 39
00010000
00012000
00000000
01003000
00000000
01010000
10000000
00000000
,  // measure 40
11000000
00000000
00000000
00000000
01100000
00000000
01000000
00000000
00010000
00001000
00010000
00000000
00001000
00010000
00001000
00000000
,  // measure 41
00000200
00000000
00000301
00000010
00000100
00001000
00000100
00010000
,  // measure 42
00001000
00000000
00010000
00001000
00100000
00010000
00100000
01000000
,  // measure 43
10000000
00000000
00100000
00010000
00001000
00010000
00100000
00010000
,  // measure 44
00001000
00000000
00000100
00000010
00000100
00000000
00001000
00000000
00000100
00000000
00000001
00000000
00000010
00000000
00000100
00000000
,  // measure 45
00002000
00000000
00003010
00010010
00000000
00010000
00011000
00000000
,  // measure 46
00101000
00000000
00000000
00000000
00100000
00000000
01000000
00000000
10000000
00100000
10000000
00000000
00010000
00100000
00010000
00000000
,  // measure 47
01000000
00100000
01000000
00000000
00010000
00000000
00100000
00001000
00020000
00000000
00000000
00000000
00030100
00000000
00001000
00000000
,  // measure 48
00001100
00000000
00000000
00000000
00000100
00000010
00000001
00000000
00001000
00000010
00000100
00000010
00001000
00000010
00000100
00000000
,  // measure 49
00000000
00000000
00000110
00000000
00000000
00000000
00000001
00000000
00000100
00001000
00000000
00001000
00000100
00000000
00000010
00000000
,  // measure 50
00010000
00000000
00000000
00000000
00001000
00010000
00001000
00000000
00010000
00000000
00100000
00000000
01000000
00100000
01000000
00000000
,  // measure 51
00100000
10000000
01000000
00100000
00010000
00000000
00100000
00001000
,  // measure 52
00010000
00000000
00000100
00001000
00000100
00000010
00000001
00000100
,  // measure 53
00001000
00000000
00010000
00000000
00100000
00000000
10000000
00000000
01000000
00100000
01000000
00000000
00010000
00000000
00001000
00000000
,  // measure 54
00000010
00000100
00000010
00000000
00000001
00000000
00000100
00000000
00001000
00010000
00001000
00000000
00010000
00000000
00100000
00000000
,  // measure 55
10000000
01000000
10000000
00000000
00010000
01000000
00010000
01000000
00010000
00000000
00100000
00000000
00101000
00000000
00000000
00000000
,  // measure 56
00001000
00000000
00000100
00000000
00000001
00000000
00000010
00000000
00000100
00000010
00000100
00000000
00000010
00000100
00000010
00000000
,  // measure 57
00002000
00000000
00000000
00000000
00000000
00000000
00013000
00000000
00000000
01000000
00000000
00000000
10000000
00000000
00100000
00000000
,  // measure 58
01000000
00100000
00010000
00001000
00100000
01000000
00010000
00001000
,  // measure 59
00000010
00000000
00000011
00000000
00000000
00000000
00000001
00000000
00000100
00000010
00000000
00000010
00000100
00000000
00000001
00000000
,  // measure 60
00000010
00000100
00010000
00001000
00100000
01000000
10000000
00100000
,  // measure 61
01000000
00000000
01010000
00000000
00000000
00000000
00010000
00000000
10000000
01000000
00000000
01000000
10000000
00000000
00010000
00000000
,  // measure 62
00100000
10000000
00100000
00010000
01000000
00100000
00010000
00001000
,  // measure 63
00000100
00000102
00000000
00000013
00001010
00000000
00011000
00000000
,  // measure 64
00110000
00000000
00000000
00000000
00100000
00000000
10000000
00000000
01000000
00000000
00100000
01000000
00100000
00000000
00010000
00000000
,  // measure 65
00100000
00001000
00100000
00000000
00010000
00000000
00100000
00000000
01000000
10000000
00000000
10000000
01000000
00000000
00010000
00000000
,  // measure 66
00001000
00100000
01000000
00010000
00001000
00000010
00000100
00001000
,  // measure 67
00000010
00000000
00000001
00000000
00000010
00000000
00000100
00000000
00000001
00001000
00000000
00001000
00000001
00000000
00000100
00000000
,  // measure 68
00001000
00000000
00010000
00000000
00100000
00000000
10000000
00000000
01000000
00000000
00100000
00000000
00000000
00010000
00000000
00000000
,  // measure 69
01000000
00001000
00010000
00000100
00000020
00000000
00000031
00000100
,  // measure 70
00001010
00000000
00001000
00001100
00000000
00010100
00000000
01001000
,  // measure 71
00000000
00000000
01010000
00000000
01000000
00100000
10000000
00000000
01000000
00100000
00010000
00000000
00100000
00001000
00010000
00000000
,  // measure 72
00000200
00000000
00000000
00000000
00000310
00000000
00000010
00000000
00000010
00000000
00000010
00000000
00000001
00000100
00001000
00000000
,  // measure 73
00020000
00000000
00000000
00000000
,  // measure 74
00000000
00000000
00000000
00000000
00000000
00031000
00100000
01000000
,  // measure 75
10000000
00200000
00000000
00000000
00000000
00000000
00000000
00000000
,  // measure 76
00310000
00001000
00000100
00000010
00002000
00000000
00000000
00000000
,  // measure 77
00000000
00003002
00000000
00000000
00000000
00000000
00000103
00001000
,  // measure 78
00000100
00001000
00010000
01000000
10000000
00200000
00000000
00320000
,  // measure 79
00000000
00032000
00000000
00000000
00203000
00000000
02300000
00000000
,  // measure 80
03020000
00000000
00000000
00032000
00000000
00003020
00000000
00000230
,  // measure 81
00000000
00020300
00000000
00000000
00001000
00000000
00001000
00000000
,  // measure 82
00001000
00000000
00000000
00230000
00000000
20300000
00000000
32000000
,  // measure 83
00000000
03200000
00000000
00000000
10000000
00000000
10000000
00000000
,  // measure 84
10000000
00000000
00000000
00000000
01300000
00000000
00100000
00000000
00010000
00000000
01000000
00000000
00000000
00001000
00000000
00000000
,  // measure 85
00010000
00000200
00000000
00000000
00001000
00000000
00001000
00000000
,  // measure 86
00001000
00000000
00000000
00000320
00000000
00000032
00000000
00000103
,  // measure 87
00000000
00002100
00000000
00013000
00000000
00210000
10300000
00000000
,  // measure 88
11000000
00000000
01000000
00010000
01000000
00010000
00001000
00000010
,  // measure 89
00000012
00000000
00000000
00000100
00000000
00000100
00000000
00000100
,  // measure 90
00000000
00000100
00000000
00000100
00000000
00000100
00000003
00000100
,  // measure 91
00001020
00000000
00000000
00010000
00000000
00010000
00000000
00010000
,  // measure 92
00000000
00010000
00000000
00010000
00000000
00010000
00000030
00010000
,  // measure 93
00201000
00000000
00000000
01000000
00000000
01000000
00000000
01000000
,  // measure 94
00000000
01000000
00000000
01000000
00000000
01000000
00300000
01000000
,  // measure 95
20010000
00000000
00000000
00100000
00000000
00100000
00000000
00100000
,  // measure 96
00000000
00000000
00100000
00000000
30000000
00000000
00100000
00000000
00010000
00001000
00010000
00000000
00001000
00010000
00001000
00000000
,  // measure 97
00022000
00000000
00033000
00010000
00001000
00000100
00000001
00000010
,  // measure 98
00000100
00000010
00000100
00000000
00000010
00000000
00000001
00000000
00000100
00000000
00001000
00000000
00010000
00000000
01000000
00000000
,  // measure 99
00100000
01000000
00100000
00000000
01000000
00000000
00010000
00000000
00001000
00000000
00100000
00000000
01000000
00000000
10000000
00000000
,  // measure 100
00010000
01000000
00010000
00000000
10000000
00000000
01000000
00000000
00100000
00000000
00001000
00000000
00010000
00000000
00000100
00000000
,  // measure 101
00000010
00000001
00000010
00000000
00000100
00000000
00010000
00000000
00001000
00010000
00001000
00000000
00100000
00000000
01000000
00000000
,  // measure 102
10000000
00100000
10000000
00000000
01000000
00000000
00100000
00000000
00001000
00010000
00001000
00000000
00010000
00000000
00000100
00000000
,  // measure 103
00000010
00000001
00000100
00000000
00000010
00001000
00000100
00000000
00010000
00001000
00100000
00000000
00010000
00000000
00010000
00000000
,  // measure 104
00020000
00000000
00000000
00000000
10030000
01000000
10000000
00000000
00100000
00010000
00100000
00000000
00010000
00001000
00010000
00001000
,  // measure 105
00010000
00000000
00000000
00022000
00000000
00000000
00000000
00000000
,  // measure 106
00000000
00000000
00000000
00000000
,  // measure 107
00000000
00000000
00000000
00000000
,  // measure 108
00000000
00000000
00000000
00000000
,  // measure 109
00000000
00000000
00000000
00000000
,  // measure 110
00000000
00000000
00000000
00000000
,  // measure 111
00033000
00000000
00000000
00000000
;

//---------------dance-single - ----------------
#NOTES:
     dance-single:
     :
     Beginner:
     5:
     0.180024,0.300353,0.046386,0.054118,0.000000,163.000000,157.000000,6.000000,7.000000,0.000000,0.000000,0.180024,0.300353,0.046386,0.054118,0.000000,163.000000,157.000000,6.000000,7.000000,0.000000,0.000000:
0000
0000
0000
0000
,
0000
0000
0000
0000
,
0000
0000
0000
0000
,
0000
0000
0000
0000
,
0000
0000
0000
0000
,
0000
0000
0000
0000
,
0000
0000
0000
0000
,
0000
0000
0000
0000
,
1001
0000
0000
0000
,
1000
0000
0000
0000
,
1000
0000
0000
0000
,
0001
0000
0000
0000
,
0001
0000
0000
0000
,
0100
0000
0000
0000
,
0100
0000
0000
0000
,
0010
0000
0000
0000
,
0010
0000
0000
0000
,
1000
0000
0100
0000
,
1000
0000
0000
0000
,
0001
0000
0010
0000
,
0001
0000
0000
0000
,
0100
0000
0010
0000
,
0100
0000
0000
0000
,
0001
0000
1000
0000
,
0001
0000
1000
0000
,
1001
0000
0000
0000
,
0000
1000
0000
0000
0000
0100
0000
0000
,
0000
0010
0000
0000
0000
0000
0000
0000
,
0000
0001
0000
0000
0000
0010
0000
0000
,
0000
0100
0000
0000
0000
0000
0000
0000
,
0000
1000
0000
0000
0000
0001
0000
0000
,
0000
0100
0000
0000
0000
0000
0000
0000
,
0000
0001
0000
0000
0000
1000
0000
0000
,
0000
0010
0000
0000
0000
0010
0000
0000
,
0000
0100
0000
0000
0000
0100
0000
0000
,
0000
0001
0000
0000
0000
0001
0000
0000
,
0000
1000
0000
0000
0000
1000
0000
0000
,
0000
0100
0000
0000
0000
0010
0000
0000
,
0000
0001
0000
0000
0000
1000
0000
0000
,
0000
0100
0000
0000
0000
0100
0000
0100
,
0000
0100
0000
0000
0000
0100
0000
0000
,
1001
0000
0000
0000
0000
1000
0000
0000
,
0000
0001
0000
0000
0000
1000
0000
0000
,
0000
0001
0000
0000
0000
0010
0000
0000
,
0000
0001
0000
0000
0000
0010
0000
0000
,
0000
0100
0000
0000
0000
0010
0000
0000
,
0000
0100
0000
0000
0000
0010
0000
0000
,
0000
0100
0000
0000
0000
1000
0000
0000
,
0000
0100
0000
0000
0000
1000
0000
1000
,
0000
1000
0000
0000
0000
0001
0000
0000
,
0000
0100
0000
0000
0000
0001
0000
0000
,
0000
1000
0000
0000
0000
0100
0000
0000
,
0000
1000
0000
0000
0000
0001
0000
0000
,
0000
0010
0000
0000
0000
0001
0000
0000
,
0000
1000
0000
0000
0000
0010
0000
0000
,
0000
1000
0000
0000
0000
0001
0000
0000
,
0000
0010
0000
0010
0000
0010
0000
0000
,
1001
0000
0000
0000
,
0000
1000
0000
0000
0000
0100
0000
0000
,
0000
1000
0000
0000
0000
0100
0000
0000
,
0000
1000
0000
0000
0000
1000
0000
0000
,
0000
0001
0000
0000
0000
0000
0000
0000
,
0000
0010
0000
0000
0000
0001
0000
0000
,
0000
0010
0000
0000
0000
0010
0000
0000
,
0000
0010
0000
0000
0000
0000
0000
0000
,
0000
0001
0000
0000
0000
1000
0000
0000
,
0000
0001
0000
0000
0000
0100
0000
0000
,
0000
0010
0000
0000
0000
1000
0000
0000
,
0000
0001
0000
0000
0000
1000
0000
0000
,
0000
0010
0000
0000
0000
0010
0000
0000
,
0000
0010
0000
0000
0000
0010
0000
0000
,
0000
0100
0000
0000
0000
0010
0000
0000
,
0000
0100
0000
0100
0000
0100
0000
0000
,
0200
0000
0000
0000
,
0300
0000
0000
0000
,
0000
0002
0000
0000
0000
0000
0000
0000
,
0000
0003
0000
0000
0000
0000
0000
0000
,
0000
2000
0000
0000
0000
0000
0000
0000
,
0000
3000
0000
0000
0000
0000
0000
0000
,
0000
0020
0000
0000
0000
0000
0000
0000
,
0000
0030
0000
0000
0000
0010
0000
0010
,
0000
0010
0000
0000
0000
0000
0000
0000
,
0000
1000
0000
0000
0000
0000
0000
0000
,
0000
0100
0000
0000
0000
0000
0000
0000
,
0000
0010
0000
0000
0000
0000
0000
0000
,
0000
0001
0000
0000
0000
0000
0000
0000
,
0000
1000
0000
0000
0000
0000
0000
0000
,
0000
0100
0000
0000
0000
0100
0000
0000
,
0000
0200
0000
0000
0000
0000
0300
0000
,
0100
0000
0000
0000
,
1000
0000
0000
0000
,
0010
0000
0000
0000
,
0100
0000
0000
0000
,
0001
0000
0000
0000
,
0010
0000
0000
0000
,
0100
0000
0000
0000
,
1000
0000
0000
0000
,
1001
0000
0000
0000
0000
1000
0000
0000
,
0000
0010
0000
0000
0000
1000
0000
0000
,
0000
0001
0000
0000
0000
0010
0000
0000
,
0000
0001
0000
0000
0000
1000
0000
0000
,
0000
0100
0000
0000
0000
1000
0000
0000
,
0000
0001
0000
0000
0000
0100
0000
0000
,
0000
0001
0000
0000
0000
0010
0000
0000
,
0000
0100
0000
0100
0000
0100
0000
0100
,
0000
0000
0000
2002
0000
0000
0000
0000
,
0000
0000
0000
0000
,
0000
0000
0000
0000
,
0000
0000
0000
0000
,
0000
0000
0000
0000
,
0000
0000
0000
0000
,
3003
0000
0000
0000
;

//---------------dance-single - ----------------
#NOTES:
     dance-single:
     :
     Easy:
     9:
     0.325810,0.557798,0.139159,0.077311,0.000000,295.000000,277.000000,18.000000,10.000000,0.000000,0.000000,0.325810,0.557798,0.139159,0.077311,0.000000,295.000000,277.000000,18.000000,10.000000,0.000000,0.000000:
0000
0000
0000
0000
,
0000
0000
0000
0000
,
0000
0000
0000
0000
,
0000
0000
0000
0000
,
0000
0000
0000
0000
,
0000
0000
0000
0000
,
0000
0000
0000
0000
,
0000
0000
0000
0000
,
2002
0000
0000
3003
,
1000
0000
0010
0000
,
1000
0000
0010
0000
,
0100
0000
0001
0000
,
0100
0000
0001
0000
,
0010
0000
0001
0000
,
0010
0000
0001
0000
,
1000
0000
0100
0000
,
1000
0000
0100
0000
,
1000
0001
1000
0000
,
0010
0000
0100
0000
,
0001
1000
0001
0000
,
0100
0000
0010
0000
,
1000
0001
0100
0000
,
0001
0000
1000
0000
,
0001
1000
0010
0000
,
1000
0000
0001
0000
,
1001
0000
0000
0000
0100
0100
0000
0000
,
0000
0010
0000
0000
1000
0000
0000
0001
,
0000
0100
0000
0000
0010
0000
0100
0000
,
0010
0000
0000
1001
0000
1001
0000
0000
,
0000
0110
0000
0000
0000
0000
0010
0100
,
0010
0000
0000
1000
0000
0100
0000
0010
,
0000
0001
0000
0000
0100
0000
0010
0000
,
0100
0000
0000
0010
0000
0100
0000
0110
,
0000
1000
0000
0100
0000
1000
0000
0000
,
0000
0001
0000
0010
0000
0001
0000
0000
,
0000
1000
0000
0010
0000
1000
0000
0000
,
0000
0001
0000
0100
0000
0001
0000
0000
,
0000
1000
0000
0001
0000
1000
0000
0000
,
0000
0010
0000
0100
0000
0010
0000
0000
,
0000
1000
0000
0001
0000
1000
0001
0000
,
1001
0000
0000
0010
0000
0010
0000
0010
,
0100
0000
0000
0001
0000
1000
0000
0100
,
0000
0010
0000
0001
0000
0010
0000
0000
,
0000
0001
0000
1000
0000
0001
0000
0010
,
0000
0100
0000
1000
0000
0100
0000
0000
,
0000
1000
0000
1000
0000
0010
0000
0100
,
0000
0001
0000
1000
0000
0001
0000
0000
,
0000
0001
0000
0001
0000
0100
0000
0010
,
0000
1000
0000
0001
0000
1000
0000
0010
,
0000
0110
0000
0100
0000
0001
0000
0010
,
0000
0000
0000
0010
0000
1000
0000
0100
,
0000
0000
0000
0100
0000
0001
0000
0010
,
0000
0000
0000
0010
0000
1000
0000
0100
,
0000
0000
0000
0100
0000
0001
0000
0010
,
0000
0100
0000
1000
0000
0100
0000
0010
,
0000
0001
0000
1000
0000
0010
0000
0100
,
0000
0001
0000
0100
0000
0010
0000
1000
,
0001
0000
0000
1000
0000
1000
0000
0100
,
0000
0010
0000
0000
0001
0000
0000
0100
,
0000
0010
0000
0000
1000
0000
0001
0000
,
1001
0000
0000
0010
0000
0010
0000
0000
,
0000
1000
0000
0001
0000
0010
0000
0100
,
0000
1000
0000
0100
0000
0010
0000
0100
,
0000
0110
0000
0000
1000
0000
0001
0000
,
1000
0000
0000
0010
0000
0100
0000
0110
,
0000
0010
0000
1000
0000
0001
0000
0000
,
0000
0100
0000
1000
0000
0001
0000
0000
,
0000
0010
0000
1000
0000
0001
0000
0000
,
0000
0100
0000
0001
0000
1000
0000
0000
,
0000
0010
0000
0001
0000
1000
0000
0000
,
0000
0100
0000
0001
0000
1000
0000
0000
,
0000
0100
0000
0100
0000
0100
0000
0000
,
0110
0000
0000
0001
0000
0010
0000
1000
,
0200
0000
0000
0000
,
0300
0000
0000
0000
,
0000
0020
0000
0000
0000
0000
0000
0000
,
0000
0030
0000
0000
0000
0000
0000
0000
,
0000
0002
0000
0000
0000
0000
0000
0000
,
0000
0003
0000
0000
0000
0000
0000
0000
,
0000
2000
0000
0000
0000
0000
0000
0000
,
0000
3000
0000
0000
0000
0000
0000
0000
,
0000
0010
0000
0000
0000
0100
0000
0000
,
0000
0010
0000
0000
0000
0001
0000
0000
,
0000
0010
0000
0000
0000
0100
0000
0000
,
0000
0010
0000
0000
0000
1000
0000
0000
,
0000
0010
0000
0000
0000
0001
0000
0000
,
0000
0010
0000
0000
0000
0100
0000
0000
,
0000
0010
0000
0000
0000
1000
0000
0000
,
0000
0010
0000
0001
0000
0010
0000
0100
,
0010
0000
0000
1000
0000
0000
0100
0000
,
0010
0000
0000
0001
0000
0000
0010
0000
,
0100
0000
0000
1000
0000
0000
0100
0000
,
0010
0000
0000
0001
0000
0100
0000
0010
,
1000
0000
0000
0100
0000
0000
0001
0000
,
0010
0000
0000
1000
0000
0000
0100
0000
,
0001
0000
0000
0010
0000
0000
1000
0000
,
0100
0000
0000
0001
0000
0010
0000
0100
,
0010
0000
0000
1000
0000
0100
0000
0010
,
0000
0100
0000
1000
0000
0100
0000
0010
,
0000
0001
0000
0010
0000
0100
0000
0010
,
0000
0001
0000
0100
0000
0010
0000
1000
,
0000
1010
0000
0010
0000
0100
0000
0001
,
0000
0101
0000
0100
0000
0010
0000
1000
,
0000
1100
0000
0001
0000
0011
0000
1000
,
0000
2002
0000
0000
0000
0000
0000
0000
,
0000
3003
0000
0220
0000
0000
0000
0000
,
0000
0000
0000
0000
,
0000
0000
0000
0000
,
0000
0000
0000
0000
,
0000
0000
0000
0000
,
0000
0000
0000
0000
,
0330
0000
0000
0000
;

//---------------dance-double - ----------------
#NOTES:
     dance-double:
     :
     Easy:
     9:
     0.322497,0.557798,0.146891,0.061849,0.000000,292.000000,273.000000,19.000000,8.000000,0.000000,0.000000,0.322497,0.557798,0.146891,0.061849,0.000000,292.000000,273.000000,19.000000,8.000000,0.000000,0.000000:
// measure 0
00000000
00000000
00000000
00000000
,  // measure 1
00000000
00000000
00000000
00000000
,  // measure 2
00000000
00000000
00000000
00000000
,  // measure 3
00000000
00000000
00000000
00000000
,  // measure 4
00000000
00000000
00000000
00000000
,  // measure 5
00000000
00000000
00000000
00000000
,  // measure 6
00000000
00000000
00000000
00000000
,  // measure 7
00000000
00000000
00000000
00000000
,  // measure 8
00022000
00000000
00000000
00033000
,  // measure 9
00001000
00000000
00100000
00000000
,  // measure 10
00001000
00000000
00010000
00000000
,  // measure 11
00000010
00000000
00010000
00000000
,  // measure 12
00001000
00000000
01000000
00000000
,  // measure 13
00001000
00000000
00010000
00000000
,  // measure 14
00000100
00000000
00010000
00000000
,  // measure 15
00001000
00000000
00100000
00000000
,  // measure 16
00010000
00000000
10000000
00000000
,  // measure 17
00100000
01000000
00100000
00000000
,  // measure 18
00010000
00000000
00001000
00000000
,  // measure 19
00000100
00000010
00000100
00000000
,  // measure 20
00001000
00000000
00010000
00000000
,  // measure 21
00100000
10000000
01000000
00000000
,  // measure 22
00010000
00000000
00001000
00000000
,  // measure 23
00000010
00000001
00000100
00000000
,  // measure 24
00001000
00000000
00010000
00000000
,  // measure 25
00011000
00000000
00000000
00000000
00100000
00100000
00000000
00000000
,  // measure 26
00000000
00010000
00000000
00000000
01000000
00000000
00000000
00100000
,  // measure 27
00000000
10000000
00000000
00000000
00010000
00000000
01000000
00000000
,  // measure 28
00010000
00000000
00000000
10000000
00000000
10010000
00000000
00000000
,  // measure 29
00000000
01100000
00000000
00000000
00000000
00000000
01000000
00100000
,  // measure 30
01000000
00000000
00000000
00010000
00000000
00100000
00000000
00001000
,  // measure 31
00000000
00010000
00000000
00000000
00000100
00000000
00000100
00000000
,  // measure 32
00001100
00000000
00000000
00000001
00000000
00000001
00000000
00000011
,  // measure 33
00000000
00000010
00000000
00000000
00000000
00001000
00000000
00000000
,  // measure 34
00000000
00010000
00000000
00000000
00000000
00100000
00000000
00000000
,  // measure 35
00000000
10000000
00000000
00000000
00000000
01000000
00000000
00000000
,  // measure 36
00000000
00010000
00000000
00000000
00000000
00001000
00000000
00000000
,  // measure 37
00000000
00000010
00000000
00000000
00000000
00000001
00000000
00000000
,  // measure 38
00000000
00000100
00000000
00000000
00000000
00001000
00000000
00000000
,  // measure 39
00000000
00010000
00000000
00001000
00000000
00010000
00001000
00000000
,  // measure 40
00011000
00000000
00000000
00100000
00000000
00100000
00000000
00100000
,  // measure 41
00010000
00000000
00000000
01000000
00000000
00100000
00000000
10000000
,  // measure 42
00000000
00100000
00000000
10000000
00000000
01000000
00000000
00000000
,  // measure 43
00000000
00100000
00000000
00001000
00000000
00010000
00000000
00001000
,  // measure 44
00000000
00010000
00000000
00000100
00000000
00000010
00000000
00000000
,  // measure 45
00000000
00000001
00000000
00000001
00000000
00000100
00000000
00000010
,  // measure 46
00000000
00000100
00000000
00000010
00000000
00010000
00000000
00000000
,  // measure 47
00000000
00001000
00000000
00001000
00000000
00100000
00000000
01000000
,  // measure 48
00000000
00100000
00000000
01000000
00000000
10000000
00000000
00100000
,  // measure 49
00000000
01100000
00000000
01000000
00000000
00010000
00000000
00100000
,  // measure 50
00000000
00000000
00000000
00100000
00000000
00001000
00000000
00010000
,  // measure 51
00000000
00000000
00000000
00010000
00000000
00000100
00000000
00001000
,  // measure 52
00000000
00000000
00000000
00001000
00000000
00000100
00000000
00000010
,  // measure 53
00000000
00000000
00000000
00000010
00000000
00000001
00000000
00000100
,  // measure 54
00000000
00001000
00000000
00010000
00000000
00100000
00000000
10000000
,  // measure 55
00000000
01000000
00000000
00100000
00000000
01000000
00000000
00010000
,  // measure 56
00000000
00001000
00000000
00010000
00000000
00000100
00000000
00000010
,  // measure 57
00000100
00000000
00000000
00001000
00000000
00001000
00000000
00000010
,  // measure 58
00000000
00000001
00000000
00000000
00000010
00000000
00000000
00000100
,  // measure 59
00000000
00001000
00000000
00000000
00010000
00000000
00001000
00000000
,  // measure 60
00011000
00000000
00000000
01000000
00000000
01000000
00000000
00000000
,  // measure 61
00000000
10100000
00000000
00000000
00000000
10000000
00000000
01000000
,  // measure 62
00000000
00100000
00000000
01000000
00000000
00010000
00000000
00001000
,  // measure 63
00000000
00011000
00000000
00000000
00000100
00000000
00001000
00000000
,  // measure 64
00000100
00000000
00000000
00000010
00000000
00000001
00000000
00000011
,  // measure 65
00000000
00000010
00000000
00001000
00000000
00010000
00000000
00000000
,  // measure 66
00000000
00001000
00000000
00010000
00000000
00100000
00000000
00000000
,  // measure 67
00000000
10000000
00000000
01000000
00000000
00010000
00000000
00000000
,  // measure 68
00000000
01000000
00000000
00010000
00000000
00001000
00000000
00000000
,  // measure 69
00000000
00010000
00000000
00001000
00000000
00000100
00000000
00000000
,  // measure 70
00000000
00001000
00000000
00000100
00000000
00000001
00000000
00000000
,  // measure 71
00000000
00000010
00000000
00000100
00000000
00000010
00000000
00000000
,  // measure 72
00000110
00000000
00000000
00000001
00000000
00000100
00000000
00001000
,  // measure 73
00020000
00000000
00000000
00000000
,  // measure 74
00030000
00000000
00000000
00000000
,  // measure 75
00000000
00002000
00000000
00000000
00000000
00000000
00000000
00000000
,  // measure 76
00000000
00003000
00000000
00000000
00000000
00000000
00000000
00000000
,  // measure 77
00000000
00020000
00000000
00000000
00000000
00000000
00000000
00000000
,  // measure 78
00000000
00030000
00000000
00000000
00000000
00000000
00000000
00000000
,  // measure 79
00000000
00002000
00000000
00000000
00000000
00000000
00000000
00000000
,  // measure 80
00000000
00003000
00000000
00000000
00000000
00000000
00000000
00000000
,  // measure 81
00000000
00010000
00000000
00000000
00000000
01000000
00000000
00000000
,  // measure 82
00000000
10000000
00000000
00000000
00000000
00100000
00000000
00000000
,  // measure 83
00000000
00010000
00000000
00000000
00000000
00001000
00000000
00000000
,  // measure 84
00000000
00000100
00000000
00000000
00000000
00000001
00000000
00000000
,  // measure 85
00000000
00000010
00000000
00000000
00000000
00001000
00000000
00000000
,  // measure 86
00000000
00010000
00000000
00000000
00000000
00100000
00000000
00000000
,  // measure 87
00000000
10000000
00000000
00000000
00000000
01000000
00000000
00000000
,  // measure 88
00000000
00010000
00000000
00001000
00000000
00010000
00000000
00001000
,  // measure 89
00010000
00000000
00000000
00000100
00000000
00000000
00001000
00000000
,  // measure 90
00000100
00000000
00000000
00000010
00000000
00000000
00000001
00000000
,  // measure 91
00000100
00000000
00000000
00001000
00000000
00000000
00010000
00000000
,  // measure 92
00001000
00000000
00000000
00100000
00000000
01000000
00000000
10000000
,  // measure 93
00100000
00000000
00000000
00010000
00000000
00000000
00100000
00000000
,  // measure 94
01000000
00000000
00000000
00010000
00000000
00000000
00100000
00000000
,  // measure 95
00001000
00000000
00000000
00010000
00000000
00000000
00000100
00000000
,  // measure 96
00001000
00000000
00000000
00000100
00000000
00000010
00000000
00000001
,  // measure 97
00000100
00000000
00000000
00001000
00000000
00010000
00000000
00100000
,  // measure 98
00000000
00010000
00000000
00001000
00000000
00010000
00000000
00100000
,  // measure 99
00000000
00010000
00000000
00001000
00000000
00000010
00000000
00001000
,  // measure 100
00000000
00010000
00000000
00001000
00000000
00000010
00000000
00000001
,  // measure 101
00000000
00000101
00000000
00000100
00000000
00001000
00000000
00010000
,  // measure 102
00000000
00011000
00000000
00001000
00000000
00010000
00000000
00100000
,  // measure 103
00000000
10100000
00000000
10000000
00000000
11000000
00000000
01000000
,  // measure 104
00000000
01010000
00000000
00010000
00000000
00001000
00000000
00010000
,  // measure 105
00000000
00000000
00000000
00022000
00000000
00000000
00000000
00000000
,  // measure 106
00000000
00000000
00000000
00000000
,  // measure 107
00000000
00000000
00000000
00000000
,  // measure 108
00000000
00000000
00000000
00000000
,  // measure 109
00000000
00000000
00000000
00000000
,  // measure 110
00000000
00000000
00000000
00000000
,  // measure 111
00033000
00000000
00000000
00000000
;

//---------------dance-single - ----------------
#NOTES:
     dance-single:
     :
     Medium:
     13:
     0.520191,0.729428,0.340168,0.139159,0.007731,471.000000,427.000000,44.000000,18.000000,0.000000,0.000000,0.520191,0.729428,0.340168,0.139159,0.007731,471.000000,427.000000,44.000000,18.000000,0.000000,0.000000:
0000
0000
0000
0000
,
0000
0000
0000
0000
,
0000
0000
0000
0000
,
0000
0000
0000
0000
,
0000
0000
0000
0000
,
0000
0000
0000
0000
,
0000
0000
0000
0000
,
0000
0000
0000
0000
,
2002
0000
0000
3003
,
1000
0000
0000
0010
0000
0000
0100
0000
,
0001
0000
0000
0100
0000
0000
0010
0000
,
1000
0000
0000
0100
0000
0000
0010
0000
,
0001
0000
0000
0010
0000
0100
0000
1000
,
0001
0000
0000
0100
0000
0000
1000
0000
,
0100
0000
0000
0010
0000
0000
0001
0000
,
0010
0000
0000
1000
0000
0000
0100
0000
,
0010
0000
0000
0001
0000
0000
1000
0000
,
1001
0000
0000
0001
0000
0000
0100
0000
,
0010
0000
0000
1000
0000
0000
0010
0010
,
0100
0000
0000
0001
0000
0000
0010
0000
,
0100
0000
0000
1000
0000
0010
0010
0100
,
0100
0000
0000
0010
0000
0000
1000
0000
,
0010
0000
0000
0100
0000
0000
0001
0001
,
1000
0000
0000
0100
0000
0000
0010
0000
,
0001
0000
0000
0100
0000
0010
0010
0100
,
0220
0000
0330
0000
1000
1000
0100
0010
,
0001
0100
0000
0000
1000
0000
0000
0001
,
0000
0010
0000
0000
1000
0000
0100
0000
,
0020
0000
0000
0031
0000
0101
0100
0010
,
1000
0200
0000
0000
0000
0000
1300
0010
,
0100
0000
0000
0101
0000
1010
0000
1100
,
0000
0011
0000
0000
0001
0000
1000
0000
,
1001
0000
0000
0110
0000
1010
0000
0101
,
0000
0001
0010
0001
0000
1000
0100
1000
,
0000
0001
0100
0001
0000
1000
0010
1000
,
0000
0010
0100
0010
0000
1000
0001
1000
,
0000
0000
0001
0000
0100
0000
0010
0000
1000
0000
0100
0000
0000
0100
0000
0000
,
0100
0010
0001
0010
0000
0100
1000
0100
,
0000
1000
0010
0100
0000
0001
0100
0010
,
0000
1010
0000
0101
0000
0100
0010
0000
,
0110
0000
0100
0001
0000
0001
0010
0100
,
2000
0000
3010
0010
0000
0001
0000
0010
,
0000
1000
0000
0010
0000
0001
0000
0010
,
1000
0000
1000
0100
0000
0001
0000
0100
,
0000
1000
0000
0100
0000
0001
0000
0100
,
1000
0000
1000
0010
0100
0010
0001
0000
,
0001
0000
0010
0100
0010
1000
0100
0010
,
0001
0100
0000
0100
0000
1000
0000
1000
,
0000
0010
0000
0010
0000
0001
0010
0100
,
1000
0010
0000
0110
0000
0100
0000
0101
,
0000
0001
0000
1001
0000
1000
0100
0010
,
0000
0001
0000
0011
0000
0010
0000
0110
,
0000
0100
0000
1100
0000
1000
0010
0100
,
0000
0100
0001
0100
0010
1000
0000
0001
,
0000
0010
0100
1000
0100
0010
0000
0001
,
0000
0100
0010
0100
0010
1000
0001
1000
,
0001
0010
0100
1000
0001
0100
0010
1000
,
0200
0000
0000
0310
0000
0010
0000
0001
,
0100
1000
0000
0100
0001
0000
0010
0100
,
0000
1100
0000
0000
1010
0000
0011
0000
,
0101
0000
0100
1000
0000
1001
0000
0100
,
0000
0220
0000
0330
0000
0010
1000
0100
,
0001
0000
0100
0010
0000
0001
0000
0100
,
0000
1010
0000
0010
0001
0000
0100
0000
,
1000
0000
0010
0100
0001
0100
0000
0110
,
0000
0010
1000
0100
0000
0010
0001
0100
,
0000
0010
1000
0010
0100
0001
0100
0010
,
0000
1000
0100
1000
0000
0001
0010
0001
,
0000
0000
1000
0000
0100
0000
0010
0000
0001
0000
0100
0000
0000
0100
0000
0000
,
0010
1000
0010
0100
0001
0100
0010
1000
,
0100
0000
0010
0001
0000
0100
0000
1100
,
0000
1010
0000
0101
0000
0001
0010
0000
,
1000
0000
0001
0100
1000
0010
0100
0010
,
0210
0000
0000
0000
,
0000
0000
0000
0000
0300
0000
0001
0010
,
0100
2000
0000
0000
0000
0000
0000
0000
,
0000
0000
0000
0000
0000
0000
0000
3000
,
0000
0002
0000
0000
0000
0000
0000
0003
,
0000
0200
0000
0000
0000
0000
0000
0300
,
0000
2000
0000
0000
0000
0000
0000
3000
,
0000
0020
0000
0000
0000
0000
0000
0030
,
0000
0001
0000
0100
0000
0010
0000
0000
,
0000
0010
0000
1000
0000
0100
0000
0000
,
0000
1000
0000
0010
0000
0100
0000
0000
,
0000
0100
0000
0001
0000
0010
0000
0000
,
0000
0001
0000
0100
0000
1000
0000
0100
,
0000
0001
0000
1000
0000
0010
0000
0001
,
0000
0010
0000
1000
0000
0100
0010
0000
,
0110
0000
0100
1000
0001
0010
0100
0000
,
0110
0000
0000
0001
0000
0100
0000
1000
,
0000
0100
0000
0001
0000
0010
0000
0100
,
1000
0000
0000
0010
0000
0001
0000
0010
,
0000
1000
0000
0100
0000
0001
0000
0100
,
0010
0000
0000
0001
0000
0100
0000
1000
,
0000
0001
0000
0010
0000
1000
0000
0100
,
0001
0000
0000
1000
0000
0010
0000
0001
,
0000
0100
0000
1000
0100
0010
0100
0001
,
0010
0000
0000
0110
0000
1000
0000
1010
,
0000
0001
0000
0101
0000
1000
0000
1100
,
0000
0001
0000
0011
0000
1000
0000
1001
,
0000
0010
0000
0110
0000
0001
0000
1001
,
0000
1000
0010
0100
0000
1000
0100
0010
,
0000
0100
0010
0001
0000
0010
0100
0001
,
0000
0010
0100
1000
0010
0001
0010
1000
,
0100
0001
0100
1000
0100
0001
0100
1000
,
0100
0010
0000
2002
0000
0000
0000
0000
,
0000
0000
0000
0000
,
0000
0000
0000
0000
,
0000
0000
0000
0000
,
0000
0000
0000
0000
,
0000
0000
0000
0000
,
3003
0000
0000
0000
;

//---------------dance-double - ----------------
#NOTES:
     dance-double:
     :
     Medium:
     13:
     0.506938,0.729428,0.293781,0.139159,0.007731,459.000000,421.000000,38.000000,18.000000,0.000000,0.000000,0.506938,0.729428,0.293781,0.139159,0.007731,459.000000,421.000000,38.000000,18.000000,0.000000,0.000000:
// measure 0
00000000
00000000
00000000
00000000
,  // measure 1
00000000
00000000
00000000
00000000
,  // measure 2
00000000
00000000
00000000
00000000
,  // measure 3
00000000
00000000
00000000
00000000
,  // measure 4
00000000
00000000
00000000
00000000
,  // measure 5
00000000
00000000
00000000
00000000
,  // measure 6
00000000
00000000
00000000
00000000
,  // measure 7
00000000
00000000
00000000
00000000
,  // measure 8
00022000
00000000
00000000
00033000
,  // measure 9
00001000
00000000
00000000
00100000
00000000
00000000
00010000
00000000
,  // measure 10
01000000
00000000
00000000
00001000
00000000
00000000
00010000
00000000
,  // measure 11
00000100
00000000
00000000
00001000
00000000
00000000
00000010
00000000
,  // measure 12
00010000
00000000
00000000
00001000
00000000
00100000
00000000
01000000
,  // measure 13
10000000
00000000
00000000
00100000
00000000
00000000
00010000
00000000
,  // measure 14
00001000
00000000
00000000
00000100
00000000
00000000
00000001
00000000
,  // measure 15
00000010
00000000
00000000
00001000
00000000
00000000
00010000
00000000
,  // measure 16
01000000
00000000
00000000
10000000
00000000
00000000
00010000
00000000
,  // measure 17
10010000
00000000
00000000
10000000
00000000
00000000
00100000
00000000
,  // measure 18
01000000
00000000
00000000
00010000
00000000
00000000
00100000
00100000
,  // measure 19
00001000
00000000
00000000
00010000
00000000
00000000
00000100
00000000
,  // measure 20
00001000
00000000
00000000
00000010
00000000
00000100
00000100
00000001
,  // measure 21
00000001
00000000
00000000
00000010
00000000
00000000
00000100
00000000
,  // measure 22
00010000
00000000
00000000
00001000
00000000
00000000
00100000
00100000
,  // measure 23
01000000
00000000
00000000
10000000
00000000
00000000
00100000
00000000
,  // measure 24
00010000
00000000
00000000
00001000
00000000
00010000
00010000
00001000
,  // measure 25
00022000
00000000
00033000
00000000
00010000
00010000
00000100
00001000
,  // measure 26
00000001
00000010
00000000
00000000
00000001
00000000
00000000
00000100
,  // measure 27
00000000
00001000
00000000
00000000
00010000
00000000
00100000
00000000
,  // measure 28
20000000
00000000
00000000
31000000
00000000
01000000
01000000
00100000
,  // measure 29
00010000
00200000
00000000
00000000
00000000
00000000
00301000
00010000
,  // measure 30
00000100
00000000
00000000
00001100
00000000
00000001
00000000
00000011
,  // measure 31
00000000
00001000
00000000
00000000
00010000
00000000
00001000
00000000
,  // measure 32
00011000
00000000
00000000
00110000
00000000
10000000
00000000
11000000
,  // measure 33
00000000
01000000
00100000
00010000
00000000
00100000
00001000
00010000
,  // measure 34
00000000
00001000
00010000
00000100
00000000
00001000
00000100
00000010
,  // measure 35
00000000
00000001
00000100
00001000
00000000
00010000
00100000
10000000
,  // measure 36
00000000
00000000
01000000
00000000
00100000
00000000
01000000
00000000
00010000
00000000
00001000
00000000
00000000
00010000
00000000
00000000
,  // measure 37
00001000
00000100
00000010
00000100
00000000
00000001
00000010
00000100
,  // measure 38
00000000
00001000
00000100
00010000
00000000
00001000
01000000
00100000
,  // measure 39
00000000
10100000
00000000
11000000
00000000
01000000
00010000
00000000
,  // measure 40
00011000
00000000
00001000
00100000
00000000
00100000
00010000
01000000
,  // measure 41
00002000
00000000
00013000
00010000
00000000
00001000
00000000
00000100
,  // measure 42
00000000
00000001
00000000
00000100
00000000
00001000
00000000
00000100
,  // measure 43
00000001
00000000
00000001
00000010
00000000
00001000
00000000
00010000
,  // measure 44
00000000
00100000
00000000
10000000
00000000
01000000
00000000
00010000
,  // measure 45
00001000
00000000
00001000
00100000
01000000
00100000
00010000
00000000
,  // measure 46
00010000
00000000
10000000
01000000
00100000
00010000
01000000
00100000
,  // measure 47
00010000
00001000
00000000
00001000
00000000
00100000
00000000
00100000
,  // measure 48
00000000
01000000
00000000
01000000
00000000
00010000
00001000
00010000
,  // measure 49
00000100
00000010
00000000
00000011
00000000
00000001
00000000
00000101
,  // measure 50
00000000
00000100
00000000
00001100
00000000
00001000
00010000
00100000
,  // measure 51
00000000
10000000
00000000
11000000
00000000
01000000
00000000
01100000
,  // measure 52
00000000
00100000
00000000
00110000
00000000
00010000
01000000
00001000
,  // measure 53
00000000
00010000
00001000
00010000
00000100
00000010
00000000
00000001
,  // measure 54
00000000
00000100
00001000
00000100
00001000
00010000
00000000
00100000
,  // measure 55
00000000
10000000
01000000
10000000
01000000
00100000
00010000
00100000
,  // measure 56
00010000
00100000
00001000
00010000
00000100
00001000
00000100
00000010
,  // measure 57
00000002
00000000
00000000
00000103
00000000
00001000
00000000
00010000
,  // measure 58
00001000
00100000
00000000
01000000
00010000
00000000
01000000
10000000
,  // measure 59
00000000
10100000
00000000
00000000
00110000
00000000
00001000
00000000
,  // measure 60
00011000
00000000
00010000
00000100
00000000
00000110
00000000
00000001
,  // measure 61
00000000
00000202
00000000
00000303
00000000
00000100
00001000
00010000
,  // measure 62
00100000
00000000
10000000
01000000
00000000
00010000
00000000
00001000
,  // measure 63
00000000
00011000
00000000
00000100
00000010
00000000
00000001
00000000
,  // measure 64
00000100
00000000
00001000
00010000
00001000
00100000
00000000
01100000
,  // measure 65
00000000
10000000
00100000
00010000
00000000
00100000
00010000
00001000
,  // measure 66
00000000
00010000
00001000
00100000
00000000
00001000
00010000
00000010
,  // measure 67
00000000
00001000
00000100
00000010
00000000
00000001
00000100
00000010
,  // measure 68
00000000
00000000
00001000
00000000
00000010
00000000
00010000
00000000
00001000
00000000
00100000
00000000
00000000
00100000
00000000
00000000
,  // measure 69
00010000
00100000
01000000
10000000
00010000
00100000
01000000
10000000
,  // measure 70
00100000
00000000
00010000
00001000
00000000
00000100
00000000
00000101
,  // measure 71
00000000
00001000
00000000
00001010
00000000
00010000
00001000
00000000
,  // measure 72
00100000
00000000
01000000
10000000
00100000
00010000
00001000
00000000
,  // measure 73
00021000
00000000
00000000
00000000
,  // measure 74
00000000
00000000
00000000
00000000
00030000
00000000
00001000
00000100
,  // measure 75
00000010
00002000
00000000
00000000
00000000
00000000
00000000
00000000
,  // measure 76
00000000
00000000
00000000
00000000
00000000
00000000
00000000
00003000
,  // measure 77
00000000
00000002
00000000
00000000
00000000
00000000
00000000
00000003
,  // measure 78
00000000
00000020
00000000
00000000
00000000
00000000
00000000
00000030
,  // measure 79
00000000
00002000
00000000
00000000
00000000
00000000
00000000
00003000
,  // measure 80
00000000
00020000
00000000
00000000
00000000
00000000
00000000
00030000
,  // measure 81
00000000
00100000
00000000
00000000
00000000
10000000
00000000
00000000
,  // measure 82
00000000
01000000
00000000
00000000
00000000
00100000
00000000
00000000
,  // measure 83
00000000
00010000
00000000
00000000
00000000
00001000
00000000
00000000
,  // measure 84
00000000
00000100
00000000
00000000
00000000
00000010
00000000
00000000
,  // measure 85
00000000
00000001
00000000
00000100
00000000
00001000
00000000
00000100
,  // measure 86
00000000
00000010
00000000
00010000
00000000
00001000
00000000
01000000
,  // measure 87
00000000
00100000
00000000
00010000
00000000
00100000
10000000
00000000
,  // measure 88
11000000
00000000
01000000
00010000
00001000
00000100
00000001
00000000
,  // measure 89
00000110
00000000
00000000
00000010
00000000
00001000
00000000
00010000
,  // measure 90
00000000
00001000
00000000
00000010
00000000
00001000
00000000
00010000
,  // measure 91
00100000
00000000
00000000
10000000
00000000
01000000
00000000
00010000
,  // measure 92
00000000
01000000
00000000
10000000
00000000
01000000
00000000
00100000
,  // measure 93
00010000
00000000
00000000
01000000
00000000
00001000
00000000
00000100
,  // measure 94
00000000
00001000
00000000
01000000
00000000
00001000
00000000
00000100
,  // measure 95
00000010
00000000
00000000
00000100
00000000
00000001
00000000
00000010
,  // measure 96
00000000
00001000
00000000
00010000
00001000
00010000
00100000
01000000
,  // measure 97
00100000
00000000
00000000
10100000
00000000
10000000
00000000
11000000
,  // measure 98
00000000
01000000
00000000
01010000
00000000
00010000
00000000
00011000
,  // measure 99
00000000
00001000
00000000
00001010
00000000
00000010
00000000
00000011
,  // measure 100
00000000
00000001
00000000
00000101
00000000
00000100
00000000
00001100
,  // measure 101
00000000
00001000
00010000
00100000
00000000
00010000
00001000
00000010
,  // measure 102
00000000
00001000
00010000
01000000
00000000
00010000
00001000
00000100
,  // measure 103
00000000
00001000
00010000
00100000
10000000
01000000
00100000
00010000
,  // measure 104
01000000
00100000
00010000
00001000
00000100
00000010
00000001
00000010
,  // measure 105
00000100
00001000
00000000
00022000
00000000
00000000
00000000
00000000
,  // measure 106
00000000
00000000
00000000
00000000
,  // measure 107
00000000
00000000
00000000
00000000
,  // measure 108
00000000
00000000
00000000
00000000
,  // measure 109
00000000
00000000
00000000
00000000
,  // measure 110
00000000
00000000
00000000
00000000
,  // measure 111
00033000
00000000
00000000
00000000
;
