#VERSION:0.83;
#TITLE:Beautiful Liar;
#SUBTITLE:;
#ARTIST:MONSTA X;
#TITLETRANSLIT:;
#SUBTITLETRANSLIT:;
#ARTISTTRANSLIT:;
#GENRE:K-POP;
#ORIGIN:;
#CREDIT:MUINELIM;
#BANNER:Beautiful Liar.png;
#BACKGROUND:Beautiful Liar-bg.png;
#PREVIEWVID:;
#JACKET:Beautiful Liar-jacket.png;
#CDIMAGE:;
#DISCIMAGE:;
#LYRICSPATH:;
#CDTITLE:;
#MUSIC:Beautiful Liar.mp3;
#OFFSET:0.058000;
#SAMPLESTART:53.001003;
#SAMPLELENGTH:12.000000;
#SELECTABLE:YES;
#BPMS:0.000=130.000;
#STOPS:;
#DELAYS:;
#WARPS:;
#TIMESIGNATURES:0.000=4=4;
#TICKCOUNTS:0.000=4;
#COMBOS:0.000=1;
#SPEEDS:0.000=1.000=0.000=0;
#SCROLLS:0.000=1.000;
#FAKES:;
#LABELS:0.000=Song Start;
#BGCHANGES:0.000=Beautiful Liar.avi=1.000=0=0=0=StretchNoLoop====,
99999=-nosongbg-=1.000=0=0=0 // don't automatically add -songbackground-
;
#KEYSOUNDS:;
#ATTACKS:
;

//---------------dance-single - ----------------
#NOTEDATA:;
#CHARTNAME:;
#STEPSTYPE:dance-single;
#DESCRIPTION:;
#CHARTSTYLE:;
#DIFFICULTY:Hard;
#METER:13;
#RADARVALUES:0.587627,0.670348,0.461315,0.338298,0.903408,535.000000,475.000000,60.000000,44.000000,0.000000,0.000000,0.000000,0.000000,0.000000,0.587627,0.670348,0.461315,0.338298,0.903408,535.000000,475.000000,60.000000,44.000000,0.000000,0.000000,0.000000,0.000000,0.000000;
#CREDIT:MILEN;
#NOTES:
0000
0000
0000
0000
,
0000
0000
0000
0000
,
0000
0000
0000
0000
,
0000
0000
0000
0000
,
0000
0000
0000
0000
0000
0000
0000
0000
0000
1001
0000
1000
,
0010
0000
0010
0100
0000
0100
0001
0000
0010
0001
0000
0001
,
0100
0000
0100
0010
0000
0010
1000
0000
0100
1000
0000
1000
,
0001
0000
0001
0010
0000
0010
0100
0000
1000
0010
0100
0001
,
1000
0000
1000
0010
0100
0001
1000
0000
0000
1001
0000
0001
,
0010
0000
0010
0100
0000
0100
1000
0000
0010
1000
0000
1000
,
0100
0000
0100
0010
0000
0010
0001
0000
0100
0001
0000
0001
,
1000
0000
1000
0010
0000
0010
0100
0000
0001
0010
0100
1000
,
0001
0000
0001
0010
0100
1000
0001
0000
0000
0101
0000
0000
,
1100
0000
0000
0011
0000
0000
1010
0000
0000
1001
0000
0011
,
0000
0000
0210
0000
0000
1000
1300
0000
0000
1010
0000
0000
,
0011
0000
0000
1100
0000
0000
0101
0000
0000
1001
0000
1100
,
0000
0000
0120
0000
0000
0001
0031
0000
0000
0101
0000
0000
,
1100
0000
0000
1010
0000
0000
0011
0000
0000
1001
0000
1010
,
0000
0000
0220
0000
0330
0000
0101
0000
0001
0010
0000
0010
,
0100
0000
0100
1000
0000
1000
0010
0000
0010
0100
0001
0100
,
0010
1000
0010
0100
0001
0010
0100
1000
0010
0100
0000
0110
,
0000
0010
1000
0100
0000
0110
0000
0010
0001
0100
0000
0110
,
0000
0010
1000
0100
0000
1100
0000
1010
0000
0012
0000
0000
,
0203
0000
0020
0000
0000
0000
0330
0000
0000
1010
0000
0000
,
0101
0000
0000
2002
0000
0000
3003
0000
0000
1010
0000
0011
,
0000
0001
0010
0100
0000
1100
0000
1000
0010
0100
0000
0101
,
0000
0001
1000
0100
0000
0101
0000
0011
0000
2010
0000
0000
,
3200
0000
0000
0000
0000
0000
0000
0000
0020
0000
0000
0000
0000
0000
0000
0000
0000
0000
0000
0000
0000
0000
0000
0000
0330
0000
0000
0000
0000
0000
0000
0000
0000
0000
0000
0000
0010
0000
0000
0001
0000
0000
0000
0000
0000
0000
0000
0000
,
0100
0000
0000
1000
0000
0000
0000
0000
0000
0000
0000
0000
2002
0000
0000
0000
0000
0000
3003
0000
0000
0000
0000
0000
0220
0000
0000
0000
0000
0000
0330
0000
0000
0000
0000
0000
1010
0000
0000
0000
0000
0000
0000
0000
1000
0000
0000
0000
,
0100
0000
0100
0001
0000
0001
0100
0000
1000
0010
0000
0010
,
0001
0000
0001
0010
0000
0010
1000
0000
0100
0001
0000
0001
,
0100
0000
0100
1000
0000
1000
0010
0000
0001
0010
0100
0010
,
1000
0000
1000
0100
0010
0100
0001
0000
0000
0011
0000
0001
,
0100
0000
0100
1000
0000
1000
0100
0000
0001
0010
0000
0010
,
1000
0000
1000
0010
0000
0010
0001
0000
0100
1000
0000
1000
,
0100
0000
0100
0001
0000
0001
0010
0000
1000
0010
0100
0010
,
0001
0000
0001
0100
0010
0100
1000
0000
0000
1010
0000
0000
,
0011
0000
0000
1100
0000
0000
0101
0000
0001
0010
0000
0010
,
1000
0000
1000
0001
0000
0001
0100
0000
0100
1000
0010
0100
,
0001
0010
0100
1000
0000
0010
0110
0000
0000
0100
0001
0010
,
0100
1000
0001
0100
1000
0100
0001
0010
0100
1100
0000
0101
,
0000
1010
0000
0001
0010
1000
0010
0001
0100
1000
0000
0000
,
1010
0000
0000
0011
0000
0000
1100
0000
1000
0010
0100
1000
,
0100
0001
1000
0010
0001
0010
0100
0000
0202
0000
0303
0000
,
0001
0010
0100
1000
0000
1000
0010
0001
0010
0100
1000
0100
,
0001
0000
0000
0001
0010
0100
1000
0000
1001
0020
0000
0000
,
2030
3200
0302
0023
,
2030
3200
0001
2300
,
3020
0032
0203
2300
,
3020
0032
0100
0023
,
2030
3200
0302
0023
,
2030
3200
0001
2300
,
3020
0000
0000
0032
0000
0000
0203
0000
0000
1300
0010
0100
,
0001
1000
0010
0001
0010
1000
0100
0010
0100
1001
0000
1000
,
0010
0000
0010
0001
0000
0001
0100
0000
0100
0001
0000
0001
,
0010
0000
0010
1000
0000
1000
0100
0000
0100
1000
0000
1000
,
0010
0000
0010
0001
0000
0001
0100
0000
0100
1000
0010
0100
,
1000
0100
0010
1000
0100
0010
0001
0000
0000
1001
0000
0001
,
0010
0000
0010
1000
0000
1000
0100
0000
0100
1000
0000
1000
,
0010
0000
0010
0001
0000
0001
0100
0000
0100
0001
0000
0001
,
0010
0000
0010
1000
0000
1000
0100
0000
0100
0001
0010
0100
,
0001
0100
0010
0001
0100
0010
1000
0000
0000
0110
0000
0100
,
1000
0000
0100
0001
0000
0100
1000
0000
0100
0001
0000
0010
,
1000
0000
0010
0001
0000
0010
1000
0000
0010
0001
0000
0100
,
1000
0000
0001
0010
0000
1000
0100
0000
0010
0001
0000
0100
,
1000
0000
0001
0010
0000
1000
0001
0000
0010
1000
0000
0001
,
0100
0000
1000
0010
0000
0001
1000
0000
0100
0001
0000
0010
,
0100
0000
1000
0010
0000
0001
0100
0000
1000
0100
0000
0001
,
0010
0000
1000
0010
0000
0001
0100
0000
1000
0010
0100
0001
,
0010
1000
0001
0100
1000
0010
0200
0000
0000
0301
0000
0000
;

//---------------dance-double - ----------------
#NOTEDATA:;
#CHARTNAME:;
#STEPSTYPE:dance-double;
#DESCRIPTION:;
#CHARTSTYLE:;
#DIFFICULTY:Hard;
#METER:13;
#RADARVALUES:0.575545,0.670348,0.407495,0.345986,0.888031,524.000000,471.000000,53.000000,45.000000,0.000000,0.000000,0.000000,0.000000,0.000000,0.575545,0.670348,0.407495,0.345986,0.888031,524.000000,471.000000,53.000000,45.000000,0.000000,0.000000,0.000000,0.000000,0.000000;
#CREDIT:MILEN;
#NOTES:
// measure 0
00000000
00000000
00000000
00000000
,  // measure 1
00000000
00000000
00000000
00000000
,  // measure 2
00000000
00000000
00000000
00000000
,  // measure 3
00000000
00000000
00000000
00000000
,  // measure 4
00000000
00000000
00000000
00000000
00000000
00000000
00000000
00000000
00000000
00011000
00000000
00010000
,  // measure 5
00000100
00000000
00000100
00001000
00000000
00001000
00000010
00000000
00000100
00000010
00000000
00000010
,  // measure 6
00001000
00000000
00001000
00000001
00000000
00000001
00000100
00000000
00000010
00000100
00000000
00000100
,  // measure 7
00001000
00000000
00001000
00010000
00000000
00010000
00100000
00000000
01000000
00100000
10000000
01000000
,  // measure 8
00100000
00000000
00100000
00010000
00100000
00001000
00010000
00000000
00000000
00011000
00000000
00001000
,  // measure 9
01000000
00000000
01000000
00010000
00000000
00010000
00100000
00000000
01000000
00100000
00000000
00100000
,  // measure 10
00010000
00000000
00010000
10000000
00000000
10000000
01000000
00000000
00100000
01000000
00000000
01000000
,  // measure 11
00010000
00000000
00010000
00001000
00000000
00001000
00000010
00000000
00000100
00000010
00000001
00000100
,  // measure 12
00000010
00000000
00000010
00001000
00000010
00010000
00001000
00000000
00000000
01001000
00000000
00000000
,  // measure 13
00010100
00000000
00000000
00101000
00000000
00000000
00010010
00000000
00000000
00020000
00000000
00032000
,  // measure 14
00000000
00000000
00003200
00000000
00000000
00000001
00000301
00000000
00000000
00000011
00000000
00000000
,  // measure 15
00001100
00000000
00000000
00000101
00000000
00000000
00001010
00000000
00000000
00002000
00000000
00003200
,  // measure 16
00000000
00000000
00020300
00000000
00000000
01000000
01030000
00000000
00000000
11000000
00000000
00000000
,  // measure 17
00110000
00000000
00000000
10100000
00000000
00000000
01010000
00000000
00000000
00020000
00000000
00230000
,  // measure 18
00000000
00000000
00002000
00000000
00303000
00000000
00011000
00000000
00010000
00001000
00000000
00001000
,  // measure 19
00000100
00000000
00000100
00000001
00000000
00000001
00000010
00000000
00000010
00000100
00001000
00000100
,  // measure 20
00010000
00000000
00010000
00001000
00010000
00100000
01000000
00000000
00100000
10000000
00000000
11000000
,  // measure 21
00000000
01000000
00010000
00001000
00000000
00011000
00000000
00010000
00001000
00000010
00000000
00000011
,  // measure 22
00000000
00000001
00000100
00001000
00000000
00011000
00000000
01001000
00000000
00020010
00000000
00000000
,  // measure 23
00032000
00000000
00200000
00000000
00000000
00000000
00303000
00000000
00000000
01100000
00000000
00000000
,  // measure 24
00011000
00000000
00000000
00000220
00000000
00000000
00000330
00000000
00000000
00001010
00000000
00000101
,  // measure 25
00000000
00000001
00000010
00001000
00000000
00011000
00000000
00010000
01000000
10000000
00000000
10100000
,  // measure 26
00000000
00100000
00010000
00001000
00000000
00101000
00000000
00010010
00000000
01002000
00000000
00000000
,  // measure 27
00023000
00000000
00000200
00000000
00000000
00000000
00030300
00000000
00000000
00011000
00000000
00000000
,  // measure 28
00001010
00000000
00000000
00011000
00000000
00000000
01010000
00000000
00000000
11000000
00000000
10000000
,  // measure 29
00100000
00000000
00100000
00010000
00000000
00010000
00001000
00000000
00010000
00000100
00000000
00000100
,  // measure 30
00000010
00000000
00000010
00000001
00000000
00000001
00000100
00000000
00000010
00000100
00000000
00000100
,  // measure 31
00001000
00000000
00001000
00010000
00000000
00010000
01000000
00000000
10000000
01000000
00100000
01000000
,  // measure 32
00010000
00000000
00010000
00001000
00010000
00000010
00000100
00000000
00000000
00000101
00000000
00000001
,  // measure 33
00000010
00000000
00000010
00001000
00000000
00001000
00010000
00000000
00001000
01000000
00000000
01000000
,  // measure 34
00100000
00000000
00100000
10000000
00000000
10000000
01000000
00000000
00100000
01000000
00000000
01000000
,  // measure 35
00010000
00000000
00010000
00001000
00000000
00001000
00000100
00000000
00000001
00000100
00000010
00000100
,  // measure 36
00001000
00000000
00001000
00010000
00001000
00100000
01000000
00000000
00000000
11000000
00000000
00000000
,  // measure 37
00110000
00000000
00000000
00001010
00000000
00000000
00000101
00000000
00000001
00000010
00000000
00000010
,  // measure 38
00000100
00000000
00000100
00001000
00000000
00001000
00010000
00000000
00010000
01000000
00100000
10000000
,  // measure 39
00100000
01000000
00010000
00100000
00000000
10000000
11000000
00000000
00000000
00100000
00010000
00100000
,  // measure 40
00001000
00010000
00001000
00000100
00000010
00000100
00000001
00000010
00000100
00001100
00000000
00010100
,  // measure 41
00000000
01001000
00000000
01000000
00010000
00100000
01000000
10000000
00100000
00010000
00000000
00000000
,  // measure 42
00011000
00000000
00000000
01001000
00000000
00000000
00010100
00000000
00000100
00001000
00000100
00000010
,  // measure 43
00000001
00000010
00001000
00010000
00001000
01000000
00010000
00000000
00220000
00000000
00330000
00000000
,  // measure 44
00100000
01000000
10000000
00100000
00000000
01000000
00100000
00010000
00001000
00010000
00001000
00000100
,  // measure 45
00000010
00000000
00000000
00000100
00000001
00000010
00001000
00000000
00011000
00020000
00000000
00000000
,  // measure 46
02030000
23000000
30200000
00320000
,  // measure 47
00032000
00203000
01000000
00302000
,  // measure 48
00003200
00000302
00000023
00002030
,  // measure 49
00023000
00030020
00000100
00020030
,  // measure 50
00230000
20300000
32000000
03020000
,  // measure 51
00032000
02003000
00100000
03002000
,  // measure 52
00003020
00000000
00000000
00000032
00000000
00000000
00000203
00000000
00000000
00001300
00010000
00100000
,  // measure 53
00010000
00001000
00000010
00001000
00010000
00100000
01000000
00100000
00010000
00011000
00000000
00001000
,  // measure 54
00100000
00000000
00100000
01000000
00000000
01000000
10000000
00000000
10000000
00100000
00000000
00100000
,  // measure 55
00010000
00000000
00010000
00001000
00000000
00001000
00000100
00000000
00000100
00000001
00000000
00000001
,  // measure 56
00000010
00000000
00000010
00000100
00000000
00000100
00010000
00000000
00010000
00001000
00100000
00001000
,  // measure 57
00010000
00100000
01000000
00100000
00010000
00001000
00010000
00000000
00000000
00011000
00000000
00010000
,  // measure 58
00000010
00000000
00000010
00000100
00000000
00000100
00000001
00000000
00000001
00000010
00000000
00000010
,  // measure 59
00001000
00000000
00001000
00010000
00000000
00010000
01000000
00000000
01000000
10000000
00000000
10000000
,  // measure 60
00100000
00000000
00100000
01000000
00000000
01000000
00001000
00000000
00001000
00010000
00000010
00010000
,  // measure 61
00001000
00000010
00000100
00000010
00001000
00010000
00001000
00000000
00000000
00011000
00000000
00001000
,  // measure 62
00000010
00000000
00000010
00000001
00000000
00000001
00000100
00000000
00000100
00001000
00000000
00001000
,  // measure 63
00010000
00000000
00010000
00100000
00000000
00100000
10000000
00000000
10000000
01000000
00000000
01000000
,  // measure 64
00100000
00000000
00100000
00010000
00000000
00010000
00001000
00000000
00001000
00000100
00000000
00000100
,  // measure 65
00000010
00000000
00000010
00000001
00000000
00000001
00000100
00000000
00000100
00000010
00000000
00000010
,  // measure 66
00001000
00000000
00001000
00010000
00000000
00010000
01000000
00000000
01000000
00100000
00000000
00100000
,  // measure 67
10000000
00000000
10000000
01000000
00000000
01000000
00010000
00000000
00010000
00000100
00000000
00000100
,  // measure 68
00000010
00000000
00000010
00001000
00000000
00001000
00100000
00000000
00100000
01000000
10000000
00100000
,  // measure 69
00010000
00001000
00010000
00001000
00000100
00000001
00000020
00000000
00000000
00001030
00000000
00000000
;

//---------------dance-single - ----------------
#NOTEDATA:;
#CHARTNAME:;
#STEPSTYPE:dance-single;
#DESCRIPTION:;
#CHARTSTYLE:;
#DIFFICULTY:Beginner;
#METER:3;
#RADARVALUES:0.096656,0.187025,0.007689,0.030754,0.000000,88.000000,87.000000,1.000000,4.000000,0.000000,0.000000,0.000000,0.000000,0.000000,0.096656,0.187025,0.007689,0.030754,0.000000,88.000000,87.000000,1.000000,4.000000,0.000000,0.000000,0.000000,0.000000,0.000000;
#CREDIT:MILEN;
#NOTES:
0000
0000
0000
0000
,
0000
0000
0000
0000
,
0000
0000
0000
0000
,
0000
0000
0000
0000
,
0000
0000
0000
1000
,
0000
0000
0000
1000
,
0000
0000
0000
1000
,
0000
0000
0000
1000
,
0000
0000
0000
0001
,
0000
0000
0000
0001
,
0000
0000
0000
0001
,
0000
0000
0000
0001
,
0000
0000
0000
0100
,
0000
0000
0000
0100
,
0000
0000
0000
0100
,
0000
0000
0000
0100
,
0000
0000
0000
0010
,
0000
0000
0000
0010
,
0000
0000
0000
0010
,
0000
0000
0000
0010
,
0000
0000
0000
1000
,
0000
1000
0000
1000
,
0000
1000
0000
2000
,
0000
0000
3000
0000
,
0000
0000
0000
0001
,
0000
0001
0000
0001
,
0000
0001
0000
0002
,
0000
0000
0003
0000
,
0000
0000
0000
1000
,
0000
0000
0000
0100
,
0000
0000
0000
0010
,
0000
0000
0000
0001
,
0000
0000
0000
1000
,
0000
0000
0000
0010
,
0000
0000
0000
0100
,
0000
0000
0000
0001
,
0000
0000
0000
1000
,
1000
1000
1000
1000
,
0000
0010
0000
1000
,
0000
0010
0000
0100
,
0000
0001
0000
0200
,
0000
0300
0000
0000
,
1001
0000
0000
0001
,
0000
0000
0000
1000
,
0000
0000
0000
0001
,
0000
1000
0000
0001
,
0000
0001
0000
0001
,
0000
0000
0000
0100
,
0000
0100
0000
0100
,
0000
0000
0000
1000
,
0000
1000
0000
1000
,
0000
0000
0000
0010
,
0000
0010
0000
0010
,
0000
0000
0000
0001
,
0000
0000
0000
0100
,
0000
0000
0000
0010
,
0000
0000
0000
1000
,
0000
0000
0000
0001
,
0000
0000
0000
0010
,
0000
0000
0000
0100
,
0000
0000
0000
1000
,
0000
0000
0000
0001
,
0000
0001
0000
0001
,
0000
0001
0000
0100
,
0000
0100
0000
0100
,
0000
0100
0000
1000
,
0000
1000
0000
1000
,
0000
1000
0000
0010
,
0000
0010
0000
0020
,
0030
0010
0010
0000
;

//---------------dance-single - ----------------
#NOTEDATA:;
#CHARTNAME:;
#STEPSTYPE:dance-single;
#DESCRIPTION:;
#CHARTSTYLE:;
#DIFFICULTY:Easy;
#METER:7;
#RADARVALUES:0.255920,0.347332,0.207592,0.053820,0.000000,233.000000,206.000000,27.000000,7.000000,0.000000,0.000000,0.000000,0.000000,0.000000,0.255920,0.347332,0.207592,0.053820,0.000000,233.000000,206.000000,27.000000,7.000000,0.000000,0.000000,0.000000,0.000000,0.000000;
#CREDIT:MILEN;
#NOTES:
0000
0000
0000
0000
,
0000
0000
0000
0000
,
0000
0000
0000
0000
,
0000
0000
0000
0000
,
0000
0000
0000
1000
,
0001
1000
0001
0100
,
0010
0100
0010
1000
,
0001
1000
0001
0100
,
0010
0200
0300
0001
,
1000
0001
1000
0010
,
0100
0010
0100
0001
,
1000
0001
1000
0010
,
0100
0020
0030
1000
,
0000
0100
0000
0001
,
0010
0011
0000
0001
,
0000
0100
0000
1000
,
0010
1010
0000
1000
,
0000
0100
0000
0001
,
0010
0011
0000
0001
,
0100
1000
0100
0001
,
0010
0100
1000
0110
,
0000
0110
0000
0110
,
0000
0010
0100
0010
,
1000
0001
0000
1001
,
0110
1001
0000
0110
,
0000
0110
0000
0110
,
0000
0100
0010
0100
,
0001
1000
0000
1001
,
0110
1001
0110
0100
,
0001
0100
0001
0010
,
1000
0010
1000
0100
,
0001
0100
0001
0010
,
1000
0200
0300
0010
,
0001
0010
0001
0100
,
1000
0100
1000
0010
,
0001
0010
0001
0100
,
1000
0020
0030
0110
,
0000
0000
0000
1000
,
0010
0001
0010
1000
,
0010
0001
0110
1000
,
0100
0001
0100
2000
,
3000
0001
1000
0000
,
1001
0110
1001
0001
,
0010
1000
0100
0000
,
0100
1000
0010
0001
,
0100
0010
0110
1000
,
0000
0000
0000
0100
,
0000
0000
0000
0001
,
0000
0000
0000
0010
,
0000
0000
0000
1000
,
0000
0000
0000
0100
,
0000
0000
0000
0001
,
0000
0000
0000
0010
,
0010
0010
1001
1000
,
0100
1000
0100
0001
,
0010
0001
0010
1000
,
0100
1000
0100
0001
,
0010
2000
3000
0001
,
0100
0001
0100
1000
,
0010
1000
0010
0001
,
0100
0001
0100
1000
,
0010
0002
0003
1000
,
0100
0010
0001
1000
,
0100
1100
0000
0001
,
0010
0100
1000
0001
,
0010
0011
0000
1000
,
0010
0001
0100
1000
,
0010
1010
0000
0001
,
0100
1000
0010
0001
,
0100
0101
1000
0000
;

//---------------dance-single - ----------------
#NOTEDATA:;
#CHARTNAME:;
#STEPSTYPE:dance-single;
#DESCRIPTION:;
#CHARTSTYLE:;
#DIFFICULTY:Medium;
#METER:11;
#RADARVALUES:0.422872,0.455837,0.153772,0.161460,0.572799,385.000000,365.000000,20.000000,21.000000,0.000000,0.000000,0.000000,0.000000,0.000000,0.422872,0.455837,0.153772,0.161460,0.572799,385.000000,365.000000,20.000000,21.000000,0.000000,0.000000,0.000000,0.000000,0.000000;
#CREDIT:MILEN;
#NOTES:
0000
0000
0000
0000
,
0000
0000
0000
0000
,
0000
0000
0000
0000
,
0000
0000
0000
0000
,
0000
0000
0000
0000
0000
0000
0000
0000
0000
1000
0000
0001
,
0000
0000
1000
0010
0000
0010
1000
0000
0000
0001
0000
1000
,
0000
0000
0001
0010
0000
0010
0001
0000
0000
1000
0000
0001
,
0000
0000
1000
0010
0000
0010
1000
0000
0000
0001
0000
0100
,
0010
0000
1000
0010
0000
0100
0010
0000
0000
1000
0000
0001
,
0000
0000
1000
0100
0000
0100
1000
0000
0000
0001
0000
1000
,
0000
0000
0001
0100
0000
0100
0001
0000
0000
1000
0000
0001
,
0000
0000
1000
0100
0000
0100
1000
0000
0000
0001
0000
0010
,
0100
0000
1000
0100
0000
0010
0100
0000
0000
1000
0000
0000
,
1010
0000
0000
0001
0000
0000
0011
0000
0000
1000
0000
0010
,
0000
0000
0100
0000
0000
0010
1000
0000
0000
0001
0000
0000
,
0101
0000
0000
1000
0000
0000
1100
0000
0000
0001
0000
0100
,
0000
0000
0010
0000
0000
0100
0001
0000
0000
1000
0000
0000
,
1010
0000
0000
0001
0000
0000
0101
0000
0000
1000
0000
0001
,
0000
0000
0200
0000
0000
0000
0310
0000
0010
1000
0000
0010
,
1000
0000
0010
0100
0000
0001
0100
0000
0001
0200
0000
0000
,
0320
0000
0000
2030
0000
0000
3002
0000
0000
0103
0000
0100
,
0000
0010
0000
1000
0000
1000
0000
0001
0000
0010
0000
0010
,
0000
0100
0000
1000
0000
1000
0000
0010
0000
0100
0000
0000
,
0002
0000
2000
0000
0000
0000
3003
0000
0000
1010
0000
0000
,
0101
0000
0000
0220
0000
0000
0330
0000
0000
1000
0000
1000
,
0000
0010
0000
0100
0000
0100
0000
0001
0000
1000
0000
1000
,
0000
0100
0000
0010
0000
0010
0000
0001
0000
1000
0000
0000
,
0020
0000
0200
0000
0000
0000
0330
0000
0000
1010
0000
0000
,
1100
0000
0000
0011
0000
0000
0101
0000
0000
0100
0000
0010
,
0000
0000
1000
0010
0000
0010
1000
0000
0000
0010
0000
0100
,
0000
0000
0001
0010
0000
0010
0001
0000
0000
0100
0000
0010
,
0000
0000
1000
0010
0000
0010
1000
0000
0000
0010
0000
0100
,
0001
0000
0010
0001
0000
0100
0001
0000
0000
0100
0000
0010
,
0000
0000
1000
0100
0000
0100
1000
0000
0000
0100
0000
0010
,
0000
0000
0001
0100
0000
0100
0001
0000
0000
0010
0000
0100
,
0000
0000
1000
0100
0000
0100
1000
0000
0000
0100
0000
0010
,
0001
0000
0100
0001
0000
0010
0001
0000
0000
0101
0000
0000
,
1100
0000
0000
0011
0000
0000
1010
0000
0000
1000
0000
0100
,
0010
0000
0000
0001
0000
0100
0010
0000
0000
1000
0000
0100
,
0010
0000
0001
0010
0000
0100
0010
0000
0000
0001
0000
0100
,
0010
0000
1000
0010
0000
0100
0010
0000
1000
0001
0000
0001
,
0000
0001
0000
0010
0000
0100
1000
0000
0001
0010
0000
0000
,
0110
0000
0000
0011
0000
0000
1100
0000
1000
0010
0000
0100
,
0010
0000
0100
0001
0000
1000
0001
0000
2000
0000
0000
0000
,
3010
0000
0010
0100
0000
0000
0010
0000
0010
0100
0000
0010
,
0001
0000
0000
0010
0000
0100
0010
0000
1000
0002
0000
0000
,
0010
0100
1000
0100
,
0010
0200
0303
2000
,
0100
0010
0001
0010
,
0100
0020
3030
0200
,
0001
0010
1000
0010
,
0001
2000
3300
0020
,
1000
0001
0100
2000
,
0000
0000
0000
0000
0000
0000
3030
0000
0000
1000
0000
0100
,
0000
0000
1000
0010
0000
0100
0010
0000
0000
0100
0000
0001
,
0000
0000
0010
0001
0000
0100
0001
0000
0000
0010
0000
0100
,
0000
0000
1000
0001
0000
0010
0001
0000
0000
0100
0000
0010
,
1000
0000
0100
0010
0000
0001
0100
0000
0000
0001
0000
0100
,
0000
0000
0001
0010
0000
0100
0010
0000
0000
0100
0000
1000
,
0000
0000
0010
1000
0000
0100
1000
0000
0000
0010
0000
0100
,
0000
0000
0001
1000
0000
0010
1000
0000
0000
0100
0000
0010
,
0001
0000
0100
0010
0000
1000
0100
0000
0000
1000
0000
1000
,
0010
0000
0000
0001
0000
0001
0010
0000
0000
1000
0000
1000
,
0100
0000
0010
0100
0000
1000
0010
0000
0000
0001
0000
0001
,
0100
0000
0000
1000
0000
1000
0100
0000
0000
0001
0000
0001
,
0010
0000
0100
0010
0000
0001
0100
0000
0000
1000
0000
1000
,
0010
0000
0000
0001
0000
0001
0100
0000
0000
1000
0000
1000
,
0010
0000
0100
0010
0000
0001
0010
0000
0100
0010
0000
0010
,
1000
0000
1000
0001
0000
0001
0100
0000
0100
0010
0000
0010
,
1000
0000
1000
0100
0000
0100
0020
0000
0000
0031
0000
0000
;

//---------------dance-double - ----------------
#NOTEDATA:;
#CHARTNAME:;
#STEPSTYPE:dance-double;
#DESCRIPTION:;
#CHARTSTYLE:;
#DIFFICULTY:Easy;
#METER:7;
#RADARVALUES:0.239444,0.267178,0.092263,0.053820,0.000000,218.000000,206.000000,12.000000,7.000000,0.000000,0.000000,0.000000,0.000000,0.000000,0.239444,0.267178,0.092263,0.053820,0.000000,218.000000,206.000000,12.000000,7.000000,0.000000,0.000000,0.000000,0.000000,0.000000;
#CREDIT:MILEN;
#NOTES:
00000000
00000000
00000000
00000000
,
00000000
00000000
00000000
00000000
,
00000000
00000000
00000000
00000000
,
00000000
00000000
00000000
00000000
,
00000000
00000000
00000000
00001000
,
00010000
00001000
00010000
00100000
,
01000000
00100000
01000000
00001000
,
00010000
00001000
00010000
00100000
,
01000000
00002000
00003000
00010000
,
00001000
00010000
00001000
00000100
,
00000010
00000100
00000010
00010000
,
00001000
00010000
00001000
00000100
,
00000010
00020000
00030000
00001000
,
00000000
00010000
00000000
01000000
,
10000000
00100000
00000000
00010000
,
00000000
00001000
00000000
00000100
,
00000001
00000010
00000000
00001000
,
00000000
00010000
00000000
00100000
,
10000000
01000000
00000000
00010000
,
00001000
00000010
00000001
00000100
,
00001000
00010000
00001000
00011000
,
00000000
00010000
00000000
00011000
,
00000000
00001000
00010000
01000000
,
00010000
00001000
00000000
00010000
,
00001000
00010000
00000000
00011000
,
00000000
00001000
00000000
00011000
,
00000000
00010000
00001000
00000100
,
00001000
00010000
00000000
00001000
,
00010000
00001000
00011000
00010000
,
01000000
00010000
01000000
10000000
,
00100000
10000000
00100000
00010000
,
00001000
00010000
00001000
00000100
,
00000001
00000020
00000030
00001000
,
00000010
00001000
00000010
00000001
,
00000100
00000001
00000100
00001000
,
00010000
00001000
00010000
01000000
,
10000000
00200000
00300000
01100000
,
00000000
00000000
00000000
01000000
,
00100000
00010000
00001000
00000100
,
00000010
00000100
00000110
00000001
,
00000100
00001000
00010000
00200000
,
00300000
10000000
11000000
00000000
,
01000000
00010000
00011000
00001000
,
00000100
00000001
00000010
00000000
,
00000010
00000001
00000100
00001000
,
00010000
00100000
01100000
10000000
,
00000000
00000000
00000000
01000000
,
00000000
00000000
00000000
00010000
,
00000000
00000000
00000000
00001000
,
00000000
00000000
00000000
00000010
,
00000000
00000000
00000000
00000001
,
00000000
00000000
00000000
00000100
,
00000000
00000000
00000000
00001000
,
00010000
00001000
00011000
00100000
,
00010000
00100000
00010000
01000000
,
10000000
01000000
10000000
00100000
,
00010000
10000000
01000000
00010000
,
00001000
00020000
00030000
00000010
,
00001000
00000010
00001000
00000100
,
00000001
00000100
00000001
00000010
,
00001000
00000001
00000100
00001000
,
00010000
00002000
00003000
00100000
,
00010000
00100000
01000000
10000000
,
00100000
00010000
00000000
00000010
,
00001000
00000010
00000100
00000001
,
00000010
00001000
00000000
01000000
,
00010000
01000000
00100000
10000000
,
01000000
00010000
00000000
00000100
,
00001000
00000100
00000010
00000001
,
00000100
00001000
00011000
00000000
;

//---------------dance-double - ----------------
#NOTEDATA:;
#CHARTNAME:;
#STEPSTYPE:dance-double;
#DESCRIPTION:;
#CHARTSTYLE:;
#DIFFICULTY:Medium;
#METER:11;
#RADARVALUES:0.417380,0.455837,0.115329,0.161460,0.572799,380.000000,365.000000,15.000000,21.000000,0.000000,0.000000,0.000000,0.000000,0.000000,0.417380,0.455837,0.115329,0.161460,0.572799,380.000000,365.000000,15.000000,21.000000,0.000000,0.000000,0.000000,0.000000,0.000000;
#CREDIT:MILEN;
#NOTES:
00000000
00000000
00000000
00000000
,
00000000
00000000
00000000
00000000
,
00000000
00000000
00000000
00000000
,
00000000
00000000
00000000
00000000
,
00000000
00000000
00000000
00000000
00000000
00000000
00000000
00000000
00000000
00001000
00000000
00010000
,
00000000
00000000
00000010
00001000
00000000
00000010
00010000
00000000
00000000
00010000
00000000
00001000
,
00000000
00000000
00100000
00010000
00000000
00100000
00001000
00000000
00000000
00001000
00000000
00010000
,
00000000
00000000
00000100
00001000
00000000
00000100
00010000
00000000
00000000
00010000
00000000
00001000
,
00100000
00000000
00010000
00100000
00000000
01000000
00100000
00000000
00000000
00001000
00000000
00010000
,
00000000
00000000
00000100
00001000
00000000
00000100
00010000
00000000
00000000
00010000
00000000
00001000
,
00000000
00000000
01000000
00010000
00000000
01000000
00001000
00000000
00000000
00001000
00000000
00010000
,
00000000
00000000
00000010
00001000
00000000
00000010
00010000
00000000
00000000
00010000
00000000
00001000
,
01000000
00000000
00010000
01000000
00000000
00100000
01000000
00000000
00000000
00010000
00000000
00000000
,
00100000
00000000
00000000
00001000
00000000
00000000
00000010
00000000
00000000
00000011
00000000
00000001
,
00000000
00000000
00000100
00000000
00000000
00000100
00000010
00000000
00000000
00001000
00000000
00000000
,
00000100
00000000
00000000
00010000
00000000
00000000
01000000
00000000
00000000
11000000
00000000
10000000
,
00000000
00000000
00100000
00000000
00000000
00100000
01000000
00000000
00000000
00010000
00000000
00000000
,
00100000
00000000
00000000
00001000
00000000
00000000
00000010
00000000
00000000
00000011
00000000
00000001
,
00000000
00000000
00000200
00000000
00000000
00000000
00000310
00000000
00000010
00001000
00000000
00000100
,
00001000
00000000
00000100
00010000
00000000
00001000
00010000
00000000
00001000
02000000
00000000
00000000
,
03020000
00000000
00000000
00230000
00000000
00000000
02300000
00000000
00000000
13000000
00000000
10000000
,
00000000
00100000
00000000
00010000
00000000
00010000
00000000
00001000
00000000
00000100
00000000
00000100
,
00000000
00000001
00000000
00000010
00000000
00000010
00000000
00001000
00000000
00010000
00000000
00000000
,
00002000
00000000
00020000
00000000
00000000
00000000
00033000
00000000
00000000
00011000
00000000
00000000
,
00000100
00000000
00000000
00002002
00000000
00000000
00003003
00000000
00000000
00000001
00000000
00000001
,
00000000
00000010
00000000
00001000
00000000
00001000
00000000
00010000
00000000
01000000
00000000
01000000
,
00000000
10000000
00000000
00100000
00000000
00100000
00000000
00010000
00000000
00001000
00000000
00000000
,
00020000
00000000
00002000
00000000
00000000
00000000
00033000
00000000
00000000
00011000
00000000
00000000
,
01000000
00000000
00000000
10010000
00000000
00000000
00100000
00000000
00000000
01000000
00000000
00001000
,
00000000
00000000
00010000
00001000
00000000
00100000
00001000
00000000
00000000
00010000
00000000
00000010
,
00000000
00000000
00010000
00001000
00000000
00010000
00000100
00000000
00000000
00001000
00000000
00000010
,
00000000
00000000
00010000
00001000
00000000
01000000
00001000
00000000
00000000
00010000
00000000
00000100
,
00001000
00000000
00000001
00001000
00000000
00000010
00001000
00000000
00000000
00000100
00000000
00010000
,
00000000
00000000
00001000
00010000
00000000
00000010
00010000
00000000
00000000
00001000
00000000
00100000
,
00000000
00000000
00001000
00010000
00000000
00001000
01000000
00000000
00000000
00010000
00000000
00100000
,
00000000
00000000
00001000
00010000
00000000
00000100
00010000
00000000
00000000
00001000
00000000
01000000
,
00010000
00000000
00100000
00010000
00000000
10000000
00010000
00000000
00000000
01010000
00000000
00000000
,
00001000
00000000
00000000
00011000
00000000
00000000
00000100
00000000
00000000
00001000
00000000
00000001
,
00000100
00000000
00000000
00001000
00000000
00000001
00000100
00000000
00000000
00001000
00000000
00000001
,
00000100
00000000
00001000
00000100
00000000
00000010
00000100
00000000
00000000
00001000
00000000
00010000
,
00001000
00000000
00010000
00000010
00000000
00010000
00001000
00000000
00100000
00010000
00000000
00010000
,
00000000
00010000
00000000
01000000
00000000
00100000
10000000
00000000
01000000
00100000
00000000
00000000
,
00110000
00000000
00000000
00001000
00000000
00000000
00011000
00000000
00010000
00000100
00000000
00001000
,
00000100
00000000
00000010
00000001
00000000
00000100
00000001
00000000
00002000
00000000
00000000
00000000
,
00003010
00000000
00010000
00001000
00000000
00000000
00000010
00000000
00010000
00001000
00000000
00010000
,
00100000
00000000
00000000
01000000
00000000
00100000
10000000
00000000
01000000
00100000
00000000
00000000
,
01000000
10000000
00100000
00010000
,
00001000
00022000
00033000
00000100
,
00000010
00000001
00000100
00001000
,
00010000
00022000
00033000
01000000
,
00100000
10000000
01000000
00010000
,
00001000
00022000
00033000
00000100
,
00000001
00000010
00001000
00022000
,
00000000
00000000
00000000
00000000
00000000
00000000
00033000
00000000
00000000
00010000
00000000
00000100
,
00000000
00000000
00001000
00000010
00000000
00001000
00000100
00000000
00000000
00010000
00000000
00001000
,
00000000
00000000
00100000
00010000
00000000
01000000
00010000
00000000
00000000
10000000
00000000
01000000
,
00000000
00000000
10000000
00100000
00000000
01000000
00100000
00000000
00000000
00010000
00000000
00001000
,
00100000
00000000
00001000
00010000
00000000
00000010
00010000
00000000
00000000
00001000
00000000
01000000
,
00000000
00000000
00010000
00100000
00000000
00010000
01000000
00000000
00000000
00001000
00000000
00010000
,
00000000
00000000
00000010
00001000
00000000
00000100
00001000
00000000
00000000
00000001
00000000
00000100
,
00000000
00000000
00000001
00000010
00000000
00000100
00000010
00000000
00000000
00001000
00000000
00010000
,
00000010
00000000
00010000
00001000
00000000
00100000
00001000
00000000
00000000
00010000
00000000
00000100
,
00001000
00000000
00000000
00010000
00000000
00000010
00001000
00000000
00000000
00010000
00000000
00001000
,
00010000
00000000
00001000
01000000
00000000
00001000
00100000
00000000
00000000
00001000
00000000
01000000
,
00010000
00000000
00000000
00001000
00000000
00100000
00010000
00000000
00000000
00001000
00000000
00010000
,
00001000
00000000
00010000
00000100
00000000
00010000
00000010
00000000
00000000
00010000
00000000
00001000
,
01000000
00000000
00000000
00010000
00000000
00001000
00100000
00000000
00000000
00010000
00000000
00001000
,
00010000
00000000
00000100
00001000
00000000
00000100
00000010
00000000
00000001
00000100
00000000
00000010
,
00001000
00000000
00000100
00010000
00000000
00001000
00100000
00000000
00010000
01000000
00000000
00100000
,
10000000
00000000
01000000
00100000
00000000
00001000
00020000
00000000
00000000
00031000
00000000
00000000
;
