#TITLE:Airplane;
#SUBTITLE:;
#ARTIST:Typhoon;
#TITLETRANSLIT:;
#SUBTITLETRANSLIT:;
#ARTISTTRANSLIT:;
#GENRE:K-POP;
#CREDIT:MUINELIM;
#BANNER:Airplane.png;
#BACKGROUND:Airplane-bg.png;
#LYRICSPATH:;
#CDTITLE:;
#MUSIC:Airplane.ogg;
#OFFSET:0.000000;
#SAMPLESTART:15.500000;
#SAMPLELENGTH:14.000000;
#SELECTABLE:YES;
#BPMS:0.000000=120.000000
;
#STOPS:
;
#BGCHANGES:0.000=Airplane.avi=1.000=0=0=0=StretchNoLoop====,
99999=-nosongbg-=1.000=0=0=0 // don't automatically add -songbackground-
;
#KEYSOUNDS:;
#ATTACKS:;

//---------------dance-single - ----------------
#NOTES:
     dance-single:
     :
     Beginner:
     3:
     0.109606,0.144181,0.000000,0.000000,0.000000,89.000000,89.000000,0.000000,0.000000,0.000000,0.000000,0.109606,0.144181,0.000000,0.000000,0.000000,89.000000,89.000000,0.000000,0.000000,0.000000,0.000000:
0000
0000
0000
0000
,
0000
0000
0000
0000
,
0000
0000
0000
0000
,
0000
0000
0000
0000
,
1000
0000
0000
0000
,
0001
0000
0000
0000
,
1000
0000
0000
0000
,
0001
0000
0000
0000
,
1000
0000
1000
0000
,
1000
0000
0000
0000
,
0100
0000
0100
0000
,
0100
0000
0000
0000
,
0010
0000
0010
0000
,
0010
0000
0000
0000
,
0001
0000
0001
0000
,
0001
0000
0000
0000
,
1000
0000
0000
0000
,
0010
0000
0000
0000
,
0100
0000
0000
0000
,
0001
0000
0000
0000
,
0010
0000
0000
0000
,
0100
0000
0000
0000
,
1000
0000
0000
0000
,
0001
0000
0000
0000
,
1000
0000
1000
0000
,
0010
0000
0010
0000
,
0100
0000
0100
0000
,
0001
0000
0001
0000
,
0010
0000
0010
0000
,
0100
0000
0100
0000
,
1000
0000
1000
0000
,
0001
0000
0001
0000
,
0100
0000
0000
0000
,
1000
0000
0000
0000
,
0010
0000
0000
0000
,
0001
0000
0000
0000
,
0100
0000
0100
0000
,
1000
0000
1000
0000
,
0010
0000
0010
0000
,
0001
0001
0001
0000
,
1000
0000
0001
0000
,
1000
0000
1000
0000
,
0001
0000
1000
0000
,
0001
0000
0001
0000
,
0100
0000
0010
0000
,
0100
0000
0100
0000
,
0010
0000
0100
0000
,
0010
0000
0000
0000
,
1000
0000
0100
0000
,
0010
0010
0010
0000
,
0001
0000
0010
0000
,
0100
0100
0100
0000
,
1000
0000
0010
0000
,
0001
0001
0001
0000
,
0100
0000
1000
0000
,
0010
0010
0010
0010
;

//---------------dance-single - ----------------
#NOTES:
     dance-single:
     :
     Easy:
     5:
     0.181034,0.216272,0.043103,0.094828,0.000000,147.000000,142.000000,5.000000,11.000000,0.000000,0.000000,0.181034,0.216272,0.043103,0.094828,0.000000,147.000000,142.000000,5.000000,11.000000,0.000000,0.000000:
0000
0000
0000
0000
,
0000
0000
0000
0000
,
0000
0000
0000
0000
,
0000
0000
0000
0000
,
1000
0000
0001
0000
,
1000
1000
1000
0000
,
0001
0000
1000
0000
,
0001
0001
0001
1001
,
1000
0100
1000
0000
,
0100
0000
0010
0000
,
0001
0000
1000
0000
,
0100
0000
0010
0000
,
0001
0010
0001
0000
,
0010
0000
0100
0000
,
1000
0000
0010
0000
,
0100
0100
0100
0100
,
0001
0010
0100
0000
,
0010
0100
1000
0000
,
0001
0010
0100
1000
,
0100
0010
0001
0000
,
2002
0000
3003
0000
,
1000
0001
1000
0001
,
0100
0000
0010
0000
,
0100
0010
0100
0010
,
1000
0001
0100
0000
,
0001
1000
0010
0000
,
1000
0001
0100
0010
,
1000
0001
0100
0000
,
0220
0000
0330
0000
,
0010
0000
1000
0000
,
0100
0000
0010
0000
,
0001
0000
0100
0000
,
0020
0030
1000
0100
,
1000
0100
1000
0000
,
0001
0000
1000
0000
,
2002
0000
3003
0000
,
0020
0030
0001
0010
,
0001
0010
0001
0000
,
1000
0000
0001
0000
,
0100
0010
0100
0010
,
1000
0001
1000
0000
,
0010
0000
0001
0000
,
0100
0000
1000
0000
,
0010
0000
0100
0000
,
0001
1000
0001
0000
,
0010
0000
1000
0000
,
0100
0000
0001
0000
,
0010
0100
0010
0100
,
0020
0030
0001
0010
,
0100
1000
0100
0000
,
2000
3000
0100
1000
,
0100
0010
0001
0000
,
0200
0300
0001
0100
,
0010
1000
0001
0000
,
1000
0100
0010
0001
,
1000
0001
1000
1001
;

//---------------dance-double - ----------------
#NOTES:
     dance-double:
     :
     Easy:
     5:
     0.181034,0.216272,0.051724,0.094828,0.000000,147.000000,141.000000,6.000000,11.000000,0.000000,0.000000,0.181034,0.216272,0.051724,0.094828,0.000000,147.000000,141.000000,6.000000,11.000000,0.000000,0.000000:
00000000
00000000
00000000
00000000
,
00000000
00000000
00000000
00000000
,
00000000
00000000
00000000
00000000
,
00000000
00000000
00000000
00000000
,
01000000
00000000
00001000
00000000
,
00010000
00000000
00000010
00000000
,
00010000
00000000
00001000
00000000
,
00010000
00001000
00010000
00011000
,
00000100
00001000
00000100
00000000
,
00000010
00000000
00000001
00000000
,
00001000
00000000
00000100
00000000
,
00010000
00000000
00001000
00000000
,
00100000
00010000
00100000
00000000
,
01000000
00000000
10000000
00000000
,
00100000
00000000
01000000
00000000
,
00001000
00010000
00001000
00011000
,
00000010
00001000
00000100
00000000
,
00000010
00000001
00000100
00000000
,
00000010
00001000
00000100
00010000
,
00001000
00100000
00010000
00000000
,
20020000
00000000
30030000
00000000
,
10000000
00010000
10000000
00010000
,
01000000
00000000
00001000
00000000
,
00010000
00001000
00010000
00001000
,
00100000
00010000
01000000
00000000
,
00100000
10000000
01000000
00000000
,
00100000
00010000
01000000
00001000
,
00010000
00000010
00001000
00000000
,
00002002
00000000
00003003
00000000
,
00000001
00000000
00000100
00000000
,
00001000
00000000
00010000
00000000
,
00100000
00000000
10000000
00000000
,
02000000
03000000
00100000
00010000
,
00100000
00010000
00100000
00000000
,
00001000
00000000
00010000
00000000
,
00022000
00000000
00033000
00000000
,
00000020
00000030
00001000
00000100
,
00001000
00000100
00001000
00000000
,
00000001
00000000
00000010
00000000
,
00001000
00010000
00001000
00010000
,
00100000
10000000
01000000
00000000
,
00100000
00000000
00010000
00000000
,
01000000
00000000
00001000
00000000
,
00010000
00000000
00000010
00000000
,
00000100
00000001
00000010
00000000
,
00000100
00000000
00001000
00000000
,
00000010
00000000
00010000
00000000
,
00001000
00100000
00001000
00100000
,
00020000
00030000
00100000
01000000
,
00100000
01000000
10000000
00000000
,
00200000
00300000
00010000
00001000
,
00010000
00001000
00000100
00000000
,
00000002
00000003
00000010
00000100
,
00000010
00000100
00001000
00000000
,
00000010
00010000
00001000
00100000
,
00010000
01000000
00001000
00011000
;

//---------------dance-single - ----------------
#NOTES:
     dance-single:
     :
     Medium:
     9:
     0.316502,0.337931,0.137931,0.327586,0.000000,257.000000,241.000000,16.000000,38.000000,0.000000,0.000000,0.316502,0.337931,0.137931,0.327586,0.000000,257.000000,241.000000,16.000000,38.000000,0.000000,0.000000:
0000
0000
0000
0000
,
0000
0000
0000
0000
,
0000
0000
0000
0000
,
0000
0000
0000
0000
,
0001
0010
0100
1000
,
0010
0100
0220
0330
,
1000
0100
0010
0001
,
0100
0000
0010
0000
0110
0000
0100
0001
,
0100
0000
0010
1000
0010
0000
0100
0001
,
0000
0010
0000
0100
0000
2200
0000
3300
,
0000
1000
0010
0000
0100
0000
0001
0000
,
1000
0000
0100
0000
0010
0000
0001
0100
,
0001
0000
1000
0010
1000
0000
0001
0100
,
0000
0010
0000
1000
0000
0001
0000
0010
,
0100
0010
0000
0100
0010
0100
0000
1000
,
0001
0100
0010
0110
,
1000
0100
0010
0000
0100
0000
1000
0000
,
0001
0010
0100
0000
0010
0000
0001
0000
,
1000
0010
0100
0000
0001
0100
0010
0000
,
1000
0010
0100
0001
1000
0000
0010
0000
,
0220
0000
0330
0100
,
0001
1000
0010
0100
,
0010
1000
0100
0000
1000
0000
0001
0000
,
0010
0001
0100
0000
0001
0000
1000
0000
,
0100
0010
0001
0000
0010
0000
0100
0000
,
0010
0100
1000
0000
0100
0000
0010
0000
,
0001
0100
0010
0000
1000
0010
0100
0000
,
0001
0100
0010
1000
0001
0000
1000
0000
,
2002
0000
3003
0001
,
0100
0010
1000
0001
,
0100
0010
1000
0000
0010
0000
0100
0000
,
0010
0100
0001
0000
0100
0000
0010
0000
,
0220
0330
1000
0100
,
0001
0100
1000
0010
,
0100
0001
0010
0000
0100
1000
0010
0000
,
0100
0001
0010
0100
1000
0000
0010
0000
,
0220
0330
1000
0010
,
0001
0000
0010
0000
1000
0000
0100
0010
,
0001
0100
0000
0010
1000
0100
0000
0010
,
0100
0000
0010
0000
1001
0000
1000
0001
,
0010
0100
1000
0000
0100
0010
0001
0100
,
0000
1000
0000
0010
0000
0022
0000
0033
,
0000
0001
0100
0000
0010
1000
0010
0100
,
0000
0001
1000
0000
1001
0000
0001
0100
,
0010
1000
0001
0000
0100
0001
1000
0010
,
0000
0001
0000
0100
0000
1000
0000
0010
,
0100
0001
0000
0100
0010
1000
0000
0001
,
1000
0100
0010
0110
,
0002
0203
0320
2030
,
3200
0320
0032
0003
,
2000
3020
0230
0302
,
0023
0230
2300
3000
,
0002
0203
2300
3020
,
0032
0203
2300
3000
,
0020
0000
0031
0100
0010
1000
0100
0000
,
0101
0011
0110
2002
,
3003
0000
0000
0000
;

//---------------dance-double - ----------------
#NOTES:
     dance-double:
     :
     Medium:
     9:
     0.312808,0.337931,0.146552,0.275862,0.000000,254.000000,237.000000,17.000000,32.000000,0.000000,0.000000,0.312808,0.337931,0.146552,0.275862,0.000000,254.000000,237.000000,17.000000,32.000000,0.000000,0.000000:
00000000
00000000
00000000
00000000
,
00000000
00000000
00000000
00000000
,
00000000
00000000
00000000
00000000
,
00000000
00000000
00000000
00000000
,
00001000
00100000
00010000
01000000
,
00001000
00010000
00022000
00033000
,
00010000
00000100
00001000
00000010
,
00010000
00000000
00001000
00000000
00011000
00000000
00001000
00100000
,
00010000
00000000
00100000
00001000
00010000
00000000
00001000
00100000
,
00000000
01000000
00000000
10000000
00000000
20200000
00000000
30300000
,
00000000
00100000
00010000
00000000
00001000
00000000
00000100
00000000
,
00000001
00000000
00000010
00000000
00001000
00000000
00010000
00000010
,
00001000
00000000
00000010
00010000
00001000
00000000
00010000
00000010
,
00000000
00000100
00000000
00000001
00000000
00001000
00000000
00000100
,
00000010
00001000
00000000
00010000
01000000
00100000
00000000
00010000
,
01000000
10000000
00100000
01100000
,
10000000
01000000
00010000
00001000
,
00000010
00000001
00000100
00001000
,
00010000
00001000
00010000
00000000
00001000
00010000
00001000
00000000
,
00010000
00001000
00010000
00100000
01000000
00000000
00100000
00000000
,
20020000
00000000
30030000
00010000
,
01000000
00001000
00010000
00000100
,
00000010
00000001
00000100
00000000
00000010
00000000
00001000
00000000
,
00000100
00010000
00001000
00000000
00000100
00000000
00000110
00000000
,
00000001
00000100
00001000
00010000
,
00100000
10000000
01000000
00010000
,
00001000
00010000
00001000
00000000
00010000
00001000
00010000
00000000
,
00001000
00010000
00001000
00000100
00000010
00000000
00000100
00000000
,
00002002
00000000
00003003
00000001
,
00000100
00001000
00010000
00100000
,
10000000
01000000
00100000
00000000
01000000
00000000
00010000
00000000
,
00001000
00000010
00000100
00000000
00000010
00000000
00000001
00000000
,
00002002
00003003
00001000
00000010
,
00010000
00001000
00100000
01000000
,
10000000
00100000
00010000
00000000
00100000
00010000
00001000
00000000
,
00010000
00001000
00010000
00100000
10000000
00000000
00010000
00000000
,
20020000
30030000
00010000
00100000
,
00001000
00000000
00010000
00000000
00000100
00000000
00001000
00000100
,
00000010
00000001
00000000
00000100
00001000
00010000
00000000
00001000
,
00100000
00000000
00010000
00000000
10010000
00000000
10000000
00100000
,
01000000
00010000
00100000
00000000
01000000
00100000
00010000
01000000
,
00000000
00001000
00000000
00010000
00000000
00022000
00000000
00033000
,
00000000
00001000
00010000
00000000
00000100
00001000
00000100
00000010
,
00000000
00000001
00000100
00000000
00000110
00000000
00000010
00001000
,
00000001
00000100
00000010
00000000
00001000
00000100
00000010
00001000
,
00000000
00010000
00000000
01000000
00000000
10000000
00000000
00100000
,
01000000
00100000
00000000
01000000
00100000
01000000
00000000
00010000
,
00100000
00001000
00010000
00011000
,
00002000
01003000
00020000
00030100
,
00002000
01003000
00022000
00033000
,
00020000
00030010
00002000
00103000
,
00020000
00030010
00022000
00033000
,
00002000
00003100
00020000
01030000
,
00002000
00003100
00022000
00033000
,
00200000
00000000
00310000
01000000
10000000
01000000
00010000
00000000
,
00100000
01000000
00010000
00022000
,
00033000
00000000
00000000
00000000
;

//---------------dance-single - ----------------
#NOTES:
     dance-single:
     :
     Hard:
     12:
     0.501232,0.531034,0.491379,0.241379,0.168103,407.000000,350.000000,57.000000,28.000000,0.000000,0.000000,0.501232,0.531034,0.491379,0.241379,0.168103,407.000000,350.000000,57.000000,28.000000,0.000000,0.000000:
0000
0000
0000
0000
,
0000
0000
0000
0000
,
0000
0000
0000
0000
,
0000
0000
0000
0000
,
1010
0000
0101
0000
0001
0010
0100
1000
,
0010
0110
2002
3003
,
1001
0000
1000
0010
0100
0001
1000
0000
,
1100
0000
0011
0000
0110
0000
1000
0010
,
0001
0000
0010
0000
1000
0000
0100
0010
0000
0000
0100
0000
1000
0000
1010
0000
,
0000
0011
0000
1100
0000
0202
0000
0303
,
0000
0000
0001
0000
0010
0000
0100
1000
0000
1000
0010
0000
0100
0000
0101
0000
,
0000
0000
1000
0000
0010
0000
0100
0001
0000
0001
0010
0000
0100
0000
1100
0000
,
0001
0000
0100
0000
1000
0000
0010
0100
0000
0000
0010
0000
1000
0000
1100
0000
,
0000
0101
0000
1010
0000
0011
0000
0001
,
0100
1010
0000
1000
0010
0101
0000
0001
,
0011
0000
1100
0000
1001
0000
0001
0100
,
1000
0000
0100
0000
0001
0000
0010
0100
0000
0100
0010
0000
0100
0000
0100
0000
,
0001
0000
0010
0000
1000
0000
0100
0010
0000
0010
0100
0000
1000
0000
0010
0100
,
0010
0000
0100
0000
0001
0000
0010
0100
0000
0100
0010
0000
0100
0000
1100
0000
,
0000
1000
0010
0001
1000
0100
0001
0010
,
0021
0000
0230
0000
1300
0010
0001
1000
,
0100
0000
0000
0001
0000
0000
0010
0000
0000
0000
0220
0000
0330
0000
1000
0000
,
0020
0001
0000
0031
0000
0001
0200
1000
,
0000
1300
0000
1010
0100
0001
0010
0100
,
1000
0000
0010
0000
0001
0000
1000
0100
0000
0100
0001
0000
0010
0000
0010
0000
,
0001
0000
0100
0000
1000
0000
0001
0010
0000
0010
1000
0000
0100
0000
0010
0100
,
0010
0000
0001
0000
1000
0000
0100
0001
0000
1000
0010
0000
0001
0000
0101
0000
,
0000
0100
0010
1000
0001
0010
0100
1000
,
1020
0000
0230
0000
0301
0010
1000
0001
,
0100
0000
0000
1000
0000
0000
0010
0000
0000
0000
0220
0000
0330
0000
1000
0000
,
0200
0001
0000
0301
0000
0001
0020
1000
,
0000
1030
0000
1100
0001
0010
0100
1000
,
1001
0000
0000
0000
0001
0000
0100
0000
0010
0000
0000
1000
0000
0000
0100
0000
,
0001
0000
0000
0010
0000
0000
1000
0000
0100
0000
0000
0000
0110
0000
0000
0000
,
0010
0001
0100
1000
0001
0000
0010
1000
,
2002
0000
0000
0000
3003
0000
0001
0010
,
0200
0000
0000
1300
1000
0010
0001
1000
,
0100
0001
0010
0100
0220
0330
0000
1000
,
0002
0013
0000
0001
2000
3100
0000
0001
,
0011
0000
0000
0000
1010
0000
0000
0000
1001
0000
0001
0000
1000
0000
0100
0010
,
0100
0000
0010
0000
0001
0000
0100
1000
0000
0001
0010
0000
1000
0000
1100
0000
,
0000
0010
0101
1000
0110
0001
1100
0000
,
1000
0000
0010
0000
0100
0000
0001
0010
0000
0010
1000
0000
0001
0000
0100
0000
,
0000
0000
1100
0000
0001
0000
0010
0100
0000
1000
0001
0000
1000
0000
0001
0000
,
0100
0000
0010
0000
1000
0000
0100
0001
0000
1000
0010
0000
0001
0000
0101
0000
,
0000
0100
0011
1000
0110
0001
1010
0100
,
0001
0011
0000
0100
1000
1010
0000
0010
,
0011
0101
1010
1100
,
0001
0100
1000
0100
0001
0010
1000
0010
,
0001
0100
0001
0000
1000
0100
1000
0000
0002
0000
0000
0000
0013
0000
0000
0000
,
1000
0100
0001
0100
1000
0010
0001
0010
,
1000
0100
1000
0000
0001
0100
0001
0000
2000
0000
0000
0000
3010
0000
0000
0000
,
0001
0100
1000
0010
0001
0010
1000
0100
,
0001
0010
0100
0000
1000
0010
0100
0000
0002
0000
0000
0000
1003
0000
0000
0000
,
1000
0010
0001
0100
1000
0100
0001
0010
,
0110
1100
0011
2002
,
3003
0000
0000
0000
;

//---------------dance-double - ----------------
#NOTES:
     dance-double:
     :
     Hard:
     12:
     0.444581,0.506897,0.275862,0.370690,0.125000,361.000000,329.000000,32.000000,43.000000,0.000000,0.000000,0.444581,0.506897,0.275862,0.370690,0.125000,361.000000,329.000000,32.000000,43.000000,0.000000,0.000000:
// measure 0
00000000
00000000
00000000
00000000
,  // measure 1
00000000
00000000
00000000
00000000
,  // measure 2
00000000
00000000
00000000
00000000
,  // measure 3
00000000
00000000
00000000
00000000
,  // measure 4
00011000
00000000
01010000
00000000
10000000
01000000
00100000
00010000
,  // measure 5
01000000
00001000
00022000
00033000
,  // measure 6
00001100
00000000
00000001
00000100
00000010
00001000
00000100
00000000
,  // measure 7
00010100
00000000
01001000
00000000
00011000
00000000
00010000
00100000
,  // measure 8
10000000
00000000
01000000
00000000
00010000
00000000
00001000
00010000
00001000
00000000
00000100
00000000
00000001
00000000
00000020
00000000
,  // measure 9
00000000
00000100
00000000
00000001
00000000
00002000
00000000
00003030
,  // measure 10
00000000
00000000
00001000
00000000
00010000
00000000
01000000
10000000
00000000
01000000
10000000
00000000
00100000
00000000
00010000
00000000
,  // measure 11
00000000
00000000
00010000
00000000
00001000
00000000
00000100
00000001
00000000
00000100
00000001
00000000
00000010
00000000
00000010
00000000
,  // measure 12
00000001
00000000
00000100
00000000
00001000
00000000
00010000
00001000
00010000
00000000
00100000
00000000
10000000
00000000
02000000
00000000
,  // measure 13
00000000
00100000
00000000
10000000
00000000
03010000
00000000
00010000
,  // measure 14
00001000
00000010
00000000
00001000
00010000
00100000
00000000
00010000
,  // measure 15
00010010
00000000
00101000
00000000
00011000
00000000
00010000
00001000
,  // measure 16
00000100
00000000
00000001
00000000
00000010
00000000
00000100
00000010
00000000
00000100
00000010
00000000
00001000
00000000
00010000
00000000
,  // measure 17
01000000
00000000
10000000
00000000
00100000
00000000
01000000
00100000
00000000
01000000
00100000
00000000
00010000
00000000
00001000
00010000
,  // measure 18
00001000
00000000
00000100
00000000
00000001
00000000
00000010
00000100
00000000
00000010
00000100
00000000
00001000
00000000
00000010
00000000
,  // measure 19
00000000
00000001
00000010
00000100
00001000
00010000
00100000
01000000
,  // measure 20
01200000
00000000
20300000
00000000
31000000
00010000
00001000
00010000
,  // measure 21
00100000
00000000
00010000
00001000
00010000
00000000
00000010
00000000
00000000
00000000
00000220
00000000
00000330
00000000
00000001
00000000
,  // measure 22
00000010
00002000
00000000
00023000
00000000
01030000
10000000
00200000
,  // measure 23
00000000
00320000
00000000
00031000
01000000
00010000
00100000
01000000
,  // measure 24
10000000
00000000
00100000
00000000
01000000
00000000
00010000
10000000
00000000
00010000
10000000
00000000
00100000
00000000
00010000
00000000
,  // measure 25
00001000
00000000
00000100
00000000
00000010
00000000
00001000
00000001
00000000
00001000
00000001
00000000
00000010
00000000
00001000
00010000
,  // measure 26
00001000
00000000
00100000
00000000
01000000
00000000
10000000
00010000
00000000
10000000
00010000
00000000
01000000
00000000
10000000
00000000
,  // measure 27
00000000
00010000
00100000
01000000
00001000
00010000
00000100
00000010
,  // measure 28
00000012
00000000
00000203
00000000
00001300
00010000
00100000
00010000
,  // measure 29
00001000
00000000
00010000
00100000
00010000
00000000
00100000
00000000
00000000
00000000
02200000
00000000
03300000
00000000
10000000
00000000
,  // measure 30
00100000
00020000
00000000
00032000
00000000
00003100
00000001
00000020
,  // measure 31
00000000
00002030
00000000
00013000
00000100
00001000
00000100
00000010
,  // measure 32
00001001
00000000
00000000
00000000
00000001
00000000
00000100
00000000
00001000
00000000
00000000
00010000
00000000
00000000
00100000
00000000
,  // measure 33
10000000
00000000
00000000
01000000
00000000
00000000
00010000
00000000
00001000
00000000
00000000
00000000
00011000
00000000
00000000
00000000
,  // measure 34
00100000
01000000
10000000
00100000
00010000
00000000
00001000
00000100
,  // measure 35
00000202
00000000
00000000
00000000
00000303
00000000
00000001
00000010
,  // measure 36
00000200
00000000
00000000
00000301
00000100
00001000
00000010
00010000
,  // measure 37
00001000
00100000
01000000
10000000
20020000
30030000
00000000
00010000
,  // measure 38
01000000
01001000
00000000
00001000
00010000
00010100
00000000
00000100
,  // measure 39
00000110
00000000
00000000
00000000
00000011
00000000
00000000
00000000
00001100
00000000
00001000
00000000
00000001
00000000
00000100
00000010
,  // measure 40
00000100
00000000
00001000
00000000
00010000
00000000
00100000
01000000
00100000
00000000
10000000
00000000
01000000
00000000
01020000
00000000
,  // measure 41
00000000
00001000
00000000
00100000
00000000
00000020
00000000
00030030
,  // measure 42
00000000
00000000
00000010
00000000
00001000
00000000
00000100
00000010
00000100
00000000
00000010
00000000
00000001
00000000
00000100
00000000
,  // measure 43
00000000
00000000
00001000
00000000
00010000
00000000
00100000
01000000
00100000
00000000
10000000
00000000
01000000
00000000
00010000
00000000
,  // measure 44
00100000
00000000
00010000
00000000
00001000
00000000
00000100
00000010
00000100
00000000
00000001
00000000
00000010
00000000
00002010
00000000
,  // measure 45
00000000
00010000
00000000
00000100
00000000
01003000
00000000
01000000
,  // measure 46
00100000
00011000
00000000
00000010
00000100
00011000
00000000
00100000
,  // measure 47
10100000
01010000
00011000
00001100
,  // measure 48
00000002
00000000
00000023
00000000
00001030
00010000
01000000
10000000
,  // measure 49
00200000
00010000
00001000
00010000
,  // measure 50
20300000
00000000
32000000
00000000
03010000
00001000
00000010
00000001
,  // measure 51
00000200
00001000
00010000
00001000
,  // measure 52
00000302
00000000
00000023
00000000
00001030
00010000
01000000
10000000
,  // measure 53
00020000
00001000
01000000
10030000
,  // measure 54
20000000
00000000
30100000
00010000
00001000
00000100
00000110
00000000
,  // measure 55
00000002
00000203
00002300
00020000
,  // measure 56
00033000
00000000
00000000
00000000
;
