#VERSION:0.83;
#TITLE:Adore U;
#SUBTITLE:;
#ARTIST:Seventeen;
#TITLETRANSLIT:;
#SUBTITLETRANSLIT:;
#ARTISTTRANSLIT:;
#GENRE:K-POP;
#ORIGIN:;
#CREDIT:MUINELIM;
#BANNER:Adore U.png;
#BACKGROUND:Adore U-bg.png;
#PREVIEWVID:;
#JACKET:Adore U-jacket.png;
#CDIMAGE:;
#DISCIMAGE:;
#LYRICSPATH:;
#CDTITLE:;
#MUSIC:Adore U.ogg;
#OFFSET:-0.037000;
#SAMPLESTART:46.515587;
#SAMPLELENGTH:13.823528;
#SELECTABLE:YES;
#DISPLAYBPM:102.000000;
#BPMS:0.000=102.000;
#STOPS:;
#DELAYS:;
#WARPS:;
#TIMESIGNATURES:0.000=4=4;
#TICKCOUNTS:0.000=4;
#COMBOS:0.000=1;
#SPEEDS:0.000=1.000=0.000=0;
#SCROLLS:0.000=1.000;
#FAKES:;
#LABELS:0.000=Song Start;
#BGCHANGES:0.000=Adore U.avi=1.000=1=0=0=StretchNoLoop==CrossFade==,
99999=-nosongbg-=1.000=0=0=0 // don't automatically add -songbackground-
;
#KEYSOUNDS:;
#ATTACKS:
;

//---------------dance-single - ----------------
#NOTEDATA:;
#CHARTNAME:;
#STEPSTYPE:dance-single;
#DESCRIPTION:;
#CHARTSTYLE:;
#DIFFICULTY:Beginner;
#METER:2;
#RADARVALUES:0.081990,0.125496,0.000000,0.000000,0.000000,71.000000,71.000000,0.000000,0.000000,0.000000,0.000000,0.000000,0.000000,0.000000,0.081990,0.125496,0.000000,0.000000,0.000000,71.000000,71.000000,0.000000,0.000000,0.000000,0.000000,0.000000,0.000000,0.000000;
#CREDIT:MUINELIM;
#DISPLAYBPM:100.000000;
#NOTES:
0000
0000
0000
0000
,
0000
0000
0000
0000
,
0000
0000
0000
0000
,
0000
0000
0000
0000
,
1000
0000
1000
0000
,
1000
0000
1000
0000
,
0001
0000
0001
0000
,
0001
0000
0001
0000
,
1000
0000
0000
0000
,
0100
0000
0000
0000
,
0010
0000
0000
0000
,
0001
0000
0000
0000
,
0001
0000
0000
0000
,
0010
0000
0000
0000
,
0100
0000
0000
0000
,
1000
0000
0000
0000
,
0010
0000
0000
0000
,
0010
0000
0000
0000
,
0100
0000
0000
0000
,
0100
0000
0100
0000
,
0001
0000
1000
0000
,
0001
0000
1000
0000
,
0010
0000
0000
0000
,
0010
0000
0000
0000
,
1000
0000
0001
0000
,
1000
0000
0001
0000
,
0100
0000
0100
0000
,
0100
0000
0100
0100
,
0100
0000
0000
0000
,
0001
0000
0000
0000
,
1000
0000
0000
0000
,
0010
0000
0000
0000
,
0100
0000
0000
0000
,
0000
0000
0000
0000
,
0010
0000
0000
0000
,
0000
0000
0000
0000
,
1000
0000
0000
0000
,
0001
0000
0000
0000
,
1000
0000
0001
0000
,
1000
0000
0001
0001
,
0001
0000
0000
0000
,
1000
0000
0100
0000
,
0010
0000
0001
0000
,
0010
0000
0100
0000
,
1000
0000
0010
0000
,
0100
0000
0001
0000
,
0010
0000
0100
0000
,
1000
0000
0001
0001
,
0001
0000
0000
0000
,
0100
0000
0000
0000
,
0010
0000
0000
0000
,
1000
0000
0001
0001
;

//---------------dance-single - ----------------
#NOTEDATA:;
#CHARTNAME:;
#STEPSTYPE:dance-single;
#DESCRIPTION:;
#CHARTSTYLE:;
#DIFFICULTY:Easy;
#METER:5;
#RADARVALUES:0.165134,0.209160,0.080835,0.016167,0.000000,143.000000,133.000000,10.000000,2.000000,0.000000,0.000000,0.000000,0.000000,0.000000,0.165134,0.209160,0.080835,0.016167,0.000000,143.000000,133.000000,10.000000,2.000000,0.000000,0.000000,0.000000,0.000000,0.000000;
#CREDIT:MUINELIM;
#DISPLAYBPM:100.000000;
#NOTES:
0000
0000
0000
0000
,
0000
0000
0000
0000
,
0000
0000
0000
0000
,
0000
0000
0000
0000
,
0100
0000
0010
0000
,
0100
0010
0100
0000
,
0001
0000
1000
0000
,
0001
1000
0001
1001
,
0100
0000
0010
0000
,
1000
0001
0100
0000
,
0010
0000
0100
0000
,
0001
1000
0010
0000
,
1000
0000
0100
0000
,
0010
0001
1000
0000
,
0001
0000
0010
0000
,
0100
1000
0001
0000
,
1000
1000
0010
0000
,
0001
0001
0100
0000
,
1000
1000
0001
0000
,
0100
0010
0100
0110
,
0001
0001
1000
1000
,
0001
0100
1000
0000
,
1000
0100
0001
0000
,
1000
0100
0001
0000
,
0001
0100
1000
0010
,
0100
0010
0110
0000
,
1000
1000
0001
0001
,
1001
0000
0010
0010
,
0010
0000
0100
0000
,
0010
1000
0001
0001
,
0001
0000
1000
0000
,
0001
0100
0010
0010
,
0110
0000
0000
0000
,
0000
0000
0000
0000
,
0110
0000
0000
0000
,
0000
0000
0000
0000
,
1000
0000
0010
0000
,
0001
0000
0100
0000
,
1000
0001
1000
0010
,
0100
0010
0010
0010
,
2002
0000
3003
0000
,
0001
0010
1000
0000
,
1000
0010
0001
0000
,
1000
0010
0001
0000
,
0001
0010
1000
0100
,
0010
0100
0110
0000
,
1000
0001
1000
0001
,
1001
0000
0100
0100
,
0100
0000
0010
0000
,
0100
0001
1000
1000
,
1000
0000
0001
0000
,
1000
0010
0100
0110
;

//---------------dance-single - ----------------
#NOTEDATA:;
#CHARTNAME:;
#STEPSTYPE:dance-single;
#DESCRIPTION:;
#CHARTSTYLE:;
#DIFFICULTY:Medium;
#METER:8;
#RADARVALUES:0.300244,0.334656,0.242505,0.072751,0.000000,260.000000,230.000000,30.000000,9.000000,0.000000,0.000000,0.000000,0.000000,0.000000,0.300244,0.334656,0.242505,0.072751,0.000000,260.000000,230.000000,30.000000,9.000000,0.000000,0.000000,0.000000,0.000000,0.000000;
#CREDIT:MUINELIM;
#DISPLAYBPM:100.000000;
#NOTES:
0000
0000
0000
0000
,
0000
0000
0000
0000
,
0000
0000
0000
0000
,
0000
0000
0000
0000
,
1000
1000
0001
0001
,
1000
0000
0010
0100
0010
0000
0100
0000
,
0001
0001
1000
1000
,
0001
0000
0100
0010
0100
0000
0010
1000
,
1001
0001
0100
0010
,
1000
0100
0010
0001
0010
0000
0010
0000
,
0001
0100
0010
1000
,
1100
0110
0011
1001
,
0001
1000
0010
0100
,
0001
0010
0100
1000
0100
0000
0100
0000
,
1000
0010
0100
0001
,
0011
1100
2002
3003
,
0001
0100
1000
0000
0100
0000
0100
0000
,
1000
0100
0001
0000
0010
0000
0010
0000
,
0001
0100
1000
0000
0100
0000
0100
0000
,
0101
0000
1010
0000
0010
0100
0010
0100
,
1001
0000
0001
1000
0010
0000
1000
0001
,
0100
0000
0010
0000
0100
0000
0001
0010
,
0100
1000
0001
0000
1000
0000
0001
0010
,
0100
1000
0001
0000
1000
0000
0010
0100
,
0001
0000
0100
0010
1000
0000
0100
0010
,
0001
0000
1000
0100
0010
0000
0001
1000
,
1001
0000
0110
0000
0010
1000
0001
0200
,
0000
0010
0310
0000
1010
0000
0101
0000
,
0011
0010
0100
1000
,
0001
0000
0010
0100
1000
0000
1100
0000
,
0100
0010
0001
1000
,
0100
0010
0001
0000
1000
0010
0100
0001
,
1000
0010
0000
0010
,
0000
0001
0000
0001
,
0000
0100
0000
0100
,
0000
1000
0000
1000
,
0010
0110
1000
1001
,
0100
0110
0001
1001
,
1000
0010
0001
0100
,
1000
0000
0010
0100
0001
1000
0020
0000
,
0230
0000
0020
0000
0330
0000
0010
0100
,
1001
0000
1000
0000
0001
0000
0100
0010
,
1001
0000
0001
0000
2000
0000
3010
0100
,
0101
0000
1010
0000
0110
0000
0001
0100
,
1000
0000
1000
0010
0001
0000
0001
0100
,
0010
1000
0001
0100
0010
0000
0100
0100
,
0001
0010
0100
1000
0100
0010
0001
0200
,
0000
0010
0310
0000
1001
0000
0101
0000
,
1010
1000
0100
0001
,
0010
0000
1000
0001
0100
0000
0101
0000
,
0001
0010
1000
0100
,
0001
1000
0010
0100
0020
0000
0130
0000
;

//---------------dance-single - ----------------
#NOTEDATA:;
#CHARTNAME:;
#STEPSTYPE:dance-single;
#DESCRIPTION:;
#CHARTSTYLE:;
#DIFFICULTY:Hard;
#METER:10;
#RADARVALUES:0.409948,0.462375,0.428425,0.137419,0.048501,355.000000,302.000000,53.000000,17.000000,0.000000,0.000000,0.000000,0.000000,0.000000,0.409948,0.462375,0.428425,0.137419,0.048501,355.000000,302.000000,53.000000,17.000000,0.000000,0.000000,0.000000,0.000000,0.000000;
#CREDIT:MUINELIM;
#DISPLAYBPM:100.000000;
#NOTES:
// measure 0
0000
0000
0000
0000
,  // measure 1
0000
0000
0000
0000
,  // measure 2
0000
0000
0000
0000
,  // measure 3
0000
0000
0000
0000
0000
0000
1000
1000
,  // measure 4
1000
0000
0001
0001
0001
0000
1000
1000
,  // measure 5
2000
0000
0000
0001
0000
0001
0000
3001
0000
0000
0000
0000
0010
0000
0010
0000
,  // measure 6
0010
0000
0100
0100
0100
0000
0010
0010
,  // measure 7
0020
0000
0000
0100
0000
0100
0000
0130
0000
0000
0000
0000
1000
0000
0001
0000
,  // measure 8
1001
1000
0010
0100
0001
0100
0010
1000
,  // measure 9
0100
0010
0001
1000
0010
0100
0010
0000
,  // measure 10
1000
0001
1000
0010
0100
0010
1000
0001
,  // measure 11
0010
0010
0100
0100
1000
0001
1001
0000
,  // measure 12
0110
0100
0001
0010
0001
1000
0100
1000
,  // measure 13
0001
0100
0010
1000
0100
0010
0100
0000
,  // measure 14
1000
0010
0100
0001
0010
0100
1000
0010
,  // measure 15
0110
0101
2020
3030
,  // measure 16
1000
0100
0010
0001
0010
1000
0010
0000
,  // measure 17
0001
0010
0100
1000
0100
0001
0100
0000
,  // measure 18
1000
0010
0100
0001
0010
0100
1001
0000
,  // measure 19
0001
0100
0001
0000
1000
0010
1000
0000
0001
0000
1000
0000
1001
0000
0010
0000
,  // measure 20
0110
0000
0110
1000
1001
0000
0001
0100
,  // measure 21
0010
1000
0100
0010
0002
0000
0013
0100
,  // measure 22
2000
0010
0010
0001
3001
0000
0100
0010
,  // measure 23
0002
0100
0100
1000
1003
0000
0101
0100
,  // measure 24
1010
0000
1100
0010
0011
0000
0001
1000
,  // measure 25
0100
0010
0001
1000
0010
0000
0100
0010
,  // measure 26
1000
0000
1000
0000
0001
0000
0001
0000
0010
0000
0100
0000
1000
0010
1000
0020
,  // measure 27
0000
0130
0101
0000
0011
0000
1100
0000
,  // measure 28
1001
0000
0010
0010
1010
0000
0100
0100
,  // measure 29
0101
0000
0001
1000
1001
0000
0101
0000
,  // measure 30
1010
0000
1000
1000
1100
0000
0001
0001
,  // measure 31
0011
0000
0010
0100
0010
0001
1000
0100
,  // measure 32
0020
0001
0000
1000
,  // measure 33
0000
0001
0000
0130
,  // measure 34
0200
1000
0000
0001
,  // measure 35
0000
1000
0000
0310
,  // measure 36
0010
0001
0100
0000
0001
0100
1000
0000
,  // measure 37
0100
1000
0010
0000
1000
0010
0001
0000
,  // measure 38
0010
0001
0100
0001
1000
0010
1000
0100
,  // measure 39
0010
0001
1000
0010
0100
0001
0011
0000
,  // measure 40
1100
0000
0220
0000
0330
0000
0001
0100
,  // measure 41
1000
0100
0001
0010
0110
0000
1000
0010
,  // measure 42
0001
1000
0200
0010
0310
0000
0001
0100
,  // measure 43
1000
0001
0020
0100
0130
0000
1100
0010
,  // measure 44
0101
0000
0011
0100
1010
0000
1000
0100
,  // measure 45
0001
0010
1000
0001
1001
0000
0100
0010
,  // measure 46
0001
0000
0001
0000
1000
0000
1000
0000
0010
0000
0100
0000
0001
0010
0001
0020
,  // measure 47
0000
0130
1100
0000
1010
0000
0101
0000
,  // measure 48
1001
0000
1010
1000
1100
0000
0101
0001
,  // measure 49
0011
0000
0110
1000
1001
0000
1010
0000
,  // measure 50
0101
0000
0011
1000
0101
0000
1100
0001
,  // measure 51
1010
0000
1001
0110
2000
0000
0002
0000
,  // measure 52
3003
0000
0000
0000
;

//---------------dance-single - ----------------
#NOTEDATA:;
#CHARTNAME:;
#STEPSTYPE:dance-single;
#DESCRIPTION:;
#CHARTSTYLE:;
#DIFFICULTY:Challenge;
#METER:13;
#RADARVALUES:0.517343,0.630512,0.379924,0.226338,0.521385,448.000000,401.000000,47.000000,28.000000,0.000000,0.000000,0.000000,0.000000,0.000000,0.517343,0.630512,0.379924,0.226338,0.521385,448.000000,401.000000,47.000000,28.000000,0.000000,0.000000,0.000000,0.000000,0.000000;
#CREDIT:MUINELIM;
#DISPLAYBPM:100.000000;
#NOTES:
0000
0000
0000
0000
,
0000
0000
0000
0000
,
0000
0000
0000
0000
,
0000
0000
0000
0000
0000
0000
0000
0000
0000
0000
0000
0000
1000
0010
1000
0010
,
1000
0000
0000
0000
0001
0100
0001
0100
0001
0000
0000
0000
1000
0010
1000
0010
,
2000
0000
0000
0100
0000
0100
0000
3001
0000
0000
0000
0000
0001
0010
0001
0010
,
0001
0000
0000
0000
1000
0100
1000
0100
1000
0000
0000
0000
0001
0010
0001
0010
,
0002
0000
0000
0100
0000
0100
0000
1003
0000
0000
0000
0000
1000
0001
1000
0010
,
0100
0000
0001
0000
0010
0000
0100
0010
0000
0100
0000
1100
0000
0000
1000
0000
,
0010
0000
0100
0000
0010
0100
0000
0001
0000
0000
0101
0000
0000
0000
0000
0000
,
0011
0000
0010
0000
0100
0000
1000
0010
0000
0110
0000
0100
0000
0001
0000
1000
,
0010
0110
0100
0101
0001
1001
1000
1010
,
0010
0000
0100
0000
0001
0000
1000
0100
0000
0010
0000
0011
0000
0000
0001
0000
,
0100
0000
0010
0000
1000
0100
0000
1000
0000
0000
1010
0000
0000
0220
0000
0000
,
0330
0000
0100
0000
0001
0000
0010
0100
0000
1000
0000
0001
0000
1001
0000
0000
,
1010
0010
0110
0100
0101
0001
1001
1000
,
0010
0000
0100
0001
0100
0000
0010
1000
0100
0000
0100
0010
0001
0000
0000
0000
,
0011
0000
0001
0100
0001
0000
0100
0010
1000
0000
1000
0001
0100
0000
0000
0000
,
0110
0000
0010
1000
0010
0000
0100
0001
0010
0000
0010
0100
1000
0000
0010
0000
,
0100
0001
1000
0000
0010
1000
0001
0000
0100
0010
0100
0001
1000
0000
0001
0000
,
2002
3003
1000
0010
0110
0000
0001
0100
,
0110
0000
1000
0100
0000
0010
0000
0002
0000
0000
0000
0000
0103
0000
0010
0000
,
1010
0000
1000
0001
0000
0010
0000
0200
0000
0000
0000
0000
1300
0000
0001
0000
,
0101
0000
0100
0010
0000
1000
0000
0200
0000
0000
0000
0000
0310
0000
0001
0000
,
0101
0000
0100
1000
1010
0000
0010
0100
,
0110
0000
0010
1000
0000
0001
0000
0020
0000
0000
0000
0000
0130
0000
1000
0000
,
0010
0100
0001
0000
0100
0010
1000
0000
0001
0010
0100
0000
1000
0010
1000
0020
,
0000
0130
0101
0000
0011
0000
1100
0000
,
1001
0000
0000
0000
0001
0100
0001
0100
0010
0000
0000
0000
1000
0100
1000
0100
,
0010
0000
0000
0000
0001
1000
0001
1000
0020
0000
0000
0000
0230
0000
0000
0000
,
0310
0000
0000
0000
0010
1000
0010
1000
0001
0000
0000
0000
0010
0001
0010
0001
,
1000
0000
0000
0000
0010
0100
0010
0100
0001
0000
0010
0000
1000
0000
0100
0000
,
0001
0010
0100
0001
0100
1000
0100
0020
,
0000
0031
2000
0000
0100
0000
3010
0000
,
1000
0100
0010
1000
0010
0001
0010
0200
,
0000
0000
1300
0000
0002
0000
0000
0000
0010
0000
0000
0000
0103
0000
0000
0100
,
0010
0000
1000
0000
0001
0000
0010
0100
1000
0000
0001
0000
0100
0010
0000
1000
,
0001
0000
0010
0000
0100
0000
1000
0010
0100
0001
1000
0000
1001
0000
0000
0001
,
0010
0100
0010
0100
1000
0010
1000
0010
0100
0001
0100
0001
1000
0100
0010
0001
,
1000
0010
0100
0001
0010
0000
0100
0000
1000
0000
0001
0000
0101
0000
0000
0000
,
1010
0000
0220
0000
0000
0330
0110
0110
,
1001
0000
0001
0100
0000
1000
0000
0110
0000
0000
1000
0000
0010
0000
0001
0000
,
0110
0000
0010
1000
0000
0001
0000
2002
0000
0000
3003
0000
1000
0010
0100
0001
,
1000
0000
0100
0010
0001
0000
0010
0100
2000
0000
0000
0000
3001
0000
0100
0000
,
1100
0000
1000
0010
0011
0000
0001
1000
,
0110
0000
0001
0010
0000
1000
0000
0200
0000
0000
0000
0000
0010
0000
0310
0000
,
0010
0001
0100
0000
0010
1000
0100
0000
0010
0100
1000
0000
0001
0010
0100
2000
,
0000
3010
0101
0000
1100
0000
0011
0000
,
1010
0000
0000
0000
1000
0100
0010
0100
1000
0000
0000
0000
0001
0010
0100
0010
,
0001
0000
0000
0000
0100
0010
1000
0001
0200
0000
0000
0000
0320
0000
0000
0000
,
0130
0000
0000
0000
0100
0001
0010
0100
0010
0000
0000
0000
0100
1000
0010
0100
,
0010
0000
0000
0000
0001
0010
0100
0010
2000
0000
0000
0000
0002
0000
0000
0000
,
3003
0000
0000
0000
;

//---------------dance-double - ----------------
#NOTEDATA:;
#CHARTNAME:;
#STEPSTYPE:dance-double;
#DESCRIPTION:;
#CHARTSTYLE:;
#DIFFICULTY:Hard;
#METER:11;
#RADARVALUES:0.394936,0.399324,0.339506,0.121252,0.040417,342.000000,300.000000,42.000000,15.000000,0.000000,0.000000,0.000000,0.000000,0.000000,0.394936,0.399324,0.339506,0.121252,0.040417,342.000000,300.000000,42.000000,15.000000,0.000000,0.000000,0.000000,0.000000,0.000000;
#CREDIT:MUINELIM;
#DISPLAYBPM:100.000000;
#NOTES:
00000000
00000000
00000000
00000000
,
00000000
00000000
00000000
00000000
,
00000000
00000000
00000000
00000000
,
00000000
00000000
00000000
00000000
00000000
00000000
00001000
00001000
,
00001000
00000000
00010000
00010000
00010000
00000000
00001000
00001000
,
00002000
00000000
00000000
01000000
00000000
01000000
00000000
01003000
00000000
00000000
00000000
00000000
00010000
00000000
00010000
00000000
,
00010000
00000000
00001000
00001000
00001000
00000000
00010000
00010000
,
00020000
00000000
00000000
00000010
00000000
00000010
00000000
00030010
00000000
00000000
00000000
00000000
00001000
00000000
00010000
00000000
,
00011000
00000100
00001000
00000001
00001000
00000100
00010000
00001000
,
00100000
00010000
10000000
00010000
00100000
01000000
10000000
00000000
,
00100000
01000000
00100000
10000000
01000000
00100000
00010000
01000000
,
00001000
00010000
00000010
00001000
00000100
00010000
00001000
00000000
,
00011000
01000000
00010000
10000000
00010000
01000000
00001000
00010000
,
00000010
00001000
00000001
00001000
00000010
00000100
00000001
00000000
,
00000010
00000100
00000010
00001000
00010000
01000000
00100000
01000000
,
10000000
10100000
02020000
03030000
,
00010000
00100000
10000000
00100000
00001000
00010000
00000100
00000000
,
00001000
00000100
00000001
00000100
00010000
00001000
00100000
00000000
,
00010000
00100000
00001000
00000010
00000100
00001000
00001001
00000000
,
00000001
00000100
00001000
00010000
00100000
10000000
01000000
00100000
,
01100000
00000000
01000000
00010000
00011000
00000000
00001000
00000010
,
00000100
00000010
00000001
00000100
00002000
00000000
00013000
00100000
,
10000000
01000000
00010000
00001000
00011000
00000000
00001000
00000010
,
00000001
00000100
00001000
00010000
00011000
00000000
00001000
00100000
,
01100000
00000000
01000000
10000000
10010000
00000000
00010000
01000000
,
00100000
00010000
00001000
00000100
00000110
00000000
00000010
00000100
,
00000001
00000000
00000010
00000000
00001000
00000000
00010000
00000000
01000000
00000000
10000000
00000000
00100000
01000000
00100000
02000000
,
00000000
03001000
00011000
00000000
01001000
00000000
00010010
00000000
,
00011000
00000000
00001000
00000100
00000101
00000000
00000001
00000010
,
00001010
00000000
00001000
00000010
00000101
00000000
00001100
00000000
,
00011000
00000000
00010000
01000000
11000000
00000000
10000000
00100000
,
00110000
00000000
00010000
00100000
10000000
01000000
00100000
00001000
,
00020000
00000010
00000000
00100000
,
00000000
01000000
00000000
00030100
,
00002000
01000000
00000000
00000100
,
00000000
00000010
00000000
00103000
,
00001000
00010000
00100000
00000000
00010000
00001000
00000010
00000000
,
00001000
00010000
01000000
00000000
00010000
00001000
00000100
00000000
,
00000001
00000010
00000100
00000010
00001000
00010000
01000000
00100000
,
01000000
10000000
00100000
00010000
00001000
00010000
00010010
00000000
,
01001000
00000000
00022000
00000000
00033000
00000000
00010000
00001000
,
00000100
00000001
00000010
00000100
00001001
00000000
00000001
00000100
,
00001000
00010000
00200000
10000000
10300000
00000000
10000000
01000000
,
00010000
00001000
00000020
00000001
00000031
00000000
00000101
00001000
,
00000100
00000000
00001100
00000001
00000100
00000000
00001000
00010000
,
00100000
10000000
01000000
00100000
01100000
00000000
10000000
01000000
,
00010000
00000000
00010000
00000000
00001000
00000000
00001000
00000000
00000010
00000000
00000001
00000000
00000100
00000010
00000100
00000020
,
00000000
00010030
00011000
00000000
00010100
00000000
00101000
00000000
,
00011000
00000000
00010000
00100000
10100000
00000000
10000000
01000000
,
01010000
00000000
00010000
00001000
01001000
00000000
00010010
00000000
,
00011000
00000000
00001100
00000010
00000001
00000000
00000101
00000010
,
00001000
00000000
00011000
00100000
20000000
00000000
00020000
00000000
,
30030000
00000000
00000000
00000000
;

//---------------dance-double - ----------------
#NOTEDATA:;
#CHARTNAME:;
#STEPSTYPE:dance-double;
#DESCRIPTION:;
#CHARTSTYLE:;
#DIFFICULTY:Challenge;
#METER:13;
#RADARVALUES:0.501176,0.525427,0.379924,0.226338,0.416300,434.000000,387.000000,47.000000,28.000000,0.000000,0.000000,0.000000,0.000000,0.000000,0.501176,0.525427,0.379924,0.226338,0.416300,434.000000,387.000000,47.000000,28.000000,0.000000,0.000000,0.000000,0.000000,0.000000;
#CREDIT:MUINELIM;
#DISPLAYBPM:100.000000;
#NOTES:
00000000
00000000
00000000
00000000
,
00000000
00000000
00000000
00000000
,
00000000
00000000
00000000
00000000
,
00000000
00000000
00000000
00000000
00000000
00000000
00000000
00000000
00000000
00000000
00000000
00000000
00001000
00010000
00001000
00000000
,
00000100
00000000
00000001
00000000
00000010
00000100
00000010
00000000
00001000
00000000
00010000
00000000
01000000
00100000
01000000
00000000
,
20000000
00000000
00000000
30100000
00000000
00010000
00000000
00011000
00000000
00000000
00000000
00000000
00010000
00001000
00010000
00000000
,
01000000
00000000
10000000
00000000
00100000
01000000
00100000
00000000
00010000
00000000
00001000
00000000
00000100
00000010
00000100
00000000
,
00000002
00000000
00000000
00000013
00000000
00001000
00000000
00011000
00000000
00000000
00000000
00000000
00010000
00001000
00010000
00001000
,
00010000
00000000
01000000
00000000
10000000
00000000
00100000
01000000
00000000
00100000
00000000
01100000
00000000
00000000
01000000
00000000
,
00010000
00000000
00100000
00000000
01000000
00010000
00000000
00001000
00000000
00000000
00011000
00000000
00000000
00000000
00000000
00000000
,
00010100
00000000
00000100
00000000
00000010
00000000
00000001
00000100
00000000
00001010
00000000
00001000
00000000
00000100
00000000
00010000
,
00001000
01001000
00010000
00010100
00001000
00101000
00010000
00010010
,
00000010
00000000
00001000
00000000
00000100
00000000
00000010
00001000
00000000
00010000
00000000
00011000
00000000
00000000
00001000
00000000
,
00100000
00000000
00010000
00000000
01000000
10000000
00000000
01000000
00000000
00000000
01100000
00000000
00000000
20020000
00000000
00000000
,
30030000
00000000
10000000
00000000
00100000
00000000
01000000
00010000
00000000
00100000
00000000
00001000
00000000
00011000
00000000
00000000
,
00010100
00001000
01001000
00010000
00010010
00001000
00101000
00100000
,
01000000
00000000
00010000
00001000
00010000
00000000
00000100
00000000
00000010
00000000
00000001
00000100
00000001
00000000
00000000
00000000
,
00000101
00000000
00000100
00000010
00000100
00000000
00001000
00000000
00010000
00000000
00100000
10000000
00100000
00000000
00000000
00000000
,
10100000
00000000
10000000
01000000
10000000
00000000
01000000
00000000
00010000
00000000
00001000
00010000
00001000
00000000
00000100
00000000
,
00000001
00000010
00000001
00000000
00000100
00000010
00000100
00000000
00001000
00010000
00001000
00010000
00001000
00000000
00010000
00000000
,
00022000
00033000
00001000
00100000
01100000
00000000
01000000
00010000
,
00011000
00000000
00001000
00100000
00000000
00010000
00000000
02000000
00000000
00000000
00000000
00000000
03001000
00000000
00010000
00000000
,
00011000
00000000
00001000
00000100
00000000
00000001
00000000
00000020
00000000
00000000
00000000
00000000
00001030
00000000
00010000
00000000
,
00011000
00000000
00001000
00100000
00000000
01000000
00000000
20000000
00000000
00000000
00000000
00000000
30100000
00000000
00010000
00000000
,
00011000
00000000
00001000
00000100
00000101
00000000
00000001
00000010
,
00000110
00000000
00000100
00010000
00000000
00001000
00000000
00200000
00000000
00000000
00000000
00000000
00310000
00000000
10000000
00000000
,
01000000
00100000
01000000
00000000
00010000
00001000
00010000
00000000
00000010
00000100
00000010
00000000
00001000
00000001
00001000
00000002
,
00000000
00000103
00000110
00000000
00010010
00000000
00101000
00000000
,
00011000
00000000
00000000
00000000
00001000
00010000
00001000
00000000
00100000
00000000
01000000
00000000
10000000
00100000
10000000
00000000
,
00010000
00000000
00100000
00000000
01000000
10000000
01000000
00000000
00020000
00000000
00000000
00000000
00032000
00000000
00000000
00000000
,
00013000
00000000
00000000
00000000
00010000
00001000
00010000
00000000
00000010
00000000
00000100
00000000
00000001
00000010
00000001
00000000
,
00001000
00000000
00000010
00000000
00000100
00000001
00000100
00000000
00001000
00000000
00010000
00000000
00100000
00000000
01000000
00000000
,
00010000
10000000
01000000
00100000
00010000
00001000
00000100
00000020
,
00000000
00000031
00002000
00000000
00000100
00000000
00003010
00000000
,
00001000
00000001
00000100
00000010
00001000
00010000
01000000
00200000
,
00000000
00000000
10300000
00000000
00020000
00000000
00000000
00000000
01000000
00000000
00000000
00000000
00130000
00000000
00000000
00010000
,
10000000
00000000
01000000
00000000
00010000
00000000
00001000
00010000
00001000
00000000
00000100
00000000
00000001
00000010
00000000
00000100
,
00000001
00000000
00000100
00000000
00010000
00000000
00001000
00010000
00001000
00000000
00100000
00000000
01100000
00000000
00000000
10000000
,
00100000
01000000
00100000
00000000
01000000
00010000
01000000
00000000
00001000
00010000
00001000
00000000
00010000
00000100
00010000
00000000
,
00000100
00000010
00000100
00000010
00000001
00000000
00000100
00000000
00001000
00000000
00010000
00000000
00010010
00000000
00000000
00000000
,
01001000
00000000
00022000
00000000
00000000
00033000
00010000
00001000
,
00011000
00000000
00010000
00000100
00000000
00000010
00000000
00000011
00000000
00000000
00000001
00000000
00000100
00000000
00001000
00000000
,
00011000
00000000
00010000
00100000
00000000
10000000
00000000
20020000
00000000
00000000
30030000
00000000
00010000
00100000
00010000
00100000
,
01000000
00000000
00010000
00000100
00010000
00000000
00001000
01000000
00002000
00000000
00000000
00000000
00013000
00000000
00000100
00000000
,
00000110
00000000
00000010
00001000
00011000
00000000
00010000
00001000
,
00001010
00000000
00000010
00000001
00000000
00000100
00000000
00002000
00000000
00000000
00000000
00000000
00010000
00000000
00013000
00000000
,
00010000
00000010
00010000
00000000
00001000
01000000
00001000
00000000
00100000
00010000
00100000
00000000
01000000
10000000
01000000
20000000
,
00000000
30100000
01100000
00000000
00110000
00000000
00001100
00000000
,
00001001
00000000
00000000
00000000
00000001
00000100
00000001
00000000
00000010
00000000
00001000
00000000
00100000
01000000
00100000
00000000
,
00010000
00000000
10000000
00000000
01000000
00010000
01000000
00000000
00200000
00000000
00000000
00000000
00320000
00000000
00000000
00000000
,
10030000
00000000
00000000
00000000
10000000
01000000
10000000
00000000
00100000
00000000
00010000
00000000
00000010
00000100
00000010
00000000
,
00001000
00000000
00000001
00000000
00000100
00001000
00000100
00000000
00000020
00000000
00000000
00000000
00020000
00000000
00000000
00000000
,
00030030
00000000
00000000
00000000
;

//---------------dance-double - ----------------
#NOTEDATA:;
#CHARTNAME:;
#STEPSTYPE:dance-double;
#DESCRIPTION:;
#CHARTSTYLE:;
#DIFFICULTY:Easy;
#METER:5;
#RADARVALUES:0.165134,0.209160,0.080835,0.016167,0.000000,143.000000,133.000000,10.000000,2.000000,0.000000,0.000000,0.000000,0.000000,0.000000,0.165134,0.209160,0.080835,0.016167,0.000000,143.000000,133.000000,10.000000,2.000000,0.000000,0.000000,0.000000,0.000000,0.000000;
#CREDIT:MUINELIM;
#DISPLAYBPM:102.000000;
#NOTES:
00000000
00000000
00000000
00000000
,
00000000
00000000
00000000
00000000
,
00000000
00000000
00000000
00000000
,
00000000
00000000
00000000
00000000
,
01000000
00000000
01000000
00000000
,
01000000
00001000
00010000
00000000
,
00000010
00000000
00000010
00000000
,
00000010
00010000
00001000
00011000
,
00100000
00000000
01000000
00000000
,
00010000
00001000
00010000
00000000
,
00000100
00000000
00000010
00000000
,
00001000
00010000
00001000
00000000
,
01000000
00000000
00100000
00000000
,
00010000
00001000
00010000
00000000
,
00000010
00000000
00000100
00000000
,
00001000
00010000
00001000
00000000
,
00010000
00010000
00100000
00000000
,
00001000
00001000
00000010
00000000
,
00010000
00010000
01000000
00000000
,
00001000
00001000
00000100
00001001
,
00000001
00000100
00001000
00010000
,
01000000
10000000
00010000
00000000
,
00010000
00100000
01000000
00000000
,
01000000
00010000
00001000
00000000
,
00001000
00010000
01000000
00100000
,
00001000
00010000
00011000
00000000
,
00001000
00000100
00000001
00001000
,
00001001
00000000
00000010
00000010
,
00000010
00000000
00010000
00000000
,
00010000
00001000
01000000
01000000
,
01000000
00000000
00001000
00000000
,
00001000
00010000
00000100
00000100
,
00000110
00000000
00000000
00000000
,
00000000
00000000
00000000
00000000
,
01100000
00000000
00000000
00000000
,
00000000
00000000
00000000
00000000
,
10000000
00000000
00100000
00000000
,
00010000
00000000
00001000
00000000
,
00000100
00000001
00000100
00000010
,
00001000
00000010
00010000
00001000
,
00022000
00000000
00033000
00000000
,
00010000
00100000
10000000
00000000
,
10000000
01000000
00010000
00000000
,
00001000
00000010
00000001
00000000
,
00000001
00000100
00001000
00010000
,
00001000
01000000
01100000
00000000
,
00100000
00010000
00001000
00000100
,
00000110
00000000
00000001
00000001
,
00000001
00000000
00001000
00000000
,
00010000
01000000
10000000
10000000
,
10000000
00000000
00010000
00000000
,
00001000
00000010
00000001
00001001
;

//---------------dance-double - ----------------
#NOTEDATA:;
#CHARTNAME:;
#STEPSTYPE:dance-double;
#DESCRIPTION:;
#CHARTSTYLE:;
#DIFFICULTY:Medium;
#METER:8;
#RADARVALUES:0.291006,0.334656,0.250588,0.080835,0.000000,252.000000,221.000000,31.000000,10.000000,0.000000,0.000000,0.000000,0.000000,0.000000,0.291006,0.334656,0.250588,0.080835,0.000000,252.000000,221.000000,31.000000,10.000000,0.000000,0.000000,0.000000,0.000000,0.000000;
#CREDIT:MUINELIM;
#DISPLAYBPM:102.000000;
#NOTES:
00000000
00000000
00000000
00000000
,
00000000
00000000
00000000
00000000
,
00000000
00000000
00000000
00000000
,
00000000
00000000
00000000
00000000
,
00001000
00001000
00010000
00010000
,
00000100
00000000
00010000
00001000
00010000
00000000
00001000
00000000
,
00010000
00010000
00001000
00001000
,
01000000
00000000
00001000
00010000
00001000
00000000
00010000
00000000
,
00011000
00001000
00000100
00000001
,
00000010
00000100
00000010
00000100
00000010
00000000
00001000
00000000
,
00010000
01000000
10000000
00100000
,
01000000
01100000
00010000
00011000
,
00001000
00010000
00100000
10000000
,
01000000
00100000
01000000
00100000
01000000
00000000
00010000
00000000
,
00001000
00000010
00000001
00000100
,
00000110
00001000
00002002
00003003
,
00000001
00000100
00001000
00000000
00010000
00000000
00010000
00000000
,
00001000
00010000
01000000
00000000
10000000
00000000
10000000
00000000
,
00100000
00010000
00001000
00000000
00010000
00000000
00010000
00000000
,
00010010
00000000
01001000
00000000
00001000
00010000
00001000
00000000
,
00011000
00000000
00010000
00001000
01000000
00000000
00001000
00010000
,
00000010
00000000
00010000
00000000
00001000
00000000
00100000
01000000
,
00010000
00000000
00001000
00000000
00011000
00000000
00000100
00000010
,
00001000
00000000
00010000
00000000
00011000
00000000
00001000
00010000
,
00000100
00000000
00010000
00001000
00100000
00000000
00001000
00010000
,
01000000
00000000
00010000
00001000
00000010
00000000
00000001
00000000
,
00001001
00000000
00000110
00000000
00000010
00010000
00001000
02000000
,
00000000
00100000
03100000
00000000
10100000
00000000
01010000
00000000
,
10010000
10000000
01000000
00010000
,
00001000
00000000
00000010
00000100
00000010
00000000
00001001
00000000
,
00000001
00000100
00001000
00010000
,
01000000
00100000
01000000
00000000
10000000
00100000
00010000
00000000
,
00011000
00001000
00000000
00000100
,
00000000
00010000
00000000
01000000
,
00000000
00001000
00000000
00000010
,
00000000
00010000
00000000
00100000
,
00001000
00011000
00010000
00010010
,
00001000
01001000
00010000
00011000
,
00001000
00000100
00000001
00000010
,
00001000
00000000
00010000
00001000
00010000
00001000
00020000
00000000
,
02030000
00000000
23000000
00000000
00000000
00000000
30100000
01000000
,
01100000
00000000
00010000
00000000
00001000
00000000
00000100
00000010
,
00000110
00001000
00020000
00031000
,
00010010
00000000
01001000
00000000
00011000
00000000
00010000
00001000
,
00000100
00000000
00001000
00010000
00100000
00000000
00010000
00001000
,
00000100
00001000
00010000
00100000
00010000
00000000
00001000
00001000
,
00000010
00000001
00000100
00001000
00010000
00100000
10000000
02000000
,
00000000
00100000
03100000
00000000
10010000
00000000
11000000
00000000
,
00110000
00100000
00001000
00000010
,
00000001
00000000
00000100
00000010
00001000
00000000
00001100
00000000
,
00000100
00010000
01000000
10000000
,
00100000
01000000
00010000
00000000
00022000
00000000
00033000
00000000
;
